<?xml version="1.0" standalone="no"?>
<!DOCTYPE svg PUBLIC "-//W3C//DTD SVG 1.1//EN" "http://www.w3.org/Graphics/SVG/1.1/DTD/svg11.dtd" >
<svg>
<metadata>
Created by FontForge 20090914 at Mon Sep 26 06:53:27 2016
 By www-data
&#194;&#169; Dana Rice &#38; Apostrophic Laboratories. Based on an OEM font called MrQ designed for greeting cards. All rights reserved. apostrofe@mail.com
</metadata>
<defs>
<font id="Desyrel" horiz-adv-x="438" >
  <font-face 
    font-family="Desyrel"
    font-weight="400"
    font-stretch="normal"
    units-per-em="1000"
    panose-1="2 0 6 3 5 0 0 2 0 3"
    ascent="800"
    descent="-200"
    x-height="301.997"
    cap-height="630.999"
    bbox="-160.005 -366.998 1242.99 903.002"
    underline-thickness="20"
    underline-position="-123"
    unicode-range="U+0020-U+FB02"
  />
<missing-glyph horiz-adv-x="500" 
 />
    <glyph glyph-name=".notdef" horiz-adv-x="500" 
 />
    <glyph glyph-name="space" unicode=" " horiz-adv-x="322" 
 />
    <glyph glyph-name="space" unicode="&#xa0;" horiz-adv-x="322" 
 />
    <glyph glyph-name="exclam" unicode="!" horiz-adv-x="295" 
d="M284 584l-0.00195312 19.002c0 8 -0.666992 14.667 -2 20v-1c-2.66699 13.333 -7.5 23.166 -14.5 29.499s-14.833 9.5 -23.5 9.5c-10.667 0 -20 -3.5 -28 -10.5s-12.333 -18.167 -13 -33.5c-2 -17.333 -3.83301 -39.666 -5.5 -66.999l-5.5 -89
c-2 -39.333 -4.16699 -79.833 -6.5 -121.5s-5.16602 -80.834 -8.49902 -117.501v-5c0 -13.333 4 -23.5 12 -30.5s17 -10.5 27 -10.5c9.33301 0 18 3.33301 26 10s12.333 17 13 31c2.66699 27.333 5.33398 56.166 8.00098 86.499s4.83398 60.5 6.50098 90.5
s3.16699 59 4.5 87s2.66602 53 3.99902 75c4 6 6 15.333 6 28zM233.998 66.002l-0.998047 0.999023c-5.33301 4 -10.5 7.16699 -15.5 9.5s-11.167 3.5 -18.5 3.5c-12 0 -23.333 -4.33301 -34 -13c-14 -13.333 -21 -29.333 -21 -48c0 -15.333 4.66699 -28.666 14 -39.999
c5.33301 -7.33301 11.666 -12.666 18.999 -15.999s14.666 -5 21.999 -5c11.333 0 22.333 4.33301 33 13c13.333 11.333 20 27 20 47c0 9.33301 -1.5 18.166 -4.5 26.499s-7.5 15.5 -13.5 21.5z" />
    <glyph glyph-name="quotedbl" unicode="&#x22;" horiz-adv-x="223" 
d="M108 511l0.000976562 60.001c-0.666992 12 -4.16699 20.5 -10.5 25.5s-13.166 8.16699 -20.499 9.5c-18 0 -31 -8.66699 -39 -26c-2 -4.66699 -3.83301 -9.5 -5.5 -14.5s-2.5 -10.167 -2.5 -15.5c0 -7.33301 2 -13.333 6 -18v-32
c0 -9.33301 -0.166992 -18.666 -0.5 -27.999s-0.5 -18 -0.5 -26c0 -12.667 3.66699 -21.834 11 -27.501s15.666 -8.5 24.999 -8.5s17.666 3 24.999 9s11 15 11 27v25c0 6.66699 0.166992 13.167 0.5 19.5s0.5 13.166 0.5 20.499zM226.001 509.001l0.000976562 59.9971
c-0.666992 12 -4.16699 20.5 -10.5 25.5s-13.166 8.16699 -20.499 9.5c-18 0 -31 -8.66699 -39 -26c-2 -4.66699 -3.83301 -9.5 -5.5 -14.5s-2.5 -10.167 -2.5 -15.5c0 -6 2 -12 6 -18v-32c0 -9.33301 -0.166992 -18.666 -0.5 -27.999s-0.5 -18 -0.5 -26
c0 -12.667 3.66699 -21.667 11 -27s15.666 -8 24.999 -8s17.666 2.83301 24.999 8.5s11 14.5 11 26.5v25c0 6.66699 0.166992 13.334 0.5 20.001s0.5 13.334 0.5 20.001z" />
    <glyph glyph-name="numbersign" unicode="#" horiz-adv-x="501" 
d="M526 299c0 9.33301 -3.16699 18.6699 -9.5 28.0029s-17.5 15.333 -33.5 18h1c-6.66699 1.33301 -14 2.33301 -22 3s-18 1.33398 -30 2.00098c3.33301 16 6.33301 33.667 9 53s4 35.666 4 48.999c0 12 -4.16699 21.833 -12.5 29.5s-17.5 11.5 -27.5 11.5
c-9.33301 0 -18.166 -2.5 -26.499 -7.5s-13.5 -14.833 -15.5 -29.5l-8 -54c-2.66699 -18.667 -5.66699 -36.334 -9 -53.001h-61c2 9.33301 3.83301 19.333 5.5 30s3.5 21.667 5.5 33v-1c1.33301 6 2.16602 12.167 2.49902 18.5s1.16602 12.833 2.49902 19.5v5
c0 9.33301 -3.83301 18.166 -11.5 26.499s-16.834 12.5 -27.501 12.5c-12 0 -21.667 -2.33301 -29 -7s-12 -14.334 -14 -29.001c-2.66699 -15.333 -5.5 -33 -8.5 -53s-6.16699 -39.333 -9.5 -58c-18 -0.666992 -33.333 -2 -46 -4s-25.667 -5.66699 -39 -11h1
c-9.33301 -2.66699 -17.333 -7 -24 -13s-10 -14.667 -10 -26c0 -12 3.5 -21.333 10.5 -28s14.833 -12 23.5 -16c6 -3.33301 13.667 -5 23 -5c16 0 29 6.33301 39 19c0.666992 0 1.33398 0.166992 2.00098 0.5s1.66699 0.5 3 0.5c-1.33301 -5.33301 -2 -9 -2 -11
c-5.33301 -30 -11 -60.333 -17 -91c-17.333 -0.666992 -33.333 -2 -48 -4s-26.334 -4.66699 -35.001 -8v1c-9.33301 -2.66699 -17.166 -7.83398 -23.499 -15.501s-9.5 -17.167 -9.5 -28.5c0 -12 4 -21.167 12 -27.5s15.333 -11.166 22 -14.499
c4.66699 -2.66699 11.334 -4 20.001 -4c6.66699 0 13.334 1.33301 20.001 4s12 6.66699 16 12c1.33301 0 3 0.166992 5 0.5s4 0.5 6 0.5c-0.666992 -2 -1.16699 -3.66699 -1.5 -5s-0.5 -3 -0.5 -5c-2.66699 -16 -5 -31.667 -7 -47s-3 -28.666 -3 -39.999v-11
c0 -3.33301 0.5 -7.33301 1.5 -12s2.83301 -9.16699 5.5 -13.5s6.33398 -8.16602 11.001 -11.499s11 -5.33301 19 -6h7c16.667 0 29.667 6.33301 39 19c3.33301 5.33301 6.16602 11 8.49902 17s3.5 12 3.5 18c0 10 -3 19 -9 27c0 10.667 0.833008 22.5 2.5 35.5
s4.16699 26.167 7.5 39.5c5.33301 0.666992 10.666 1 15.999 1h17h27c-1.33301 -6.66699 -2 -11 -2 -13c-2.66699 -16 -4.83398 -31.333 -6.50098 -46s-2.5 -28.334 -2.5 -41.001v-14c0.666992 -7.33301 3.33398 -16 8.00098 -26s14.667 -15.333 30 -16h3
c17.333 0 31.333 6.33301 42 19c3.33301 5.33301 6 10.666 8 15.999s3 11 3 17c0 10.667 -3 20 -9 28c0 11.333 0.833008 23.5 2.5 36.5s4.16699 26.167 7.5 39.5c6.66699 -0.666992 12.334 -1 17.001 -1c5.33301 0 10.666 -0.333008 15.999 -1
c2 0 3.83301 -0.166992 5.5 -0.5s3.5 -0.5 5.5 -0.5c6 -2.66699 11.167 -4.33398 15.5 -5.00098s8.83301 -1 13.5 -1c13.333 0 23.333 4.5 30 13.5s10 18.5 10 28.5c0 11.333 -3.33301 21.5 -10 30.5s-17.334 13.5 -32.001 13.5c-2 0 -4.66699 0.166992 -8 0.5
s-7 0.833008 -11 1.5l-16 2c-5.33301 0.666992 -11.666 1.33398 -18.999 2.00098c1.33301 9.33301 3 18.166 5 26.499s4 17.166 6 26.499c1.33301 8 3 16 5 24s3.66699 16.667 5 26c6.66699 -0.666992 13.167 -1.16699 19.5 -1.5s12.833 -1.16602 19.5 -2.49902l0.5 -0.5
c0.333008 -0.333008 0.833008 -0.5 1.5 -0.5c4.66699 -1.33301 9 -2.66602 13 -3.99902s9 -2 15 -2c12 0 21.833 3.83301 29.5 11.5s11.5 17.5 11.5 29.5zM310 164.004l-57 0.000976562c3.33301 17.333 6.5 34.666 9.5 51.999s6.16699 34.333 9.5 51h27h15
c4.66699 0 9.66699 0.333008 15 1c-3.33301 -17.333 -6.5 -35 -9.5 -53s-6.16699 -35 -9.5 -51z" />
    <glyph glyph-name="dollar" unicode="$" horiz-adv-x="439" 
d="M492 417l-0.000976562 -0.998047c1.33301 3.33301 2.16602 6.16602 2.49902 8.49902s0.5 4.83301 0.5 7.5c0 6 -1.16699 11.833 -3.5 17.5s-6.16602 10.5 -11.499 14.5c-5.33301 4.66699 -12.5 8.5 -21.5 11.5s-18.833 4.5 -29.5 4.5h-5c-15.333 0 -32 -1.5 -50 -4.5
s-35.667 -6.83301 -53 -11.5c1.33301 12 2.33301 24.333 3 37s1 23.667 1 33c0 13.333 -4 23.166 -12 29.499s-16.667 9.5 -26 9.5s-17.833 -3.5 -25.5 -10.5s-11.834 -16.5 -12.501 -28.5l-2.5 -43c-1 -16.667 -2.5 -34 -4.5 -52
c-3.33301 -1.33301 -7 -2.66602 -11 -3.99902l-12 -4c-15.333 -5.33301 -30.333 -10.833 -45 -16.5s-26.667 -11.167 -36 -16.5c-18 -11.333 -31.333 -23.833 -40 -37.5s-13 -27.167 -13 -40.5c0.666992 -15.333 5.83398 -29.166 15.501 -41.499
s24.834 -22.833 45.501 -31.5c4 -2 9 -4.33301 15 -7l19.5 -8.5l21 -9c7 -3 13.167 -5.5 18.5 -7.5c-0.666992 -6.66699 -1.33398 -13 -2.00098 -19s-1.33398 -12.333 -2.00098 -19l-9.5 -81c-3 -26.667 -4.5 -50 -4.5 -70c-7.33301 -4 -15.166 -7.5 -23.499 -10.5
s-15.166 -5.16699 -20.499 -6.5h-4c-3.33301 0 -6.83301 0.833008 -10.5 2.5l-11.5 5.5c-3.33301 1.33301 -6 2 -8 2h-7c-7.33301 0 -14.333 -2.16699 -21 -6.5s-11.334 -9.5 -14.001 -15.5c-3.33301 -8 -5 -14.333 -5 -19c0 -7.33301 1.83301 -14.166 5.5 -20.499
s9.83398 -11.166 18.501 -14.499c9.33301 -4.66699 18.5 -7.66699 27.5 -9s17.167 -2 24.5 -2h8c12.667 2 26 5.66699 40 11v-8c0 -5.33301 0.166992 -9.66602 0.5 -12.999s0.833008 -6.33301 1.5 -9c6 -30.667 22.333 -47.334 49 -50.001
c1.33301 0 2.83301 -0.166992 4.5 -0.5s3.16699 -0.5 4.5 -0.5c8.66699 0 15.5 1.83301 20.5 5.5s9.16699 8.16699 12.5 13.5c3.33301 8 5 14 5 18c0 7.33301 -3.33301 15.333 -10 24c-3.33301 3.33301 -5.33301 6 -6 8c-2.66699 4 -5 7 -7 9
c-1.33301 3.33301 -2 6.66602 -2 9.99902v11v11c0 3.33301 0.666992 6.66602 2 9.99902c12 7.33301 23.5 16.166 34.5 26.499s21.167 20.5 30.5 30.5c39.333 40.667 59 81.667 59 123c0 18 -4.16699 33 -12.5 45s-21.166 23.667 -38.499 35h1c-6 4 -13.333 8.33301 -22 13
s-17.334 8.66699 -26.001 12c2 16 4 34.833 6 56.5s3.66699 41.167 5 58.5c19.333 5.33301 38.5 10 57.5 14s34.5 6.33301 46.5 7c10 -8.66699 21.667 -13 35 -13c9.33301 0 17.833 2.66699 25.5 8s12.5 11.666 14.5 18.999zM322.999 155.002l-0.000976562 -2.99707
c0 -10.667 -4 -22 -12 -34s-17.667 -23.667 -29 -35c0.666992 9.33301 1.66699 19.333 3 30l4 32l2 19.5c0.666992 6.33301 1.33398 13.166 2.00098 20.499c6 -2.66699 12 -6.33398 18 -11.001l2 -2c4 -3.33301 6.66699 -5.83301 8 -7.5s2 -4.83398 2 -9.50098z
M232.998 333.005c-1.33301 -7.33301 -2.16895 -14.333 -2.50195 -21s-0.833008 -12.667 -1.5 -18l-25 11c-9.33301 4 -16 7 -20 9c-3.33301 1.33301 -6.16602 2.83301 -8.49902 4.5s-3.5 3.5 -3.5 5.5c0.666992 2.66699 4.33398 6.66699 11.001 12
c5.33301 3.33301 12.333 6.66602 21 9.99902l26 10v-1c1.33301 0 3.33301 0.666992 6 2c-0.666992 -4 -1.16699 -8.16699 -1.5 -12.5s-0.833008 -8.16602 -1.5 -11.499z" />
    <glyph glyph-name="percent" unicode="%" horiz-adv-x="684" 
d="M683 56c-2.66699 25.333 -9.16699 50.002 -19.5 74.002s-28.166 44.667 -53.499 62c0.666992 0.666992 1.16699 1.33398 1.5 2.00098s0.833008 1.33398 1.5 2.00098c4 4.66699 6 10.667 6 18c0 8 -4.33301 15.667 -13 23c-4.66699 4.66699 -13 7 -25 7
c-4.66699 0 -9.16699 -0.5 -13.5 -1.5s-9.16602 -3.16699 -14.499 -6.5c-14 -9.33301 -28.667 -21 -44 -35s-30 -29.833 -44 -47.5s-26.167 -37.167 -36.5 -58.5s-17.166 -43.666 -20.499 -66.999c-0.666992 -4 -1.16699 -7.66699 -1.5 -11s-0.5 -7 -0.5 -11
c0 -30.667 9 -53.334 27 -68.001s42 -22 72 -22h9c3.33301 0 6.66602 0.333008 9.99902 1c1.33301 0 2.33301 0.166992 3 0.5s1.66699 0.5 3 0.5c13.333 1.33301 27.666 3.16602 42.999 5.49902s28.666 5.16602 39.999 8.49902c21.333 7.33301 38.5 18.666 51.5 33.999
s19.5 37.666 19.5 66.999v11c0 4 -0.333008 8 -1 12zM344 294.002c-2.66699 25.333 -9.16699 49.834 -19.5 73.501s-28.166 44.5 -53.499 62.5c0.666992 0.666992 1.16699 1.33398 1.5 2.00098s0.833008 1.33398 1.5 2.00098c4 4.66699 6 10.334 6 17.001
c0 8.66699 -4.33301 16.334 -13 23.001c-5.33301 5.33301 -13.666 8 -24.999 8c-10 0 -19.333 -2.66699 -28 -8c-14 -9.33301 -28.667 -21 -44 -35s-30 -30 -44 -48s-26.167 -37.5 -36.5 -58.5s-17.166 -43.167 -20.499 -66.5c-0.666992 -4 -1.16699 -7.83301 -1.5 -11.5
s-0.5 -7.16699 -0.5 -10.5c0 -30.667 9 -53.334 27 -68.001s42 -22 72 -22h9c3.33301 0 6.66602 0.333008 9.99902 1c1.33301 0 2.33301 0.166992 3 0.5s1.66699 0.5 3 0.5c13.333 1.33301 27.666 3.16602 42.999 5.49902s28.666 5.16602 39.999 8.49902
c21.333 7.33301 38.5 18.666 51.5 33.999s19.5 37.666 19.5 66.999v11c0 4 -0.333008 8 -1 12zM567 415.003l-1.00098 -0.999023c1.33301 4 2.16602 7.16699 2.49902 9.5s0.5 4.83301 0.5 7.5c0 9.33301 -2.33301 17.166 -7 23.499s-10.667 11.166 -18 14.499
c-3.33301 1.33301 -6.66602 2 -9.99902 2c-15.333 0 -28.333 -7.33301 -39 -22s-16 -32.334 -16 -53.001l-45.5 -73l-55.5 -87l-58 -88.5c-19.333 -29.667 -36.5 -57.5 -51.5 -83.5s-27.167 -49 -36.5 -69s-14 -35 -14 -45v-3c0.666992 -10 3.83398 -18.167 9.50098 -24.5
s12.5 -10.5 20.5 -12.5c1.33301 0 2.83301 -0.166992 4.5 -0.5s3.16699 -0.5 4.5 -0.5c8 0 15.333 2.5 22 7.5s11 13.167 13 24.5c0.666992 6 4.5 15.833 11.5 29.5s16.167 29.834 27.5 48.501l38.5 62l44.5 70l51 81l47.5 76.5c14.333 23.667 26.5 44.834 36.5 63.501
s16 33 18 43zM268.999 278.004l-0.00195312 -1.00098c0.666992 -2.66699 1 -5.66699 1 -9c0 -14.667 -7.33301 -24 -22 -28c-6 -2 -13.5 -3.66699 -22.5 -5l-26.5 -4c-3.33301 -0.666992 -7 -1 -11 -1c-3.33301 0 -6.33301 -0.333008 -9 -1h-7c-19.333 0 -29 7.33301 -29 22
v5c2 14.667 5.5 28.334 10.5 41.001s11 24.167 18 34.5s14.333 19.333 22 27s14.5 14.167 20.5 19.5c11.333 -5.33301 20.333 -12 27 -20s11.834 -16.5 15.501 -25.5s6.33398 -18.333 8.00098 -28zM607.997 41.0029l-0.00195312 -1.00098c0.666992 -2.66699 1 -6 1 -10
c0 -8 -1.83301 -14 -5.5 -18s-9.16699 -7.33301 -16.5 -10c-6 -2 -13.5 -3.66699 -22.5 -5l-26.5 -4c-3.33301 -0.666992 -7 -1 -11 -1c-3.33301 0 -6.33301 -0.333008 -9 -1h-7c-19.333 0 -29 7.66699 -29 23v4c2 14.667 5.5 28.334 10.5 41.001s11 24.167 18 34.5
s14.333 19.333 22 27s14.5 14.167 20.5 19.5c11.333 -5.33301 20.333 -12 27 -20s11.834 -16.5 15.501 -25.5s6.33398 -18.167 8.00098 -27.5z" />
    <glyph glyph-name="ampersand" unicode="&#x26;" horiz-adv-x="424" 
d="M266 -76c0 11.333 -2.66504 19.6699 -7.99805 25.0029c26 1.33301 50.833 4.16602 74.5 8.49902s44.167 11.833 61.5 22.5c14 8.66699 21 20.667 21 36c0 4 -0.833008 8.33301 -2.5 13s-3.5 9 -5.5 13v-1c-3.33301 6 -8 11 -14 15s-12.667 6 -20 6
c-8.66699 0 -17 -3 -25 -9c-10.667 -6.66699 -26 -11 -46 -13s-41 -3 -63 -3c-7.33301 0 -14.333 0.166992 -21 0.5s-13.334 0.833008 -20.001 1.5c-26.667 1.33301 -45.167 4.66602 -55.5 9.99902s-15.5 12.666 -15.5 21.999c0 5.33301 0.666992 10 2 14
c3.33301 10 8.83301 18.667 16.5 26s16.5 12.666 26.5 15.999c10.667 4.66699 21 8.5 31 11.5s19.333 6.16699 28 9.5c5.33301 2 10.666 3.66699 15.999 5s9.66602 2.66602 12.999 3.99902c18 8.66699 27 21.667 27 39v3c0 20 -8.66699 34.333 -26 43
c-2.66699 1.33301 -5.5 2.83301 -8.5 4.5s-6.16699 3.16699 -9.5 4.5c-7.33301 3.33301 -14 6.5 -20 9.5s-9.66699 7.16699 -11 12.5v-3c0 0.666992 -0.166992 1.33398 -0.5 2.00098s-0.5 1.33398 -0.5 2.00098c0 4.66699 3 9.16699 9 13.5s15 6.5 27 6.5
c16.667 0 29.834 -1.16699 39.501 -3.5s18.834 -5.16602 27.501 -8.49902c0.666992 0 1 -0.333008 1 -1h2c2.66699 -0.666992 7.33398 -1 14.001 -1c14 0 25.667 5.66699 35 17c2 4 3.83301 8.33301 5.5 13s2.5 9.33398 2.5 14.001c0 6.66699 -1.66699 13 -5 19
s-9.33301 11.333 -18 16c-7.33301 4.66699 -15.833 8.5 -25.5 11.5s-20.167 5.5 -31.5 7.5c4.66699 3.33301 8.5 7.83301 11.5 13.5s4.83301 12.5 5.5 20.5c0 2 0.333008 5 1 9s1.66699 8.33301 3 13c1.33301 5.33301 2.66602 11.166 3.99902 17.499
s2.66602 13.833 3.99902 22.5v1c0 14.667 -3.83301 25.5 -11.5 32.5s-17.5 10.833 -29.5 11.5h-5c-10.667 0 -20 -3.66699 -28 -11s-12 -18.333 -12 -33c0 -3.33301 -0.333008 -6.5 -1 -9.5s-1.66699 -6.16699 -3 -9.5c-5.33301 -14 -8 -27 -8 -39v-5
c0 -7.33301 1.16699 -13.5 3.5 -18.5s5.16602 -9.5 8.49902 -13.5c-17.333 -1.33301 -33.333 -5.5 -48 -12.5s-27.167 -15.667 -37.5 -26s-18.333 -21.666 -24 -33.999s-8.5 -24.833 -8.5 -37.5c0 -9.33301 1.33301 -18 4 -26c2.66699 -6.66699 6.33398 -12.5 11.001 -17.5
l15 -15.5c-3.33301 -1.33301 -6.5 -2.83301 -9.5 -4.5s-6.16699 -3.16699 -9.5 -4.5h1c-16 -8 -31.833 -19.333 -47.5 -34s-27.834 -31.667 -36.501 -51c-6.66699 -18 -10 -35.667 -10 -53c0 -30.667 12.167 -56.667 36.5 -78s62.833 -33.333 115.5 -36
c-5.33301 -6.66699 -8 -15.334 -8 -26.001c0 -4 -0.666992 -8 -2 -12v1c-1.33301 -4.66699 -3 -9.5 -5 -14.5s-3 -11.167 -3 -18.5v-2c0 -14.667 4.16699 -25.167 12.5 -31.5s17.833 -9.5 28.5 -9.5s20.167 3.16699 28.5 9.5s13.5 17.166 15.5 32.499
c0 1.33301 0.333008 2.83301 1 4.5s1.33398 3.16699 2.00098 4.5l-1 -1c1.33301 5.33301 3 11 5 17s3 12.667 3 20z" />
    <glyph glyph-name="quotesingle" unicode="'" horiz-adv-x="117" 
d="M94 511l0.000976562 58.999c-0.666992 12 -3.66699 20.5 -9 25.5s-11 8.16699 -17 9.5c-15.333 0 -26.333 -8.33301 -33 -25c-2 -5.33301 -3.66699 -10.333 -5 -15s-2 -9.66699 -2 -15c0 -8 1.66699 -14.333 5 -19v-31c0 -9.33301 -0.166992 -18.666 -0.5 -27.999
s-0.5 -18.333 -0.5 -27c0 -12 3.16699 -20.833 9.5 -26.5s13.166 -8.5 20.499 -8.5c8.66699 0 16 3 22 9s9 14.667 9 26v26c0 6 0.166992 12.333 0.5 19s0.5 13.667 0.5 21z" />
    <glyph glyph-name="parenleft" unicode="(" horiz-adv-x="427" 
d="M489 684l2.00293 -0.996094c-8 8.66699 -17.333 13 -28 13c-5.33301 0 -10.5 -0.833008 -15.5 -2.5s-9.83301 -5.16699 -14.5 -10.5h1c-36 -37.333 -71.667 -77.166 -107 -119.499s-67 -86.5 -95 -132.5s-50.5 -93.333 -67.5 -142s-25.5 -98 -25.5 -148
c0 -35.333 4.66699 -68.333 14 -99s23.5 -58.167 42.5 -82.5s43.167 -45 72.5 -62s64 -29.833 104 -38.5c2 -0.666992 4 -1 6 -1h7c11.333 0 19.833 2.83301 25.5 8.5s9.5 13.167 11.5 22.5c0 1.33301 0.166992 2.66602 0.5 3.99902s0.5 2.66602 0.5 3.99902
c0 21.333 -11 34.666 -33 39.999c-60.667 16.667 -104.834 41.5 -132.501 74.5s-41.5 76.5 -41.5 130.5c0 38 6.66699 77.667 20 119s32.166 82.833 56.499 124.5s53.166 83 86.499 124s70 80.833 110 119.5v-1c8 7.33301 12 16.666 12 27.999s-4 20.666 -12 27.999z" />
    <glyph glyph-name="parenright" unicode=")" horiz-adv-x="427" 
d="M397 414c0 34.667 -4.66797 67.3311 -14.001 97.998s-23.666 58.167 -42.999 82.5s-43.5 45.166 -72.5 62.499s-63.5 30 -103.5 38c-2 0.666992 -4.33301 1 -7 1h-5c-11.333 0 -20 -2.66699 -26 -8s-9.66699 -12.666 -11 -21.999
c0 -1.33301 -0.166992 -2.83301 -0.5 -4.5s-0.5 -3.16699 -0.5 -4.5c0 -9.33301 2.66699 -17.5 8 -24.5s13.666 -11.833 24.999 -14.5h-1c60.667 -16.667 104.834 -41.5 132.501 -74.5s41.5 -76.5 41.5 -130.5c0 -38 -6.66699 -77.667 -20 -119s-32 -82.833 -56 -124.5
s-52.833 -83 -86.5 -124s-70.5 -80.833 -110.5 -119.5v1c-8 -8 -12 -17.667 -12 -29c0 -10 4 -19 12 -27l-2 1c8 -9.33301 17.667 -14 29 -14c4.66699 0 9.66699 1 15 3s10 5.66699 14 11h-1c36 36 71.667 75.333 107 118s66.833 87.334 94.5 134.001
s50.167 94.334 67.5 143.001s26 97.667 26 147z" />
    <glyph glyph-name="asterisk" unicode="*" horiz-adv-x="303" 
d="M379 530l-0.00390625 -1.00195c-7.33301 11.333 -17.666 17 -30.999 17c-3.33301 0 -6.66602 -0.333008 -9.99902 -1s-7.33301 -1.66699 -12 -3c-7.33301 -3.33301 -18.666 -9.83301 -33.999 -19.5l-42 -26.5c1.33301 10.667 3.33301 22.167 6 34.5l8 35.5
c0.666992 3.33301 1.16699 6.33301 1.5 9s0.833008 5.33398 1.5 8.00098v4c0 10.667 -3.66699 19 -11 25s-15.666 9 -24.999 9c-8.66699 0 -16.667 -2.16699 -24 -6.5s-12 -12.166 -14 -23.499v1c-1.33301 -5.33301 -2.16602 -13.166 -2.49902 -23.499
s-0.5 -21.166 -0.5 -32.499v-41c-4 2.66699 -7.66699 5.66699 -11 9l-27 19.5c-9.33301 7 -18.666 12.167 -27.999 15.5c-6 2.66699 -12.333 4 -19 4c-15.333 0 -26 -6 -32 -18c-4 -5.33301 -6 -12.333 -6 -21c0 -4 0.666992 -7.83301 2 -11.5s3 -7.5 5 -11.5v1
c4.66699 -7.33301 10.167 -12.5 16.5 -15.5s13.166 -4.5 20.499 -4.5h11c4 -2 8.66699 -4.16699 14 -6.5s11 -4.5 17 -6.5c1.33301 -1.33301 2.66602 -2 3.99902 -2c-5.33301 -3.33301 -11 -6.33301 -17 -9s-12 -5.66699 -18 -9l-26 -12.5
c-8 -3.66699 -14 -6.83398 -18 -9.50098c-6.66699 -4.66699 -11.5 -10 -14.5 -16s-4.5 -12 -4.5 -18s1.66699 -11.667 5 -17c8.66699 -14 21.334 -21 38.001 -21h7c9.33301 1.33301 17.666 5 24.999 11s11.666 13.333 12.999 22c3.33301 2 6.83301 4.5 10.5 7.5l11.5 9.5
c1.33301 1.33301 3.16602 2.83301 5.49902 4.5l6.5 4.5c-0.666992 -1.33301 -1 -3.66602 -1 -6.99902l-6 -35.5c-2 -12.333 -3 -23.166 -3 -32.499c0 -14 3.83301 -24.333 11.5 -31s16.834 -10.334 27.501 -11.001c10 0 18.833 2.83301 26.5 8.5s12.834 14.5 15.501 26.5v9
c0 7.33301 -2 15.666 -6 24.999c0 4 -0.166992 9.33301 -0.5 16s-0.833008 13.334 -1.5 20.001c-0.666992 2.66699 -1 6.66699 -1 12h1v1c5.33301 -5.33301 10.833 -10.333 16.5 -15l14.5 -12c3.33301 -7.33301 8.5 -14 15.5 -20s15.167 -10 24.5 -12h7
c10.667 0 20.334 4 29.001 12c6.66699 6.66699 10 14 10 22s-3 16 -9 24c-2.66699 3.33301 -7 7.33301 -13 12s-12.667 9.16699 -20 13.5l-22.5 13c-7.66699 4.33301 -14.834 8.16602 -21.501 11.499c2 1.33301 4.16699 2.33301 6.5 3s4.5 1.66699 6.5 3h-1
c8 3.33301 16.167 6.16602 24.5 8.49902s14.833 4.5 19.5 6.5h3c7.33301 0 13.833 1.5 19.5 4.5s10.5 6.16699 14.5 9.5c6 5.33301 10.167 10.833 12.5 16.5s3.5 11.167 3.5 16.5c0 8 -1.66699 14 -5 18z" />
    <glyph glyph-name="plus" unicode="+" horiz-adv-x="373" 
d="M200 141l2.00098 -0.000976562c9.33301 0 17.5 2.83301 24.5 8.5s10.5 13.834 10.5 24.501v6c-0.666992 4.66699 -1.16699 9.83398 -1.5 15.501s-0.5 11.834 -0.5 18.501v28c0 10 0.666992 20.667 2 32h37c7.33301 0 14 0.166992 20 0.5s11.667 0.5 17 0.5
c12 2 20.833 6.66699 26.5 14s8.5 14.666 8.5 21.999v2c0 9.33301 -2.83301 17.5 -8.5 24.5s-13.834 10.5 -24.501 10.5h-6c-4 -0.666992 -8.33301 -1.16699 -13 -1.5s-10 -0.5 -16 -0.5c-4 0 -8.33301 0.166992 -13 0.5s-9.66699 0.5 -15 0.5h-10v13c0 23.333 -1 40 -3 50
c-5.33301 23.333 -19.333 37.666 -42 42.999c-1.33301 0 -2.66602 0.166992 -3.99902 0.5s-2.66602 0.5 -3.99902 0.5c-6.66699 0 -12.334 -1.33301 -17.001 -4s-9 -6 -13 -10h1c-3.33301 -3.33301 -5.66602 -7.16602 -6.99902 -11.499s-2 -8.5 -2 -12.5
s0.166992 -7.33301 0.5 -10s1.5 -5.33398 3.5 -8.00098v1c0.666992 -3.33301 2.66699 -6.33301 6 -9c3.33301 -3.33301 5 -6.66602 5 -9.99902c0.666992 -2.66699 1 -7.66699 1 -15v-15c-8 0.666992 -15.667 1.16699 -23 1.5s-13.666 0.5 -18.999 0.5
c-28.667 0 -49.5 -3.33301 -62.5 -10s-21.833 -18.667 -26.5 -36c0 -0.666992 -0.166992 -1.83398 -0.5 -3.50098s-0.5 -3.16699 -0.5 -4.5c0 -12 4.66699 -22 14 -30v1c6.66699 -6.66699 14.667 -10 24 -10c8 0 14 1.66699 18 5h-1c1.33301 0.666992 2.83301 1.5 4.5 2.5
s3.16699 2.16699 4.5 3.5c3.33301 3.33301 6.66602 5 9.99902 5c2.66699 0 6 0.166992 10 0.5s8.66699 0.5 14 0.5h14c5.33301 0 11.333 -0.333008 18 -1v-50c0 -10 0.166992 -19.333 0.5 -28s0.833008 -16 1.5 -22c1.33301 -11.333 5.66602 -19.833 12.999 -25.5
s14.666 -8.5 21.999 -8.5z" />
    <glyph glyph-name="comma" unicode="," horiz-adv-x="145" 
d="M103 61l-0.999023 0.00195312c-5.33301 0 -11 -1.83301 -17 -5.5s-10.667 -9.83398 -14 -18.501c-1.33301 -4 -3.16602 -9.16699 -5.49902 -15.5s-3.5 -12.166 -3.5 -17.499c0 -7.33301 2 -13 6 -17c0 -6 -0.333008 -13.667 -1 -23s-1.83398 -19.333 -3.50098 -30
s-3.83398 -21.334 -6.50098 -32.001s-6 -20.334 -10 -29.001c-3.33301 -5.33301 -5 -11 -5 -17c0 -7.33301 2 -13.666 6 -18.999s8.66699 -9.33301 14 -12c4.66699 -2.66699 9.66699 -4 15 -4c12.667 0 22 6.33301 28 19c12 25.333 19.833 51.666 23.5 78.999s5.5 52 5.5 74
v20c0 6 -0.333008 11.667 -1 17c-0.666992 10.667 -4 18.5 -10 23.5s-12.667 7.5 -20 7.5z" />
    <glyph glyph-name="hyphen" unicode="-" horiz-adv-x="472" 
d="M440 159l0.00195312 0.998047c0 8 -2.83301 15 -8.5 21s-13.834 9 -24.501 9h-6c-4 -0.666992 -8.66699 -1 -14 -1h-18c-10 0 -21.167 0.166992 -33.5 0.5s-24.833 0.833008 -37.5 1.5c-13.333 0.666992 -27 1 -41 1h-38c-11.333 0 -21 -0.166992 -29 -0.5
s-14.667 -1.16602 -20 -2.49902h1c-23.333 -4 -37.666 -16 -42.999 -36c0 -0.666992 -0.166992 -1.66699 -0.5 -3s-0.5 -2.33301 -0.5 -3c0 -9.33301 4.66699 -18 14 -26v1c7.33301 -5.33301 15.333 -8 24 -8c7.33301 0 13.333 1.33301 18 4h-1
c1.33301 0.666992 2.83301 1.33398 4.5 2.00098s3.16699 1.66699 4.5 3c4 2.66699 7.33301 4 10 4c3.33301 0.666992 7.66602 1 12.999 1h19h56c10.667 0 21.5 -0.166992 32.5 -0.5s21.5 -0.5 31.5 -0.5c10.667 0 20.667 0.166992 30 0.5s17.333 0.5 24 0.5
c11.333 2 19.666 6 24.999 12s8 12.333 8 19z" />
    <glyph glyph-name="hyphen" unicode="&#xad;" horiz-adv-x="472" 
d="M440 159l0.00195312 0.998047c0 8 -2.83301 15 -8.5 21s-13.834 9 -24.501 9h-6c-4 -0.666992 -8.66699 -1 -14 -1h-18c-10 0 -21.167 0.166992 -33.5 0.5s-24.833 0.833008 -37.5 1.5c-13.333 0.666992 -27 1 -41 1h-38c-11.333 0 -21 -0.166992 -29 -0.5
s-14.667 -1.16602 -20 -2.49902h1c-23.333 -4 -37.666 -16 -42.999 -36c0 -0.666992 -0.166992 -1.66699 -0.5 -3s-0.5 -2.33301 -0.5 -3c0 -9.33301 4.66699 -18 14 -26v1c7.33301 -5.33301 15.333 -8 24 -8c7.33301 0 13.333 1.33301 18 4h-1
c1.33301 0.666992 2.83301 1.33398 4.5 2.00098s3.16699 1.66699 4.5 3c4 2.66699 7.33301 4 10 4c3.33301 0.666992 7.66602 1 12.999 1h19h56c10.667 0 21.5 -0.166992 32.5 -0.5s21.5 -0.5 31.5 -0.5c10.667 0 20.667 0.166992 30 0.5s17.333 0.5 24 0.5
c11.333 2 19.666 6 24.999 12s8 12.333 8 19z" />
    <glyph glyph-name="period" unicode="." horiz-adv-x="145" 
d="M126 -25c7.33301 4.66699 12.5 10.666 15.5 17.999s4.5 15 4.5 23s-1.5 15.833 -4.5 23.5s-8.16699 13.834 -15.5 18.501c-8.66699 6.66699 -19 10 -31 10c-5.33301 0 -11 -0.833008 -17 -2.5s-11 -4.16699 -15 -7.5c-13.333 -10.667 -20 -24 -20 -40
c0 -17.333 5.33301 -30.5 16 -39.5s22.667 -13.5 36 -13.5c12 0 22.333 3.33301 31 10z" />
    <glyph glyph-name="slash" unicode="/" horiz-adv-x="532" 
d="M634 610c0.666992 3.33301 0.999023 6.33203 0.999023 8.99902v10c0 12 -1.83301 22.167 -5.5 30.5s-9.83398 13.166 -18.501 14.499l1 -1c-3.33301 1.33301 -6 2 -8 2h-4c-8 0 -15.167 -2 -21.5 -6s-12.5 -11.333 -18.5 -22c-5.33301 -8 -8.83301 -16.833 -10.5 -26.5
s-2.5 -20.5 -2.5 -32.5c-14 -22 -30 -45.5 -48 -70.5l-57.5 -78.5l-64 -83l-66.5 -84l-85 -108c-27.333 -34.667 -51.666 -67 -72.999 -97s-38.666 -56.667 -51.999 -80s-20.666 -41.666 -21.999 -54.999v-7c0 -20.667 9.66699 -33 29 -37l-1 1
c4.66699 -2.66699 10.334 -4 17.001 -4c7.33301 0 13.166 2 17.499 6s8.16602 11 11.499 21c2.66699 12 10.5 28.5 23.5 49.5s29.5 45.167 49.5 72.5l67.5 89l76.5 98l92 118.5l83 111.5c24.667 34.667 45.167 65.834 61.5 93.501s25.5 49.5 27.5 65.5z" />
    <glyph glyph-name="zero" unicode="0" horiz-adv-x="637" 
d="M617 75l-0.00195312 1.00098c8 14.667 12 31.334 12 50.001c0 14 -2.66699 28.667 -8 44s-12.666 30.666 -21.999 45.999l-25 37c-9.33301 13.333 -20.166 26.666 -32.499 39.999s-26.333 26.333 -42 39s-33.5 23.667 -53.5 33c-13.333 6 -27.833 11.167 -43.5 15.5
s-31.5 8.16602 -47.5 11.499c4 4 6 9 6 15c0 12.667 -3.66699 21.667 -11 27c-6 4 -12 7.66699 -18 11s-11.667 5 -17 5c-8.66699 0 -18 -3 -28 -9l-23.5 -20c-9.66699 -8 -18.167 -15.667 -25.5 -23c-6.66699 -1.33301 -12.5 -4.33301 -17.5 -9s-8.16699 -10.667 -9.5 -18
c-12.667 -12.667 -25.834 -28 -39.501 -46s-26.5 -38 -38.5 -60s-22.5 -45.5 -31.5 -70.5s-14.833 -50.833 -17.5 -77.5c-0.666992 -4 -1.16699 -8.16699 -1.5 -12.5s-0.5 -8.83301 -0.5 -13.5c0 -26 4.16699 -48.667 12.5 -68s19.5 -36 33.5 -50
c28.667 -28 67.334 -42 116.001 -42c14 0 28.167 1 42.5 3s28.5 5.33301 42.5 10c24.667 8.66699 52 16.334 82 23.001l51.5 14l46.5 13c54 18 90 45 108 81zM530.998 117.001c-4 -8.66699 -10.668 -15.8311 -20.001 -21.498s-20.666 -11.167 -33.999 -16.5
c-6 -2 -14.667 -4.66699 -26 -8s-24.166 -6.83301 -38.499 -10.5l-44.5 -11c-15.333 -3.66699 -29.333 -7.16699 -42 -10.5h1c-4 -1.33301 -7.83301 -2.33301 -11.5 -3s-7.16699 -1.66699 -10.5 -3c-10.667 -3.33301 -20.834 -5.83301 -30.501 -7.5s-18.167 -2.5 -25.5 -2.5
c-22.667 0 -39.334 5.33301 -50.001 16c-6.66699 6.66699 -12 15.834 -16 27.501s-6 25.167 -6 40.5c0 9.33301 0.666992 18.833 2 28.5s4 20.167 8 31.5c9.33301 28 22.833 54.667 40.5 80s34.834 46.666 51.501 63.999c24 -1.33301 46.167 -4.16602 66.5 -8.49902
s38.5 -9.83301 54.5 -16.5c22.667 -10.667 44.667 -26.334 66 -47.001s40.333 -44.334 57 -71.001c7.33301 -12.667 11 -24.334 11 -35.001c0 -6.66699 -1 -12 -3 -16z" />
    <glyph glyph-name="one" unicode="1" horiz-adv-x="344" 
d="M311 44c0 16.667 -6.33105 28.332 -18.998 34.999h1c-5.33301 3.33301 -11.333 5.83301 -18 7.5s-14.667 2.5 -24 2.5c1.33301 22 3.33301 48.167 6 78.5l8.5 93.5l9 94c3 30.667 5.83301 57.334 8.5 80.001v5c0 13.333 -5 25 -15 35s-21.667 15 -35 15
c-10 0 -19 -3 -27 -9c-3.33301 -2.66699 -7.83301 -5.66699 -13.5 -9s-11.5 -7 -17.5 -11c-8 -5.33301 -15.667 -10 -23 -14s-13 -7.33301 -17 -10h1c-16 -8.66699 -24 -20.667 -24 -36c0 -9.33301 2 -17.333 6 -24c3.33301 -6 8 -11.167 14 -15.5s12.667 -6.5 20 -6.5
c1.33301 0 2.16602 0.166992 2.49902 0.5s1.16602 0.5 2.49902 0.5c5.33301 2 10.666 4.33301 15.999 7s10.333 5.33398 15 8.00098c-2 -16 -4.33301 -36 -7 -60s-5 -49.333 -7 -76s-3.83301 -53.334 -5.5 -80.001s-2.5 -50.334 -2.5 -71.001
c-7.33301 -0.666992 -14.666 -1.66699 -21.999 -3s-14 -3.33301 -20 -6c-10.667 -3.33301 -18.334 -8.5 -23.001 -15.5s-7 -14.833 -7 -23.5c0 -7.33301 1.33301 -13.666 4 -18.999l-1 1c6.66699 -21.333 21.334 -33.333 44.001 -36h5c9.33301 0 18 3 26 9
c2.66699 0.666992 5.66699 1 9 1c2.66699 0 4.33398 0.333008 5.00098 1c6 -6 13.667 -9 23 -9c11.333 0 20 4.33301 26 13h16h9c3.33301 0 6.66602 0.333008 9.99902 1c14 2 24.333 7.33301 31 16s10 18.667 10 30z" />
    <glyph glyph-name="two" unicode="2" horiz-adv-x="580" 
d="M595 30l-0.000976562 4.00195c0 12 -4.16699 23 -12.5 33s-21.166 15.667 -38.499 17c-10.667 1.33301 -22 2 -34 2h-38c-34 0 -70 -1.16699 -108 -3.5s-75.667 -5.83301 -113 -10.5c29.333 23.333 57.666 47 84.999 71s50.333 46.667 69 68v-1
c14.667 17.333 26.167 35 34.5 53s12.5 35.667 12.5 53c0 31.333 -14.667 58.333 -44 81c-7.33301 5.33301 -19 13 -35 23s-32.333 17.667 -49 23c-9.33301 3.33301 -25 6.16602 -47 8.49902s-44.667 3.5 -68 3.5h-19c-5.33301 0 -10.666 -0.333008 -15.999 -1
c-14 -0.666992 -24.167 -5.5 -30.5 -14.5s-9.5 -18.167 -9.5 -27.5v-2c0 -11.333 3.83301 -21.666 11.5 -30.999s19.167 -14.333 34.5 -15c8 0 17.5 -0.333008 28.5 -1l33 -2c11 -0.666992 21.167 -1.5 30.5 -2.5s16.333 -1.83301 21 -2.5h-1
c10.667 -2 20.5 -5.83301 29.5 -11.5s16.167 -10.834 21.5 -15.501c8 -6 12 -13.333 12 -22c0 -11.333 -6.66699 -24.333 -20 -39l-47 -45l-58.5 -52l-65.5 -53.5l-67 -50.5c-16.667 -10.667 -25 -25.334 -25 -44.001c0 -9.33301 2.33301 -17.666 7 -24.999v1
c4 -8.66699 10.333 -16.167 19 -22.5s19.334 -9.5 32.001 -9.5h8c24.667 3.33301 51 6.66602 79 9.99902s56.167 6.33301 84.5 9s56.5 4.83398 84.5 6.50098s54.667 2.5 80 2.5c7.33301 0 13.833 0.166992 19.5 0.5s11.5 0.166016 17.5 -0.500977c10 -8 22.333 -12 37 -12
c7.33301 0 13.666 1.33301 18.999 4c11.333 4 19.833 9.83301 25.5 17.5s9.16699 16.167 10.5 25.5z" />
    <glyph glyph-name="three" unicode="3" horiz-adv-x="498" 
d="M471 88c-0.666992 29.333 -8.99805 55.6641 -24.998 78.9971s-40.667 41.333 -74 54c-10.667 3.33301 -20.5 5.83301 -29.5 7.5s-17.833 2.83398 -26.5 3.50098c17.333 12.667 33.166 25.167 47.499 37.5s26.166 23.5 35.499 33.5c27.333 28.667 41 57.334 41 86.001
c0 14.667 -2.66699 26.334 -8 35.001c-8.66699 15.333 -23 28.333 -43 39s-47 16.667 -81 18h-16c-34.667 0 -69 -3.66699 -103 -11s-62 -15.666 -84 -24.999c-16 -8.66699 -24 -21.334 -24 -38.001c0 -10 2.33301 -19 7 -27c4.66699 -6 10.5 -11.167 17.5 -15.5
s14.833 -6.5 23.5 -6.5s16.667 1.66699 24 5c14 7.33301 33 13.333 57 18s48.667 7 74 7h14c13.333 -0.666992 22.666 -2 27.999 -4s8 -4.66699 8 -8c0 -5.33301 -4.33301 -13 -13 -23c-9.33301 -9.33301 -20.666 -19.5 -33.999 -30.5l-42 -33l-43 -31.5
c-14 -10 -26.333 -18.333 -37 -25c-9.33301 -6.66699 -16.333 -13.667 -21 -21s-7 -14.666 -7 -21.999c0 -6.66699 1.33301 -12.667 4 -18c3.33301 -8 9.16602 -15 17.499 -21s18.833 -9 31.5 -9h7c2.66699 0 5.5 0.166992 8.5 0.5s6.16699 0.833008 9.5 1.5
c9.33301 1.33301 19.5 2.33301 30.5 3s21.833 1 32.5 1c7.33301 0 14.666 -0.333008 21.999 -1s14 -2 20 -4c36 -11.333 54 -29.666 54 -54.999v-3c0 -10 -2.16699 -20.167 -6.5 -30.5s-11.166 -22.5 -20.499 -36.5c-14.667 -19.333 -32.667 -37.333 -54 -54
s-44.166 -31.834 -68.499 -45.501s-48.833 -26 -73.5 -37s-48 -20.167 -70 -27.5v1c-12 -4 -20.5 -9.83301 -25.5 -17.5s-7.5 -16.167 -7.5 -25.5c0 -8.66699 1.66699 -15.334 5 -20.001v1c3.33301 -9.33301 8.83301 -16.666 16.5 -21.999s16.5 -8 26.5 -8
c4.66699 0 11 1 19 3c26.667 8.66699 54.5 19.5 83.5 32.5s57.167 27.833 84.5 44.5s53 35 77 55s45 41.333 63 64c16 20 28 40.667 36 62s12 42.666 12 63.999z" />
    <glyph glyph-name="four" unicode="4" horiz-adv-x="626" 
d="M653 168c0 11.333 -3.66895 21.666 -11.002 30.999s-18.666 14 -33.999 14h-3c-10.667 -1.33301 -22 -2 -34 -2c-11.333 0 -23.333 -0.333008 -36 -1l-60 -3c2 32 3.83301 64.5 5.5 97.5l4.5 91.5c0 4 0.166992 8 0.5 12s0.5 8 0.5 12c0 14 -3.83301 24.833 -11.5 32.5
s-16.834 12.5 -27.501 14.5c-1.33301 0 -2.66602 0.166992 -3.99902 0.5s-2.66602 0.5 -3.99902 0.5c-10.667 0 -20.167 -2.5 -28.5 -7.5s-14.5 -13.167 -18.5 -24.5l-48.5 -30l-61 -40l-66.5 -46l-64.5 -46c-20.333 -14.667 -38.5 -28.5 -54.5 -41.5s-28 -24.167 -36 -33.5
c-10 -10 -15 -22.333 -15 -37c0 -4 0.166992 -7.83301 0.5 -11.5s1.5 -7.5 3.5 -11.5c4.66699 -9.33301 11.167 -17.166 19.5 -23.499s19.166 -9.5 32.499 -9.5c32 0 64.167 0.5 96.5 1.5s65.5 2.16699 99.5 3.5l76 2c-0.666992 -3.33301 -1 -6.33301 -1 -9v-8
c-2.66699 -35.333 -4.66699 -64.666 -6 -87.999s-2 -46.333 -2 -69v-24c0 -8.66699 0.333008 -17.334 1 -26.001c0.666992 -20 5.33398 -34.667 14.001 -44s19 -14 31 -14c16 0 31 9 45 27c3.33301 4.66699 6.33301 10 9 16s4 12.333 4 19
c0 5.33301 -0.833008 10.5 -2.5 15.5s-4.5 9.5 -8.5 13.5c0 33.333 0.666992 66.333 2 99s3.33301 64 6 94c25.333 0.666992 50.333 1.5 75 2.5s47.667 2.16699 69 3.5c14.667 1.33301 25.5 6.5 32.5 15.5s10.5 19.5 10.5 31.5zM386.998 300
c-0.666992 -15.333 -1.5 -30.666 -2.5 -45.999s-2.5 -31.333 -4.5 -48l-86 -2c-27.333 -0.666992 -56 -1.66699 -86 -3l91 64.5c29.333 21 59 41.167 89 60.5c-0.666992 -4.66699 -1 -9.33398 -1 -14.001v-12z" />
    <glyph glyph-name="five" unicode="5" horiz-adv-x="508" 
d="M464 227c-9.33301 18.667 -24.5 33.834 -45.5 45.501s-49.833 20.834 -86.5 27.501c-7.33301 1.33301 -14.833 2.33301 -22.5 3s-15.5 1 -23.5 1c-19.333 0 -39 -1.83301 -59 -5.5s-37.667 -8.83398 -53 -15.501c0 4 0.333008 7.33301 1 10
c0.666992 6 1.16699 12.333 1.5 19s0.5 14.334 0.5 23.001c0 14.667 -4.5 26 -13.5 34s-19.167 12 -30.5 12c-12 0 -23 -3.66699 -33 -11s-15 -18.666 -15 -33.999c0 -8.66699 -0.333008 -17.167 -1 -25.5l-2 -25.5c-1.33301 -14 -2.5 -28 -3.5 -42s-1.5 -27 -1.5 -39v-11
c0 -15.333 4.5 -26.833 13.5 -34.5s19.5 -11.834 31.5 -12.501h3c9.33301 0 18 2.5 26 7.5s13.667 12.833 17 23.5c0.666992 4 4.83398 8 12.501 12s17 7.66699 28 11s23.167 6 36.5 8s26.666 3 39.999 3c10 0 20 -1 30 -3c30.667 -6.66699 49.667 -17.334 57 -32.001
c2 -5.33301 3 -11.666 3 -18.999c0 -13.333 -4.66699 -30 -14 -50c-12.667 -26 -29.167 -54.667 -49.5 -86s-43.5 -63.166 -69.5 -95.499s-54 -64.333 -84 -96s-61 -61.5 -93 -89.5c-11.333 -10 -17 -21.333 -17 -34c0 -6.66699 1.16699 -12.334 3.5 -17.001
s5.5 -9.33398 9.5 -14.001h-1c9.33301 -10.667 21 -16 35 -16c5.33301 0 10.5 0.666992 15.5 2s10.167 4.33301 15.5 9h-1c34.667 28.667 68.5 60.167 101.5 94.5s63.5 69.166 91.5 104.499s53 70 75 104s39.667 64.667 53 92c20 40.667 30 77 30 109c0 19.333 -4 37 -12 53
zM532 434c0 11.333 -3.66406 21.668 -10.9971 31.001s-18.666 14 -33.999 14c-20.667 0 -45.334 0.166992 -74.001 0.5s-58.334 0.833008 -89.001 1.5l-90.5 2c-29.667 0.666992 -55.834 1.33398 -78.501 2.00098h-5c-13.333 0 -23.5 -4.5 -30.5 -13.5
s-10.5 -19.167 -10.5 -30.5v-2c0 -10 3.5 -19.833 10.5 -29.5s18.167 -14.834 33.5 -15.501c16 -0.666992 34.5 -1.33398 55.5 -2.00098l66 -2c23 -0.666992 46.5 -1.16699 70.5 -1.5s47 -0.5 69 -0.5h73c15.333 0 26.666 4.66699 33.999 14s11 20 11 32z" />
    <glyph glyph-name="six" unicode="6" horiz-adv-x="700" 
d="M661 78c15.333 15.333 26.6641 31.335 33.9971 48.002s11 33.667 11 51c0 21.333 -5.16699 41 -15.5 59s-24.833 33.333 -43.5 46h1c-30.667 21.333 -63.334 32 -98.001 32c-39.333 0 -78.333 -13.333 -117 -40c-30.667 -22 -59.667 -55.333 -87 -100
s-52.666 -98.334 -75.999 -161.001c-4 -0.666992 -8 -1 -12 -1h-10c-25.333 0 -43.666 5.66699 -54.999 17c-13.333 13.333 -20 32.333 -20 57c0 23.333 5.33301 50 16 80c10 30 21.333 59.167 34 87.5s25.834 55.833 39.501 82.5s27.334 52 41.001 76l38.5 66
c7.33301 4 13.666 8.16699 18.999 12.5s10 10.833 14 19.5v-1c2.66699 4 4.33398 8.16699 5.00098 12.5s1 8.5 1 12.5c0 9.33301 -2.16699 17.333 -6.5 24s-9.16602 12.667 -14.499 18c-10 6.66699 -20 10 -30 10c-7.33301 0 -14.5 -1.66699 -21.5 -5s-13.167 -9 -18.5 -17
c-16 -22 -32.833 -48.167 -50.5 -78.5s-35 -62.5 -52 -96.5s-33.167 -68.5 -48.5 -103.5s-28.333 -67.5 -39 -97.5c-8 -20.667 -13.667 -40.334 -17 -59.001s-5 -35.667 -5 -51c0 -49.333 14.667 -88 44 -116c15.333 -14 33.166 -25 53.499 -33s42.833 -12 67.5 -12
c4 0 7.83301 0.166992 11.5 0.5s7.16699 0.833008 10.5 1.5c7.33301 -8.66699 17.333 -13 30 -13c14.667 0 26.667 6.33301 36 19c16.667 4 39 10.167 67 18.5s57.5 18.833 88.5 31.5s62 27.5 93 44.5s58.167 36.5 81.5 58.5zM593.998 144.002v-0.999023
c-10 -11.333 -23.667 -22.333 -41 -33s-36.166 -20.667 -56.499 -30s-40.833 -17.833 -61.5 -25.5s-39.334 -13.834 -56.001 -18.501c20 44.667 38.667 80 56 106s34.666 45.667 51.999 59c9.33301 7.33301 19.333 12.5 30 15.5s21.334 4.5 32.001 4.5c18 0 33 -5 45 -15
c5.33301 -5.33301 9.5 -10.5 12.5 -15.5s4.5 -9.83301 4.5 -14.5c0 -9.33301 -5.66699 -20 -17 -32z" />
    <glyph glyph-name="seven" unicode="7" horiz-adv-x="487" 
d="M521 436c-4.66699 8.66699 -11.666 15.9971 -20.999 21.9971s-22.333 9.33301 -39 10c-27.333 2 -58.666 3.16699 -93.999 3.5s-71 0.5 -107 0.5s-70.5 -0.666992 -103.5 -2s-60.167 -3.33301 -81.5 -6c-18 -3.33301 -30.667 -9.16602 -38 -17.499s-11 -17.5 -11 -27.5
c0 -3.33301 0.333008 -6.5 1 -9.5s1.66699 -5.5 3 -7.5c4.66699 -10.667 12.167 -19.834 22.5 -27.501s21.833 -11.5 34.5 -11.5h6c7.33301 0 14.5 0.833008 21.5 2.5s14.167 4.83398 21.5 9.50098c27.333 2 51.666 3.5 72.999 4.5s41.666 1.5 60.999 1.5
c17.333 0 34 -0.166992 50 -0.5s32.667 -0.833008 50 -1.5h25l-1.5 -2.5c-1 -1.66699 -2.16699 -3.5 -3.5 -5.5l1 1c-24 -32 -49.667 -68.667 -77 -110s-53.833 -85 -79.5 -131s-49.334 -93 -71.001 -141s-38.834 -94.667 -51.501 -140
c-0.666992 -3.33301 -1.16699 -7 -1.5 -11s-0.5 -7.66699 -0.5 -11c0 -13.333 3.5 -24.666 10.5 -33.999s15.167 -15.666 24.5 -18.999c5.33301 -1.33301 10.666 -2 15.999 -2c8.66699 0 17.334 2.16699 26.001 6.5s15.667 11.166 21 20.499c4.66699 9.33301 7 19.333 7 30
c0 3.33301 -0.333008 6.83301 -1 10.5s-1.66699 7.83398 -3 12.501c10 36 26 77.167 48 123.5s46.833 93.5 74.5 141.5s56.834 94.5 87.501 139.5s59.334 83.833 86.001 116.5v-1c12 14.667 18 29.334 18 44.001c0 7.33301 -1.33301 13.666 -4 18.999z" />
    <glyph glyph-name="eight" unicode="8" horiz-adv-x="668" 
d="M647 36c1.33301 5.33301 2.16992 9.83496 2.50293 13.502s0.5 8.16699 0.5 13.5c0 31.333 -10.5 60.833 -31.5 88.5s-48.833 50.5 -83.5 68.5c13.333 8.66699 24.5 20 33.5 34s14.5 30.333 16.5 49c0 2.66699 0.166992 5.16699 0.5 7.5s0.5 4.83301 0.5 7.5
c0 26 -6.66699 49.833 -20 71.5s-30.333 40.334 -51 56.001s-43.667 27.667 -69 36s-50.333 12.5 -75 12.5c-26.667 0 -51.834 -5.33301 -75.501 -16s-44.834 -23.834 -63.501 -39.501s-34.5 -32.834 -47.5 -51.501s-22.5 -36 -28.5 -52c-5.33301 -11.333 -9 -22 -11 -32
s-3 -19.333 -3 -28c0 -32.667 15 -57.334 45 -74.001c-11.333 -6.66699 -22.5 -14.667 -33.5 -24s-21.333 -19.833 -31 -31.5s-18.334 -23.834 -26.001 -36.501s-13.834 -25.334 -18.501 -38.001c-5.33301 -15.333 -8 -29.666 -8 -42.999c0 -26 8.16699 -48 24.5 -66
s35.5 -32.667 57.5 -44c24.667 -12.667 52.334 -22 83.001 -28s60.667 -9 90 -9c16 0 30.667 1 44 3c26 2.66699 54 6.83398 84 12.501s58.333 14.334 85 26.001s50 26.667 70 45s33 41.166 39 68.499zM554.004 61.002l-0.000976562 -7.99902
c-1.33301 -10 -7.83301 -19.333 -19.5 -28s-26.667 -16.334 -45 -23.001s-38.666 -12.334 -60.999 -17.001s-44.5 -8 -66.5 -10c-5.33301 -0.666992 -10.666 -1 -15.999 -1h-16c-25.333 0 -50 2.16699 -74 6.5s-44 10.166 -60 17.499h1
c-8 4.66699 -14.833 10.334 -20.5 17.001s-8.5 13.667 -8.5 21c0 2.66699 0.666992 6 2 10c8.66699 22 19 40 31 54s25.833 25.167 41.5 33.5s33.5 14.5 53.5 18.5s42 7.33301 66 10c5.33301 0.666992 10.666 1.16699 15.999 1.5s10 0.5 14 0.5
c23.333 0 45 -2.83301 65 -8.5s37.167 -13.167 51.5 -22.5s25.5 -20.166 33.5 -32.499s12 -25.5 12 -39.5zM358.003 256.003c-6.66699 -0.666992 -12.667 -1.00195 -18 -1.00195h-16c-32.667 0 -54.667 3.16699 -66 9.5s-17 14.5 -17 24.5c0 3.33301 1 8.66602 3 15.999
c2 10 7.16699 20.833 15.5 32.5s18.5 22.334 30.5 32.001s25 17.667 39 24s28 9.5 42 9.5c14.667 0 29.167 -2.33301 43.5 -7s27 -11 38 -19s20 -17 27 -27s10.5 -20.333 10.5 -31v-4c-1.33301 -19.333 -14 -33.166 -38 -41.499s-55.333 -14.166 -94 -17.499z" />
    <glyph glyph-name="nine" unicode="9" horiz-adv-x="600" 
d="M575 240l-0.00292969 5.99902c0 4 -0.5 8.16699 -1.5 12.5s-3.16699 8.16602 -6.5 11.499c0.666992 4.66699 1.16699 9.16699 1.5 13.5s0.5 9.16602 0.5 14.499c0 20.667 -2.5 40.834 -7.5 60.501s-12.167 37.167 -21.5 52.5c-16.667 25.333 -39 46.666 -67 63.999
s-61 26 -99 26c-40 0 -82 -7.5 -126 -22.5s-84.333 -37.167 -121 -66.5c-23.333 -19.333 -43.166 -41.333 -59.499 -66s-24.833 -50 -25.5 -76v-2c0 -58.667 34.333 -98 103 -118c40 -12.667 85.333 -19 136 -19c26.667 0 53.5 2 80.5 6s54.167 10.333 81.5 19
c-10 -25.333 -22.333 -52.166 -37 -80.499s-30.5 -56.666 -47.5 -84.999s-34.5 -56 -52.5 -83s-36 -51.833 -54 -74.5c-3.33301 -3.33301 -5.66602 -7.5 -6.99902 -12.5s-2 -10.167 -2 -15.5c0 -6 1.16699 -12.167 3.5 -18.5s5.5 -11.166 9.5 -14.499
c12 -8.66699 22.667 -13 32 -13c12 0 23.667 5.66699 35 17c23.333 30 46.833 62.333 70.5 97s45.834 70.5 66.501 107.5s39.167 74.5 55.5 112.5s28.833 75 37.5 111c8 4.66699 13.333 10.167 16 16.5s4.66699 12.833 6 19.5zM278.997 223.999
c-38.667 0 -73 5.00293 -103 15.0029v-1c-14 4.66699 -23.333 10.167 -28 16.5s-7 13.166 -7 20.499s4.16699 17.833 12.5 31.5s18.5 25.167 30.5 34.5c30.667 23.333 62.667 40.666 96 51.999s63.333 17 90 17c22.667 0 41 -4.5 55 -13.5s26.667 -21.167 38 -36.5v1
c10 -15.333 15 -38 15 -68c0 -4.66699 -0.166992 -9.33398 -0.5 -14.001s-0.833008 -9.66699 -1.5 -15c-28.667 -12.667 -60.167 -22.5 -94.5 -29.5s-68.5 -10.5 -102.5 -10.5z" />
    <glyph glyph-name="colon" unicode=":" horiz-adv-x="159" 
d="M152 247c-9.33301 8 -20.332 12.001 -32.999 12.001s-23.334 -4 -32.001 -12c-7.33301 -5.33301 -12.666 -12.166 -15.999 -20.499s-5 -16.5 -5 -24.5c0 -15.333 4.66699 -29.333 14 -42c10.667 -12 23.334 -18 38.001 -18c5.33301 0 10.666 0.666992 15.999 2
s10.666 4.33301 15.999 9c7.33301 5.33301 12.833 12.166 16.5 20.499s5.5 17.166 5.5 26.499c0 8.66699 -1.66699 17.167 -5 25.5s-8.33301 15.5 -15 21.5zM147.001 -27.999c6 4.66699 10.999 11.168 14.999 19.501s6 17.166 6 26.499s-2 17.833 -6 25.5
s-9 14.834 -15 21.501c-11.333 8 -22.333 12 -33 12s-21 -4 -31 -12c-7.33301 -6 -12.666 -13 -15.999 -21s-5 -16.333 -5 -25c0 -14.667 4.66699 -28.334 14 -41.001c9.33301 -11.333 22 -17 38 -17c5.33301 0 10.833 0.666992 16.5 2s11.167 4.33301 16.5 9z" />
    <glyph glyph-name="semicolon" unicode=";" horiz-adv-x="233" 
d="M195 63h-1.99707c-5.33301 0 -11 -1.83301 -17 -5.5s-11 -10.167 -15 -19.5l-5.5 -16c-2.33301 -6.66699 -3.5 -12.667 -3.5 -18c0 -8.66699 2 -14.334 6 -17.001c0 -6 -0.333008 -14 -1 -24s-1.83398 -20.5 -3.50098 -31.5s-3.83398 -22 -6.50098 -33
s-6.33398 -20.833 -11.001 -29.5c-3.33301 -6.66699 -5 -12.667 -5 -18c0 -8 2.16699 -14.667 6.5 -20s9.16602 -9.66602 14.499 -12.999c4.66699 -2.66699 10 -4 16 -4c12.667 0 22 6.66699 28 20c12.667 26.667 20.834 54 24.501 82s5.5 53.333 5.5 76v22
c0 6.66699 -0.333008 12.667 -1 18c-0.666992 10.667 -4 18.5 -10 23.5s-12.667 7.5 -20 7.5zM218.003 252l-1 1.00098c-8.66699 7.33301 -19.334 11 -32.001 11c-11.333 0 -21.666 -3.66699 -30.999 -11c-7.33301 -6.66699 -12.666 -14 -15.999 -22s-5 -16.667 -5 -26
c0 -7.33301 1 -14.5 3 -21.5s5.66699 -13.5 11 -19.5c9.33301 -12 21.666 -18 36.999 -18c5.33301 0 10.833 0.666992 16.5 2s11.167 4.33301 16.5 9h-1c7.33301 5.33301 12.833 12.166 16.5 20.499s5.5 16.833 5.5 25.5c0 18 -6.66699 34.333 -20 49z" />
    <glyph glyph-name="semicolon" unicode="&#x37e;" horiz-adv-x="233" 
d="M195 63h-1.99707c-5.33301 0 -11 -1.83301 -17 -5.5s-11 -10.167 -15 -19.5l-5.5 -16c-2.33301 -6.66699 -3.5 -12.667 -3.5 -18c0 -8.66699 2 -14.334 6 -17.001c0 -6 -0.333008 -14 -1 -24s-1.83398 -20.5 -3.50098 -31.5s-3.83398 -22 -6.50098 -33
s-6.33398 -20.833 -11.001 -29.5c-3.33301 -6.66699 -5 -12.667 -5 -18c0 -8 2.16699 -14.667 6.5 -20s9.16602 -9.66602 14.499 -12.999c4.66699 -2.66699 10 -4 16 -4c12.667 0 22 6.66699 28 20c12.667 26.667 20.834 54 24.501 82s5.5 53.333 5.5 76v22
c0 6.66699 -0.333008 12.667 -1 18c-0.666992 10.667 -4 18.5 -10 23.5s-12.667 7.5 -20 7.5zM218.003 252l-1 1.00098c-8.66699 7.33301 -19.334 11 -32.001 11c-11.333 0 -21.666 -3.66699 -30.999 -11c-7.33301 -6.66699 -12.666 -14 -15.999 -22s-5 -16.667 -5 -26
c0 -7.33301 1 -14.5 3 -21.5s5.66699 -13.5 11 -19.5c9.33301 -12 21.666 -18 36.999 -18c5.33301 0 10.833 0.666992 16.5 2s11.167 4.33301 16.5 9h-1c7.33301 5.33301 12.833 12.166 16.5 20.499s5.5 16.833 5.5 25.5c0 18 -6.66699 34.333 -20 49z" />
    <glyph glyph-name="less" unicode="&#x3c;" horiz-adv-x="526" 
d="M434 514c-12.667 0 -23.9971 -3.67188 -33.9971 -11.0049s-18.667 -17.666 -26 -30.999c-23.333 -18 -45.5 -34.167 -66.5 -48.5l-62.5 -41.5l-91 -63c-30.667 -21.333 -65 -48 -103 -80l1 1c-8.66699 -5.33301 -15.167 -12.666 -19.5 -21.999s-6.5 -18.666 -6.5 -27.999
s2.33301 -18.666 7 -27.999s11.667 -16.666 21 -21.999v1c29.333 -18.667 62 -37.5 98 -56.5l109 -55.5l107 -51.5l91 -42.5c4 -1.33301 8.33301 -2.66602 13 -3.99902s8.66699 -2 12 -2c10.667 0 20.167 3.33301 28.5 10s13.166 17 14.499 31v10c0 5.33301 -2 12.333 -6 21
s-11.333 15 -22 19l-95.5 44l-88.5 42l-83.5 42.5c-27 14.333 -53.833 29.5 -80.5 45.5c-1.33301 1.33301 -2.5 2.16602 -3.5 2.49902l-1.5 0.5c0 1.33301 1.66699 3 5 5c36 28.667 73.167 56.334 111.5 83.001l107.5 74l55 37c16.667 11.333 30.667 21.333 42 30
c18 13.333 27 27.666 27 42.999c0 4.66699 -0.833008 9 -2.5 13s-3.83398 8.33301 -6.50098 13c-8 9.33301 -17.333 14.833 -28 16.5s-18.334 2.5 -23.001 2.5z" />
    <glyph glyph-name="equal" unicode="=" horiz-adv-x="419" 
d="M384 314l0.00292969 1.99902c0 8.66699 -2.83301 16.5 -8.5 23.5s-13.834 10.5 -24.501 10.5h-6c-3.33301 -0.666992 -7.66602 -1 -12.999 -1h-16c-10 0 -20.667 0.166992 -32 0.5s-23.333 0.833008 -36 1.5c-14.667 0 -29.167 0.333008 -43.5 1s-27.833 1 -40.5 1
c-23.333 0 -40 -1 -50 -3h1c-11.333 -2.66699 -20.833 -7.66699 -28.5 -15s-12.834 -16.333 -15.501 -27v-7c0 -12 4.66699 -21.667 14 -29v1c3.33301 -3.33301 7.16602 -5.83301 11.499 -7.5s8.5 -2.5 12.5 -2.5c6.66699 0 12.667 1.66699 18 5h-1
c1.33301 0.666992 2.83301 1.33398 4.5 2.00098s3.16699 1.66699 4.5 3c2 3.33301 5.33301 5 10 5c2.66699 0.666992 5.66699 1 9 1h14h27c10 0 20.667 -0.333008 32 -1s23 -1 35 -1h35c10.667 0 20.667 0.166992 30 0.5s17.333 0.833008 24 1.5
c11.333 2 19.666 6.5 24.999 13.5s8 14.167 8 21.5zM387.003 181.999v2c0 8.66699 -3 16.334 -9 23.001s-14 10 -24 10h-35h-32c-11.333 0 -23.333 0.333008 -36 1l-43.5 2c-14.333 0.666992 -28.166 1 -41.499 1c-10.667 0 -20.167 -0.333008 -28.5 -1
s-15.166 -1.66699 -20.499 -3h1c-11.333 -2 -20.833 -6.66699 -28.5 -14s-12.834 -16.333 -15.501 -27c0 -1.33301 -0.166992 -2.5 -0.5 -3.5s-0.5 -2.16699 -0.5 -3.5c0 -6.66699 1.33301 -12.334 4 -17.001s6 -9 10 -13v1c6.66699 -6 15 -9 25 -9
c6.66699 0 12.667 1.66699 18 5h-1c2.66699 0.666992 5.66699 2.66699 9 6c4 2.66699 7.33301 4 10 4c2 0.666992 5 1 9 1h14h27c10 0 20.667 -0.333008 32 -1s23 -1 35 -1h35c10.667 0 20.667 0.166992 30 0.5s17.333 0.833008 24 1.5c11.333 2 19.666 6.5 24.999 13.5
s8 14.167 8 21.5z" />
    <glyph glyph-name="greater" unicode="&#x3e;" horiz-adv-x="528" 
d="M116 515c-4.66699 0 -12.3311 -0.832031 -22.998 -2.49902s-20 -7.16699 -28 -16.5c-2.66699 -4.66699 -4.83398 -9 -6.50098 -13s-2.5 -8.33301 -2.5 -13c0 -15.333 9 -29.666 27 -42.999c11.333 -8.66699 25.333 -18.667 42 -30l55 -37l107.5 -74
c38.333 -26.667 75.5 -54.334 111.5 -83.001c3.33301 -2 5 -3.66699 5 -5l-1.5 -0.5c-1 -0.333008 -2.16699 -1.16602 -3.5 -2.49902c-53.333 -31.333 -108 -60.5 -164 -87.5l-184 -86.5c-10.667 -4 -18 -10.333 -22 -19s-6 -15.667 -6 -21v-10
c1.33301 -14 6.16602 -24.333 14.499 -31s17.833 -10 28.5 -10c3.33301 0 7.33301 0.666992 12 2s9 2.66602 13 3.99902l91 42.5l107 51.5l109 55.5c36 19 68.667 37.833 98 56.5v-1c9.33301 5.33301 16.333 12.5 21 21.5s7 18.167 7 27.5c0 10 -2.33301 19.5 -7 28.5
s-10.667 16.167 -18 21.5c-36 30 -69 55.333 -99 76l-87 60l-66.5 44.5l-71.5 52.5c-6.66699 13.333 -15 23.666 -25 30.999s-21.333 11 -34 11z" />
    <glyph glyph-name="question" unicode="?" horiz-adv-x="392" 
d="M451 475l0.000976562 5.99805c0 21.333 -7.33301 41 -22 59s-36.667 32 -66 42l-72.5 26l-85.5 33c-6.66699 3.33301 -14.334 5 -23.001 5c-8 0 -15.333 -1.83301 -22 -5.5s-12.334 -8.16699 -17.001 -13.5c-5.33301 -8.66699 -8 -17.667 -8 -27
c0 -12.667 6.33301 -25 19 -37c16.667 -14 33.334 -21 50.001 -21c1.33301 0 2.5 -0.166992 3.5 -0.5s2.16699 -0.166016 3.5 0.500977c6.66699 -2.66699 13.834 -5.33398 21.501 -8.00098s15.5 -5 23.5 -7l39.5 -15.5c13 -5 24.833 -9.83301 35.5 -14.5
c9.33301 -3.33301 16 -7.16602 20 -11.499s6.66699 -9.16602 8 -14.499c0 -7.33301 -5.33301 -16.333 -16 -27c-9.33301 -10 -19.333 -20.167 -30 -30.5l-32 -30.5c-24.667 -23.333 -47.5 -46.166 -68.5 -68.499s-37.833 -43.833 -50.5 -64.5
c-6.66699 -11.333 -11.5 -22.166 -14.5 -32.499s-4.5 -20.166 -4.5 -29.499c0 -14.667 3 -26.334 9 -35.001c4.66699 -6 10.167 -10.5 16.5 -13.5s12.833 -4.5 19.5 -4.5c9.33301 0 17.833 2.66699 25.5 8s12.5 13.666 14.5 24.999c1.33301 4 2 8.33301 2 13v15v7
c9.33301 17.333 29.666 41.666 60.999 72.999s69 67 113 107v-1c31.333 28 47 59 47 93zM266.001 70.998c-11.333 8 -23.332 12.002 -35.999 12.002c-14.667 0 -26.334 -4 -35.001 -12c-16 -14 -24 -30 -24 -48c0 -15.333 5.33301 -29 16 -41
c11.333 -13.333 25.333 -20 42 -20c12 0 24 4.33301 36 13c8 5.33301 13.833 12.166 17.5 20.499s5.5 17.166 5.5 26.499c0 20.667 -7.33301 37 -22 49z" />
    <glyph glyph-name="at" unicode="@" horiz-adv-x="883" 
d="M323 -189l0.996094 -0.995117c0 0.666992 0.333008 1 1 1h2c0.666992 0.666992 1.33398 1 2.00098 1h6v8c11.333 12 17 23 17 33c0 8 -1.66699 15.333 -5 22c-4.66699 7.33301 -9.66699 13.666 -15 18.999s-11.666 9 -18.999 11c-1.33301 0 -3 0.166992 -5 0.5
s-3.66699 0.5 -5 0.5c-17.333 0 -32 -9.33301 -44 -28c-22.667 -5.33301 -41 -8 -55 -8c-17.333 0 -32.666 2.33301 -45.999 7s-25.666 11 -36.999 19c-11.333 9.33301 -20 20.5 -26 33.5s-9 28.833 -9 47.5c0 32.667 12.333 78 37 136c20 43.333 43.167 87.333 69.5 132
s54 87.167 83 127.5s58.5 77.5 88.5 111.5s59 62.333 87 85c22 19.333 42.167 33 60.5 41s35.166 12 50.499 12c21.333 0 40.666 -7 57.999 -21s34.666 -32.667 51.999 -56c9.33301 -13.333 19 -29.333 29 -48s19.333 -38.167 28 -58.5s16.334 -40.5 23.001 -60.5
s12 -37.333 16 -52c4 -16.667 7.33301 -32.5 10 -47.5s4 -28.833 4 -41.5c0 -27.333 -7.33301 -54.333 -22 -81l1 1c-7.33301 -10.667 -15 -21.167 -23 -31.5s-16 -19.666 -24 -27.999s-16 -15.166 -24 -20.499s-15.333 -8.33301 -22 -9h-4
c-7.33301 0 -13.5 1.83301 -18.5 5.5s-9.16699 10.167 -12.5 19.5c-2 5.33301 -3.33301 11.666 -4 18.999s-1 15.666 -1 24.999v16c0 17.333 -4.33301 30 -13 38s-19.667 12 -33 12c-16.667 0 -33.334 -5.33301 -50.001 -16v1c-10.667 -6.66699 -23 -15.334 -37 -26.001
l-43 -33.5l-43 -35.5l-37 -31c-2.66699 -2 -6.33398 -5.33301 -11.001 -10c-7.33301 -6 -13 -9 -17 -9c-0.666992 0 -1.66699 0.666992 -3 2c-0.666992 0.666992 -1 3.66699 -1 9c0 9.33301 2.33301 18.666 7 27.999c6.66699 14.667 15.834 30 27.501 46
s24.5 31.333 38.5 46s28 28.167 42 40.5s27 22.5 39 30.5c26 18 48.333 27 67 27c13.333 0 24.333 -4 33 -12c8.66699 -6 18.334 -9 29.001 -9c9.33301 0 17.833 2.33301 25.5 7s13.834 10.667 18.501 18c3.33301 8 5 15.667 5 23c0 6 -1.16699 12.167 -3.5 18.5
s-6.83301 12.166 -13.5 17.499c-14.667 11.333 -28.834 19.5 -42.501 24.5s-27.167 7.5 -40.5 7.5c-25.333 0 -49 -5.83301 -71 -17.5s-41 -22.834 -57 -33.501c-14 -9.33301 -29.333 -20.833 -46 -34.5s-33 -29 -49 -46s-31.333 -35.167 -46 -54.5s-27 -39 -37 -59
c-7.33301 -13.333 -13 -27.333 -17 -42s-6.33301 -29.667 -7 -45c0 -32.667 9.66699 -57.667 29 -75c15.333 -13.333 33 -20 53 -20c24.667 0 52 11 82 33l24 20.5l26 22.5l42.5 36c13 11.333 24.167 19.666 33.5 24.999c2 2 4 3 6 3v-1c0 -10 1.83301 -21.333 5.5 -34
s8.16699 -22 13.5 -28v1c10.667 -16 22.5 -27.5 35.5 -34.5s30.5 -10.5 52.5 -10.5h15c5.33301 0 10 0.333008 14 1c28.667 14.667 49.667 26 63 34s24 15.333 32 22c35.333 28 60.333 60 75 96s22 74 22 114c0 18.667 -1.33301 37.167 -4 55.5s-6.66699 36.833 -12 55.5
c-4 16.667 -9.5 34.5 -16.5 53.5s-14.833 38.333 -23.5 58s-17.834 38.834 -27.501 57.501s-19.5 36 -29.5 52c-22 36 -48.5 64.333 -79.5 85s-65.5 31 -103.5 31h-10c-51.333 0 -108.666 -24 -171.999 -72c-32 -25.333 -63.833 -55.333 -95.5 -90
s-62.167 -72.167 -91.5 -112.5s-56.666 -82 -81.999 -125s-47.333 -85.167 -66 -126.5c-16 -36 -28 -70.667 -36 -104s-12 -64.333 -12 -93c0 -65.333 17.667 -112.666 53 -141.999v1c14.667 -13.333 31.334 -22.833 50.001 -28.5s39.667 -8.5 63 -8.5
c22.667 0 46.5 2.16699 71.5 6.5s51.833 10.166 80.5 17.499z" />
    <glyph glyph-name="A" unicode="A" horiz-adv-x="682" 
d="M702 32c-4 5.33301 -8.66406 12.333 -13.9971 21s-10.666 17.834 -15.999 27.501l-16 28c-5.33301 9 -9.33301 16.5 -12 22.5c-1.33301 2.66699 -2.66602 5.5 -3.99902 8.5s-2.66602 5.83301 -3.99902 8.5l-1 1c0 0.666992 -0.333008 1.33398 -1 2.00098
c3.33301 1.33301 6.66602 2.33301 9.99902 3s6.66602 1.66699 9.99902 3c12 4.66699 20 11.667 24 21s6 17.666 6 24.999c-3.33301 16 -8.83301 26.667 -16.5 32s-15.834 8 -24.501 8h-4c-1.33301 0 -3.66602 -0.666992 -6.99902 -2l1 1
c-5.33301 -1.33301 -10.833 -2.5 -16.5 -3.5l-19.5 -3.5c-10.667 23.333 -22.167 50.833 -34.5 82.5s-24.833 65.5 -37.5 101.5l-40.5 108.5c-13.667 36.333 -27.834 71.166 -42.501 104.499c-4 10.667 -9.83301 18 -17.5 22s-15.834 6 -24.501 6h-4
c-14.667 -0.666992 -25.834 -5.33398 -33.501 -14.001s-11.834 -18.334 -12.501 -29.001c-7.33301 -11.333 -15.833 -26.333 -25.5 -45l-32 -64l-37.5 -77.5l-40 -84.5l-58 -121l-51 -103c-10 -3.33301 -21 -6 -33 -8c-3.33301 -0.666992 -7.66602 -1.66699 -12.999 -3
c-9.33301 0 -16.833 -2 -22.5 -6s-10 -8.5 -13 -13.5s-5 -10.167 -6 -15.5s-1.5 -9.66602 -1.5 -12.999c0 -13.333 4.33301 -23.166 13 -29.499s18.667 -10.166 30 -11.499c-3.33301 -4.66699 -6 -9.33398 -8 -14.001s-4 -9.66699 -6 -15v1c-5.33301 -8.66699 -8 -19 -8 -31
c0 -10.667 5 -21 15 -31c7.33301 -7.33301 16.666 -11 27.999 -11c10 0 19 2 27 6c13.333 7.33301 22 15.833 26 25.5s6.33301 18.5 7 26.5c6 10.667 11.333 21.334 16 32.001s9.66699 21 15 31c0 0.666992 0.666992 2.33398 2 5.00098l61.5 13.5
c20.333 4.33301 41.166 9.16602 62.499 14.499l117 27l124 29l14 -28c4 -9.33301 9 -19.833 15 -31.5s12.5 -23.334 19.5 -35.001l20 -33.5c6.33301 -10.667 12.166 -19 17.499 -25c10.667 -14.667 24.334 -22 41.001 -22c10.667 0 21.334 3.66699 32.001 11
c10.667 8 16 18.667 16 32c0 12 -4 23 -12 33zM499.003 211l-140.5 -32.5l-134.5 -30.5l23 50.5l25 53.5l64 132l59 121l22.5 -59.5l22.5 -61.5l31 -86.5c10.667 -29 22 -57.5 34 -85.5c-1.33301 -0.666992 -3.33301 -1 -6 -1z" />
    <glyph glyph-name="B" unicode="B" horiz-adv-x="689" 
d="M679 111l0.00488281 1.99805c-0.666992 33.333 -9.5 62.833 -26.5 88.5s-41.167 48.5 -72.5 68.5c-21.333 12.667 -43.833 21 -67.5 25s-44.5 6.66699 -62.5 8l46.5 27c14.333 8.66699 31.833 20.667 52.5 36c42 30.667 63 63.334 63 98.001
c0 23.333 -11.167 44.333 -33.5 63s-55.833 31 -100.5 37h1c-9.33301 1.33301 -19.166 2.66602 -29.499 3.99902l-31.5 4c-19.333 2 -39.166 4.33301 -59.499 7s-41.166 5.66699 -62.499 9c-27.333 4 -53.833 8.16699 -79.5 12.5s-49.334 9 -71.001 14s-40.5 10 -56.5 15
s-28 10.167 -36 15.5c-7.33301 4 -15.666 6 -24.999 6c-15.333 0 -28 -6.66699 -38 -20c-6 -9.33301 -9 -19 -9 -29c0 -6.66699 1.66699 -13.5 5 -20.5s9.33301 -12.833 18 -17.5c15.333 -8 36.166 -16.5 62.499 -25.5s54.5 -16.167 84.5 -21.5
c-0.666992 -18 -1.5 -37.167 -2.5 -57.5s-2.16699 -41.5 -3.5 -63.5c-2 -37.333 -3.66699 -75.333 -5 -114s-2 -75.667 -2 -111c0 -14.667 0.166992 -28.834 0.5 -42.501s0.833008 -26.5 1.5 -38.5c1.33301 -27.333 9 -48.666 23 -63.999s28.667 -26.333 44 -33
c7.33301 -2.66699 14 -4 20 -4c17.333 0 31.333 9 42 27l3.5 9c1 2.66699 1.5 6 1.5 10c0 7.33301 -2.16699 14.833 -6.5 22.5s-11.5 14.834 -21.5 21.501c-10 4.66699 -15 13.334 -15 26.001c-0.666992 7.33301 -1 15.333 -1 24v27c0 28 0.666992 57.5 2 88.5l4 94.5
c1.33301 29.333 2.5 57.833 3.5 85.5s1.83301 53.834 2.5 78.501c19.333 -3.33301 39.666 -6.66602 60.999 -9.99902s42.166 -6.33301 62.499 -9l56.5 -7.5c17.333 -2.33301 31.666 -3.83301 42.999 -4.5c21.333 -3.33301 33.333 -9.33301 36 -18
c-0.666992 1.33301 -1 1.66602 -1 0.999023v0c0 -6.66699 -7.33301 -16 -22 -28c-15.333 -10 -29.5 -18.833 -42.5 -26.5l-38.5 -22.5c-11.333 -7.33301 -22 -13.5 -32 -18.5s-22.333 -13.167 -37 -24.5c-8.66699 -5.33301 -15 -12.166 -19 -20.499s-6 -16.833 -6 -25.5
s1.66699 -16.667 5 -24c7.33301 -15.333 16.666 -26.666 27.999 -33.999s26.666 -11 45.999 -11c14 0 28.167 -0.5 42.5 -1.5s28 -2.5 41 -4.5s25 -4.66699 36 -8s19.5 -7 25.5 -11c38 -28 57 -56.333 57 -85c0 -27.333 -16.333 -59.333 -49 -96
c-16 -18 -35.5 -35.333 -58.5 -52s-47 -31.667 -72 -45s-50 -24.833 -75 -34.5s-47.5 -16.834 -67.5 -21.501c-4 -1.33301 -7.83301 -2.33301 -11.5 -3s-6.83398 -1 -9.50098 -1c-5.33301 0 -9 1 -11 3c-7.33301 5.33301 -15 8 -23 8
c-6.66699 0 -12.334 -1.33301 -17.001 -4s-9.33398 -6.33398 -14.001 -11.001c-10 -9.33301 -15 -20.333 -15 -33s5.66699 -24.334 17 -35.001c8 -8.66699 17.333 -14.667 28 -18s21.334 -5 32.001 -5c12.667 0 26.334 1.66699 41.001 5c28.667 8 57.5 18 86.5 30
s57.333 25.833 85 41.5s54.167 32.5 79.5 50.5s48.666 37 69.999 57c28 28 48.167 56 60.5 84s18.5 55 18.5 81z" />
    <glyph glyph-name="C" unicode="C" horiz-adv-x="623" 
d="M629 0l-0.994141 1.00488c-6 22 -19.333 33 -40 33c-4 0 -7.33301 -0.166992 -10 -0.5s-5 -0.833008 -7 -1.5c-40 -10.667 -76 -18.167 -108 -22.5s-61 -6.5 -87 -6.5c-16 0 -31.333 0.666992 -46 2s-29 3.33301 -43 6c-24.667 3.33301 -43.334 9.83301 -56.001 19.5
s-22 21.167 -28 34.5c-4.66699 12 -7 27 -7 45c0 19.333 2.5 39.166 7.5 59.499s10.833 40.166 17.5 59.499c10 28.667 25 57.334 45 86.001s42 55.667 66 81s49 48.166 75 68.499s50.333 37.166 73 50.499c1.33301 -0.666992 3.66602 -1 6.99902 -1
c19.333 0 34.666 9.66699 45.999 29h-1c8 12.667 12 25.667 12 39c0 14 -4.66699 25.667 -14 35c-6.66699 6.66699 -15.334 10 -26.001 10c-12 0 -24.333 -3.66699 -37 -11c-30 -16 -61.5 -36.667 -94.5 -62s-64.5 -53.5 -94.5 -84.5s-57.333 -63.833 -82 -98.5
s-44.334 -69.334 -59.001 -104.001c-11.333 -26.667 -20.333 -53.667 -27 -81s-10 -54 -10 -80c0 -14.667 1.33301 -29 4 -43s7 -27.333 13 -40c10.667 -26 27.5 -47.667 50.5 -65s56.167 -30.333 99.5 -39c30.667 -6 66.667 -9 108 -9c32 0 66 2.33301 102 7
s74.333 12 115 22c13.333 3.33301 23.166 9 29.499 17s9.5 17.333 9.5 28c0 3.33301 -0.166992 6.16602 -0.5 8.49902s-0.833008 4.83301 -1.5 7.5z" />
    <glyph glyph-name="D" unicode="D" horiz-adv-x="653" 
d="M672 281l0.00292969 2.00098c0 66 -44.333 127.667 -133 185c-17.333 11.333 -40.333 25.5 -69 42.5l-96.5 55.5l-112.5 62l-117 63c-4.66699 2.66699 -9.33398 4.33398 -14.001 5.00098s-9 1 -13 1c-16 0 -29 -5.66699 -39 -17
c-7.33301 -7.33301 -11 -16.666 -11 -27.999c0 -10.667 3 -20 9 -28v2c10 -18 24.667 -27 44 -27l12.5 -6l13.5 -6l-10.5 -133.5c-3.66699 -46.333 -7.83398 -91.166 -12.501 -134.499l-14 -151c-4 -44 -6 -74.667 -6 -92c0 -16 2.66699 -30.167 8 -42.5s10 -22.5 14 -30.5
c5.33301 -11.333 12.166 -19 20.499 -23s16.5 -6 24.5 -6c5.33301 0 14 2 26 6c5.33301 2.66699 10 6.83398 14 12.501s6 12.5 6 20.5c0 4.66699 -1.33301 9.66699 -4 15l-2.5 6.5c-1.66699 4.33301 -3.16699 7.83301 -4.5 10.5c-6.66699 12 -10 22.667 -10 32
c0 12.667 1.5 37.5 4.5 74.5s7.16699 80.5 12.5 130.5c3.33301 40 7.16602 82 11.499 126s8.16602 87.667 11.499 131l18 -10.5c6 -3.66699 12.333 -7.16699 19 -10.5l61 -34.5l60 -34.5l54.5 -32c17 -10 31.5 -19 43.5 -27c28 -18.667 48.833 -36.5 62.5 -53.5
s20.5 -34.167 20.5 -51.5c0 -12.667 -5.33301 -27.834 -16 -45.501s-24 -35.5 -40 -53.5s-33.333 -35.5 -52 -52.5s-36 -31.167 -52 -42.5c-27.333 -20 -58.666 -39.833 -93.999 -59.5l-116 -62.5c-8.66699 -4.66699 -15.167 -10.834 -19.5 -18.501s-6.5 -15.5 -6.5 -23.5
c0 -6.66699 1.66699 -13.334 5 -20.001c5.33301 -7.33301 11.5 -13.666 18.5 -18.999s14.5 -8 22.5 -8c8.66699 0 16.667 2.33301 24 7l114.5 62c36.333 20 71.5 42 105.5 66c20 14 42 31.5 66 52.5s46.333 43.5 67 67.5s37.834 48.167 51.501 72.5s20.5 46.166 20.5 65.499
c0 1.33301 -0.166992 2.66602 -0.5 3.99902s-0.5 2.66602 -0.5 3.99902zM212.003 30.001l-1 1c0 -0.666992 0.166992 -1.16699 0.5 -1.5l0.5 -0.5v1z" />
    <glyph glyph-name="E" unicode="E" horiz-adv-x="642" 
d="M640 35l0.00195312 -0.996094c4.66699 5.33301 7.5 10.5 8.5 15.5s1.5 10.167 1.5 15.5c0 15.333 -5.33301 27.333 -16 36h1c-8 7.33301 -18.667 11 -32 11c-11.333 0 -22.666 -5.66699 -33.999 -17c-9.33301 -11.333 -20.166 -20.333 -32.499 -27
s-26.5 -12.667 -42.5 -18c-38 -13.333 -77.167 -23.333 -117.5 -30s-75.166 -10.667 -104.499 -12h-5c-10.667 0 -18.334 2.66699 -23.001 8c-4 4 -6.83301 10 -8.5 18s-2.5 16.667 -2.5 26v7c0.666992 22 3.33398 45.333 8.00098 70s11.334 49.667 20.001 75
c22 2.66699 47.667 6.5 77 11.5l88.5 15c29.667 5 57.5 10 83.5 15s46.667 9.5 62 13.5c13.333 4 22.666 10.5 27.999 19.5s8 18.167 8 27.5c0 1.33301 -0.166992 2.83301 -0.5 4.5s-0.5 2.83398 -0.5 3.50098c-2 10 -6.33301 18.5 -13 25.5s-15.334 10.5 -26.001 10.5h-4
c-0.666992 0 -2.66699 -0.666992 -6 -2l1 1c-15.333 -3.33301 -33.5 -7 -54.5 -11l-67 -12.5c-23.667 -4.33301 -48 -8.5 -73 -12.5l-72.5 -12c7.33301 25.333 14.166 50.333 20.499 75s10.166 47.667 11.499 69c0 2 0.166992 4.16699 0.5 6.5s0.5 4.5 0.5 6.5
c0 3.33301 -0.166992 6.16602 -0.5 8.49902s-0.833008 5.16602 -1.5 8.49902c32 5.33301 65.333 9.16602 100 11.499s69.667 3.5 105 3.5h33c10.667 0 21.667 -0.333008 33 -1h5c13.333 0 23.5 4.16699 30.5 12.5s10.833 18.166 11.5 29.499v6c0 10 -4 19.5 -12 28.5
s-19.667 13.5 -35 13.5c-10.667 0.666992 -21.667 1 -33 1h-36c-28 0 -58.167 -0.666992 -90.5 -2s-65.333 -4.16602 -99 -8.49902s-67.667 -10.333 -102 -18s-67.5 -17.834 -99.5 -30.501c-11.333 -4.66699 -19.5 -11.334 -24.5 -20.001s-7.5 -17.334 -7.5 -26.001
c0 -11.333 3.66699 -21.5 11 -30.5s17.333 -13.5 30 -13.5c7.33301 0 13.333 1.33301 18 4l-1 -1c20.667 6.66699 39.667 12.334 57 17.001c1.33301 0.666992 3.16602 1.16699 5.49902 1.5s4.83301 1.16602 7.5 2.49902v-7c0 -2.66699 -0.166992 -5.16699 -0.5 -7.5
s-0.5 -4.5 -0.5 -6.5c-2 -17.333 -6.5 -39.333 -13.5 -66s-15.5 -53.667 -25.5 -81c-6 -1.33301 -12 -2.33301 -18 -3s-11.667 -1.33398 -17 -2.00098c-8 3.33301 -15.333 5 -22 5c-14.667 0 -26.667 -4 -36 -12h1c-16.667 -13.333 -25 -28 -25 -44
c0.666992 -11.333 5.16699 -21 13.5 -29s20.166 -12 35.499 -12h3c3.33301 -0.666992 7.33301 -1 12 -1h12c4.66699 0 9 0.333008 13 1l-7 -31.5c-2.66699 -11.667 -5.16699 -23.5 -7.5 -35.5s-4.33301 -23.667 -6 -35s-2.5 -21 -2.5 -29c0 -23.333 2.5 -44.166 7.5 -62.499
s11.833 -34.166 20.5 -47.499v1c10.667 -16 23.167 -27.5 37.5 -34.5s30.166 -10.5 47.499 -10.5h4c20 0 42.333 1.5 67 4.5s49.167 7 73.5 12s47.833 10.5 70.5 16.5s42.334 12 59.001 18c23.333 8.66699 44.833 18.5 64.5 29.5s36.167 24.833 49.5 41.5z" />
    <glyph glyph-name="F" unicode="F" horiz-adv-x="590" 
d="M685 511c3.33301 4 5.50293 8.16504 6.50293 12.498s1.5 9.16602 1.5 14.499c0 14 -5.33301 27.333 -16 40c-6.66699 7.33301 -17 12.833 -31 16.5s-28.667 5.5 -44 5.5c-16.667 0 -36.167 -0.166992 -58.5 -0.5s-46.166 -0.833008 -71.499 -1.5
c-34.667 -1.33301 -71 -2.33301 -109 -3s-75.667 -1 -113 -1c-32 0 -62.333 0.5 -91 1.5s-54.334 2.5 -77.001 4.5h-8c-18 0 -31.667 -4.5 -41 -13.5s-14 -19.5 -14 -31.5c0.666992 -11.333 5 -22.166 13 -32.499s20 -18.166 36 -23.499c8 -2 15.333 -3 22 -3
c11.333 0 20 2.66699 26 8h33c1.33301 -24.667 2.5 -49.5 3.5 -74.5s1.83301 -46.833 2.5 -65.5c-3.33301 -1.33301 -7.33301 -2.83301 -12 -4.5s-9.66699 -3.16699 -15 -4.5c-7.33301 -3.33301 -13 -8.33301 -17 -15s-6 -13 -6 -19v-3c0.666992 -8 3.16699 -15.5 7.5 -22.5
s10.833 -12.5 19.5 -16.5c10 -3.33301 18.667 -5.66602 26 -6.99902c0 -29.333 1 -62.5 3 -99.5s4.33301 -74.167 7 -111.5c1.33301 -16.667 2.33301 -32.667 3 -48l2 -46c0 -14.667 5.16699 -25.667 15.5 -33s21.166 -11 32.499 -11s21.666 3.33301 30.999 10s14 17 14 31
v5c-1.33301 20.667 -2.5 43.5 -3.5 68.5s-2.16699 50.5 -3.5 76.5s-2.5 51.333 -3.5 76s-1.83301 46.667 -2.5 66v19c22 0.666992 45.5 1.83398 70.5 3.50098s50 3.5 75 5.5s48.667 4.16699 71 6.5s41.833 4.83301 58.5 7.5c13.333 2.66699 26 5.33398 38 8.00098
s22.667 7.66699 32 15c7.33301 5.33301 12.5 11.166 15.5 17.499s4.5 13.166 4.5 20.499c0 6 -1 12 -3 18s-5 11 -9 15c-4.66699 4.66699 -9.5 8.5 -14.5 11.5s-11.167 4.5 -18.5 4.5c-8.66699 0 -16.334 -2.33301 -23.001 -7h1c-5.33301 -2 -10.833 -3.83301 -16.5 -5.5
s-11.5 -3.16699 -17.5 -4.5c-15.333 -2 -34.5 -4.16699 -57.5 -6.5s-47 -4.5 -72 -6.5l-74 -6c-24.333 -2 -45.5 -3.33301 -63.5 -4c-2 22 -3.5 44.333 -4.5 67s-1.83301 45.667 -2.5 69c8.66699 0 17.5 -0.166992 26.5 -0.5s18.167 -0.5 27.5 -0.5
c35.333 0 68.833 0.333008 100.5 1s60.834 1.66699 87.501 3c19.333 0.666992 36.666 1 51.999 1h40h20c6.66699 -6 14.5 -10.5 23.5 -13.5s17.167 -4.5 24.5 -4.5c16.667 1.33301 30 8.33301 40 21z" />
    <glyph glyph-name="G" unicode="G" horiz-adv-x="738" 
d="M784 357l0.992188 -0.999023c-4 7.33301 -9.66699 13.166 -17 17.499s-15.666 6.5 -24.999 6.5c-6 0 -14 -1.66699 -24 -5c-5.33301 -2.66699 -19.5 -4.33398 -42.5 -5.00098s-50.833 -1 -83.5 -1c-15.333 0 -31 0.166992 -47 0.5s-31.667 0.833008 -47 1.5
s-30 1.16699 -44 1.5s-27.667 0.5 -41 0.5c-18 0 -34 -0.666992 -48 -2s-25.333 -4 -34 -8c-11.333 -5.33301 -19.666 -11.833 -24.999 -19.5s-8 -15.5 -8 -23.5c0 -2.66699 0.166992 -5.16699 0.5 -7.5s1.16602 -5.16602 2.49902 -8.49902
c8.66699 -18.667 23.334 -30 44.001 -34h5c8 0 15.333 1.16699 22 3.5s11.667 4.5 15 6.5c4.66699 0.666992 9.33398 1 14.001 1h17h32c12 0 23.667 -0.333008 35 -1c9.33301 -0.666992 18.666 -1 27.999 -1h27v-204c-37.333 -17.333 -76.833 -33 -118.5 -47
s-80.167 -23.667 -115.5 -29c-14 -2 -27 -3 -39 -3c-27.333 0 -47.666 6.66699 -60.999 20c-7.33301 6.66699 -12.666 16.167 -15.999 28.5s-5 27.166 -5 44.499v13c0 4.66699 0.333008 9.33398 1 14.001c3.33301 26 11 54.833 23 86.5s26.833 63.834 44.5 96.501
s37 64.834 58 96.501s42 60.834 63 87.501s40.833 49.5 59.5 68.5s34.334 32.5 47.001 40.5c14 2.66699 24 7.5 30 14.5s10.333 15.5 13 25.5l-1 -1c1.33301 3.33301 2 6 2 8v5c0 13.333 -4.33301 24 -13 32h1c-8.66699 10.667 -20 16 -34 16c-10 0 -20 -3 -30 -9
c-16.667 -9.33301 -36.5 -25.333 -59.5 -48s-47.333 -49.5 -73 -80.5s-51.167 -65.167 -76.5 -102.5s-48.666 -75 -69.999 -113s-39.166 -75.333 -53.499 -112s-23.166 -70.334 -26.499 -101.001c-2 -16 -3 -32.333 -3 -49c0 -30 4 -55.833 12 -77.5
s19.333 -40.167 34 -55.5c30.667 -28.667 73 -43 127 -43c9.33301 0 18.666 0.5 27.999 1.5s19 2.16699 29 3.5c38.667 5.33301 75.334 13.666 110.001 24.999s72 25.666 112 42.999v-131c-6.66699 -6 -10 -14 -10 -24c0 -9.33301 3 -18.666 9 -27.999v1
c6 -9.33301 13.333 -16.5 22 -21.5s17.334 -7.5 26.001 -7.5c12.667 0 23.5 4.66699 32.5 14s13.5 22.666 13.5 39.999v209c5.33301 6.66699 9.16602 13.5 11.499 20.5s3.5 13.5 3.5 19.5c0 12.667 -5 21.667 -15 27v185h21c18.667 0 38 0.833008 58 2.5
s36.333 5.16699 49 10.5c20 8.66699 30 22.667 30 42c0 8.66699 -2.33301 16.667 -7 24z" />
    <glyph glyph-name="H" unicode="H" horiz-adv-x="710" 
d="M706 199c0 11.333 -3.66992 21.4961 -11.0029 30.4961s-18.666 13.5 -33.999 13.5h-52c0.666992 2 1 5.66699 1 11c0.666992 20 1.33398 42.667 2.00098 68l2 77.5l2 76.5c0.666992 24.667 1 46.667 1 66v26c0 7.33301 -0.333008 13.666 -1 18.999
c0 11.333 -1 22.5 -3 33.5s-5.66699 21.167 -11 30.5c-10.667 14.667 -23.667 22 -39 22c-11.333 0 -22 -3.16699 -32 -9.5s-16.667 -15.166 -20 -26.499c-0.666992 -2.66699 -1 -5.66699 -1 -9v-9c0 -5.33301 0.333008 -10.833 1 -16.5s2 -10.834 4 -15.501v1
c1.33301 -5.33301 3.33301 -9 6 -11c0.666992 -1.33301 1.16699 -2.16602 1.5 -2.49902s0.833008 -1.16602 1.5 -2.49902c0.666992 -5.33301 1 -11.666 1 -18.999v-21c0 -18 -0.333008 -39.167 -1 -63.5l-2 -75.5c-0.666992 -26 -1.66699 -52 -3 -78s-2.33301 -50 -3 -72
h-67c-22 0 -44.667 -0.333008 -68 -1c-20 -0.666992 -39.333 -1 -58 -1h-53c1.33301 12 2.66602 24.667 3.99902 38l4 41l9.5 107c3 35.333 4.5 64.333 4.5 87v10c3.33301 4 5.5 8.33301 6.5 13s1.5 9 1.5 13c0 10.667 -0.166992 15.834 -0.5 15.501s-0.833008 0.5 -1.5 2.5
c-5.33301 13.333 -12.5 23.5 -21.5 30.5s-18.167 10.5 -27.5 10.5h-2c-12 0 -22.833 -4.16699 -32.5 -12.5s-14.5 -20.833 -14.5 -37.5v-23c0 -21.333 -0.833008 -44.833 -2.5 -70.5s-3.66699 -51.667 -6 -78s-4.83301 -52 -7.5 -77l-7 -66.5
c-8.66699 1.33301 -18 2.33301 -28 3l1 -1c-6 2.66699 -13.333 4 -22 4c-8 0 -15 -1.33301 -21 -4c-14.667 -4.66699 -25.667 -11.834 -33 -21.501s-11 -19.5 -11 -29.5c0 -11.333 4 -20.833 12 -28.5s20.333 -12.167 37 -13.5
c3.33301 -0.666992 7.83301 -1.16699 13.5 -1.5s12.167 -0.5 19.5 -0.5h24c-0.666992 -5.33301 -1.33398 -10.166 -2.00098 -14.499s-1 -8.16602 -1 -11.499c-2 -17.333 -3.66699 -33.5 -5 -48.5s-2 -29.167 -2 -42.5c0 -10.667 0.666992 -21 2 -31
s3.66602 -18.667 6.99902 -26v1c4.66699 -13.333 11.334 -23.166 20.001 -29.499s18 -9.5 28 -9.5c7.33301 0 15 1.66699 23 5c7.33301 3.33301 13.833 8.83301 19.5 16.5s8.5 17.167 8.5 28.5v9c-1.33301 7.33301 -3.16602 13.666 -5.49902 18.999
s-4.83301 10.666 -7.5 15.999v1c0 14 0.333008 26.333 1 37s1.66699 22.334 3 35.001l2 20.5c0.666992 7 1.33398 15.167 2.00098 24.5h28h47c16.667 0 33.667 0.333008 51 1c20 0.666992 40.667 1.16699 62 1.5s42.666 0.5 63.999 0.5
c-1.33301 -22 -2.16602 -41.833 -2.49902 -59.5s-0.5 -36.167 -0.5 -55.5c-3.33301 -6 -5.5 -12.333 -6.5 -19s-1.5 -13.667 -1.5 -21c0 -11.333 1 -20 3 -26c6.66699 -16 15 -27.833 25 -35.5s19.667 -11.5 29 -11.5c24.667 1.33301 39 19.333 43 54
c1.33301 14 2 28.667 2 44c0 16 0.333008 32 1 48v41c0 14.667 0.333008 28.667 1 42h54c14.667 0 25.834 4.33301 33.501 13s11.5 19 11.5 31z" />
    <glyph glyph-name="I" unicode="I" 
d="M516 517c0 12 -4.00293 22.5039 -12.0029 31.5039s-19.333 13.5 -34 13.5h-54h-65c-21.333 0 -41.333 0.333008 -60 1c-7.33301 11.333 -18.333 17 -33 17c-6 0 -12.167 -1.16699 -18.5 -3.5s-11.166 -6.16602 -14.499 -11.499h-73c-14 0 -27.333 -0.333008 -40 -1
s-23 -2 -31 -4c-15.333 -3.33301 -26.5 -9.33301 -33.5 -18s-10.5 -17.667 -10.5 -27v-2c0 -11.333 4 -21.333 12 -30s18.667 -14.334 32 -17.001c5.33301 -1.33301 11.333 -2 18 -2c5.33301 0 11.166 0.833008 17.499 2.5s11.833 4.16699 16.5 7.5
c7.33301 0.666992 14.333 1 21 1h23h18c6.66699 0 13 -0.333008 19 -1v-26c0 -46 -1.16699 -94.167 -3.5 -144.5s-4.83301 -101.5 -7.5 -153.5c-1.33301 -14.667 -2.16602 -29 -2.49902 -43s-1.16602 -27.667 -2.49902 -41
c-9.33301 -0.666992 -17.666 -1.16699 -24.999 -1.5s-14.333 -0.5 -21 -0.5h-52c-15.333 0 -27.166 -4.66699 -35.499 -14s-12.5 -19.666 -12.5 -30.999s4 -21.5 12 -30.5s19.667 -13.833 35 -14.5c5.33301 -0.666992 10.666 -1 15.999 -1h17h22c8 0 16.333 0.333008 25 1
c4 0 8.16699 0.166992 12.5 0.5s8.83301 0.5 13.5 0.5c4 -5.33301 9 -9.33301 15 -12s11.667 -4 17 -4c13.333 0 24.333 5.33301 33 16c28 1.33301 53.667 2.16602 77 2.49902s43.666 0.5 60.999 0.5c14.667 0 26 4.5 34 13.5s12 19.167 12 30.5v2
c0 11.333 -3.5 21.333 -10.5 30s-18.167 13 -33.5 13h-62h-31c-10 0 -19.667 -0.333008 -29 -1c1.33301 15.333 2.33301 31.166 3 47.499s1.66699 33.166 3 50.499c3.33301 45.333 6.33301 91.166 9 137.499s4 90.5 4 132.5v38c10.667 -1.33301 22.334 -2 35.001 -2h40h47
c8 0 15.833 0.166992 23.5 0.5s14.5 0.833008 20.5 1.5c14.667 2 25.5 7.16699 32.5 15.5s10.5 18.166 10.5 29.499z" />
    <glyph glyph-name="J" unicode="J" horiz-adv-x="342" 
d="M300 254c-1.33301 32 -3.00195 63.498 -5.00195 94.498l-6 91.5c-2.66699 42 -4.83398 81 -6.50098 117l-4.5 96c0 4 0.666992 9.66699 2 17s2.66602 13.666 3.99902 18.999c0 1.33301 0.166992 2.83301 0.5 4.5s0.5 3.16699 0.5 4.5c0 8.66699 -2.66699 16.167 -8 22.5
s-12.333 10.833 -21 13.5l1 -1c-3.33301 1.33301 -6.66602 2.33301 -9.99902 3s-6.33301 1 -9 1c-7.33301 0 -14.666 -1.5 -21.999 -4.5s-13.666 -8.16699 -18.999 -15.5c-6 -7.33301 -11.667 -17.5 -17 -30.5s-8 -23.833 -8 -32.5v-2c0 -7.33301 1.83301 -12.833 5.5 -16.5
s7.83398 -7.5 12.501 -11.5v-21c0 -25.333 0.833008 -53.666 2.5 -84.999s3.83398 -65.333 6.50098 -102c2 -26 3.83301 -53.167 5.5 -81.5s3.16699 -57.5 4.5 -87.5c0.666992 -8.66699 1 -16.667 1 -24v-21c0 -54.667 -6.83301 -100.167 -20.5 -136.5
s-36.167 -67.833 -67.5 -94.5c-20.667 -18 -38.834 -30 -54.501 -36s-28.5 -9 -38.5 -9h-13c-4.66699 8.66699 -11.5 15.334 -20.5 20.001s-18.833 7 -29.5 7c-8.66699 0 -16.834 -1.83301 -24.501 -5.5s-13.5 -10.167 -17.5 -19.5c-6 -9.33301 -9 -19 -9 -29
c0 -7.33301 1.5 -14.5 4.5 -21.5s7.83301 -13.167 14.5 -18.5c20.667 -18 47.334 -27 80.001 -27c25.333 0 52.333 5.5 81 16.5s57 28.167 85 51.5c44 38 75.167 80.833 93.5 128.5s27.5 103.834 27.5 168.501v28c0 9.33301 -0.333008 19 -1 29z" />
    <glyph glyph-name="K" unicode="K" horiz-adv-x="540" 
d="M588 -1l0.00195312 1.00195c-6.66699 8 -15.834 16 -27.501 24s-25 16.167 -40 24.5s-31.167 16.666 -48.5 24.999l-54 26.5l-57.5 28l-55.5 28.5c-18 9.66699 -34.833 19.667 -50.5 30s-29.167 20.833 -40.5 31.5l2 34c12 9.33301 30.5 19.333 55.5 30l81.5 34
l82.5 34.5c27 11.667 49.167 22.5 66.5 32.5c2 2 3.66699 3.33301 5 4c6 4.66699 13 10.834 21 18.501s13 17.834 15 30.501c0 1.33301 0.166992 3 0.5 5s0.5 3.66699 0.5 5c0 10.667 -3 20.334 -9 29.001s-16.333 13 -31 13c-9.33301 0 -18.666 -1.83301 -27.999 -5.5
s-16.333 -10.167 -21 -19.5c-1.33301 -3.33301 -6 -7.33301 -14 -12s-18.5 -10 -31.5 -16l-44 -19.5c-16.333 -7 -33.166 -13.833 -50.499 -20.5l-51.5 -21c-17 -6.66699 -32.167 -13.334 -45.5 -20.001c0 10.667 0.333008 21.667 1 33s1.66699 22.666 3 33.999
c1.33301 14 2.33301 27.833 3 41.5s1 26.167 1 37.5c4.66699 13.333 7 25 7 35v7c-2 13.333 -6.66699 24.166 -14 32.499s-18 12.5 -32 12.5c-12.667 0 -24.334 -3.5 -35.001 -10.5s-16 -19.167 -16 -36.5c0 -20 -0.5 -42.5 -1.5 -67.5s-2.16699 -51.167 -3.5 -78.5
c-1.33301 -16.667 -2.33301 -33 -3 -49l-2 -46c-12.667 -16.667 -19 -35.667 -19 -57c0 -22.667 4.66699 -42.334 14 -59.001v-160c0 -17.333 4.33301 -30.666 13 -39.999s16.667 -16 24 -20c7.33301 -4.66699 15.333 -7 24 -7c7.33301 0 13.5 1.5 18.5 4.5
s9.5 7.16699 13.5 12.5c8 8.66699 12 19.334 12 32.001v4c0 2 -0.666992 4.66699 -2 8h1c-0.666992 1.33301 -2.5 3.5 -5.5 6.5l-9.5 9.5c0 6 0.166992 12.167 0.5 18.5s0.5 12.166 0.5 17.499s0.166992 10.833 0.5 16.5s0.5 12.167 0.5 19.5
c23.333 -14 49.166 -28.167 77.499 -42.5l84.5 -41.5l90 -44.5c26.667 -13.667 44.667 -26.167 54 -37.5c10 -10.667 21.333 -16 34 -16c7.33301 0 13.833 1.66699 19.5 5s10.5 7.66602 14.5 12.999c3.33301 4 6.16602 8.5 8.49902 13.5s3.5 10.833 3.5 17.5
c0 8.66699 -3.33301 17.667 -10 27z" />
    <glyph glyph-name="L" unicode="L" horiz-adv-x="570" 
d="M605 102l-0.999023 1.00195c-8.66699 12.667 -20.667 19 -36 19c-4 0 -8.33301 -0.333008 -13 -1s-9.33398 -2.33398 -14.001 -5.00098c-16 -9.33301 -35.5 -18.166 -58.5 -26.499s-48 -15.666 -75 -21.999s-55.167 -11.5 -84.5 -15.5s-58.333 -6.33301 -87 -7
c-20.667 0 -33.667 3 -39 9c-3.33301 4.66699 -5 11.334 -5 20.001c0 6 0.833008 13.167 2.5 21.5s4.16699 18.166 7.5 29.499c24.667 85.333 44.5 167.666 59.5 246.999s25.5 154 31.5 224v6c0 14.667 -4.5 25.334 -13.5 32.001s-19.5 10 -31.5 10
c-11.333 0 -21.833 -3.33301 -31.5 -10s-15.167 -17.334 -16.5 -32.001c-7.33301 -56 -17.333 -121.833 -30 -197.5s-32.667 -160.167 -60 -253.5c-12 -39.333 -18 -72.333 -18 -99c0 -30 8.33301 -53 25 -69c10 -11.333 23.333 -19.333 40 -24s37 -7.33398 61 -8.00098
c31.333 0 64 1.66699 98 5s67.333 8.5 100 15.5s63.834 15.833 93.501 26.5s56.167 23 79.5 37c9.33301 5.33301 15.666 11.666 18.999 18.999s5 14.666 5 21.999c0 8.66699 -2.66699 17.334 -8 26.001z" />
    <glyph glyph-name="M" unicode="M" horiz-adv-x="804" 
d="M813 -17l-0.00488281 1.99414c-1.33301 18.667 -9.33301 30 -24 34c-8.66699 2.66699 -14.334 6.66699 -17.001 12c-9.33301 24 -18.5 51.667 -27.5 83s-17.833 64 -26.5 98s-16.667 68.333 -24 103l-21 98c-1.33301 4 -2.16602 7.83301 -2.49902 11.5
s-1.16602 7.16699 -2.49902 10.5v-1c-2 13.333 -7.66699 21.666 -17 24.999s-20 5 -32 5s-22.167 -2.16699 -30.5 -6.5s-14.166 -12.166 -17.499 -23.499v-3c-1.33301 -6 -3 -10.667 -5 -14v1c-6 -11.333 -14 -24.166 -24 -38.499s-20.333 -28.166 -31 -41.499
s-21.167 -25.666 -31.5 -36.999s-19.166 -20 -26.499 -26c-6.66699 -5.33301 -14 -9.66602 -22 -12.999s-15 -5 -21 -5h-3c-15.333 0 -29.666 6.66699 -42.999 20c-30.667 26.667 -56.167 59.167 -76.5 97.5s-37.166 86.5 -50.499 144.5c2 4.66699 3 10.334 3 17.001
c0 11.333 -3.66699 19.333 -11 24c-1.33301 3.33301 -2.5 7.16602 -3.5 11.499s-3.16699 9.16602 -6.5 14.499s-7.83301 9.33301 -13.5 12s-11.5 4 -17.5 4c-3.33301 0 -7 -0.5 -11 -1.5s-8.33301 -2.16699 -13 -3.5c-8 -4 -15 -8.83301 -21 -14.5s-9 -14.167 -9 -25.5
c0 -7.33301 0.666992 -14.333 2 -21s2.66602 -12.667 3.99902 -18c0 -1.33301 0.666992 -3.33301 2 -6v-1c0.666992 -0.666992 1 -1.33398 1 -2.00098v0l-1 2c-0.666992 -63.333 -3.66699 -119.833 -9 -169.5s-10.666 -95.834 -15.999 -138.501
c-4.66699 -34 -8.66699 -65.5 -12 -94.5s-5 -58.167 -5 -87.5v-25c0 -9.33301 0.666992 -18 2 -26c2 -16 7.33301 -28.167 16 -36.5s18.334 -12.5 29.001 -12.5h2c11.333 0.666992 21.833 5.33398 31.5 14.001s14.5 20.334 14.5 35.001v6c-0.666992 5.33301 -1 11 -1 17v18
c0 24.667 1.33301 51.334 4 80.001s6 59.667 10 93c2 19.333 4.33301 39.333 7 60s5.33398 42.667 8.00098 66c20 -39.333 45 -72.666 75 -99.999c32 -30 68.333 -45 109 -45c19.333 0 38.166 3.5 56.499 10.5s35.166 17.167 50.499 30.5h-1
c13.333 10.667 28.166 25.334 44.499 44.001s30.5 37 42.5 55l18.5 -80c6.33301 -28 13.333 -56 21 -84s15.834 -55.5 24.501 -82.5s18 -52.167 28 -75.5c5.33301 -13.333 14.333 -24.666 27 -33.999s25.667 -14 39 -14h6c16 2 28.167 7.66699 36.5 17
s12.5 19.666 12.5 30.999z" />
    <glyph glyph-name="N" unicode="N" horiz-adv-x="656" 
d="M627 457c-3.33301 11.333 -9.16602 19.667 -17.499 25s-17.166 8 -26.499 8c-2.66699 0 -5.16699 -0.166992 -7.5 -0.5s-5.16602 -1.16602 -8.49902 -2.49902c-9.33301 -4 -17.333 -10 -24 -18s-10.667 -18.333 -12 -31v-4c0 -6 1.16699 -12 3.5 -18
s6.16602 -10.667 11.499 -14c0.666992 -5.33301 1.16699 -11.166 1.5 -17.499s0.5 -12.5 0.5 -18.5c0 -20.667 -1.16699 -42.834 -3.5 -66.501s-5.33301 -46.5 -9 -68.5s-7.5 -42 -11.5 -60s-8 -31.667 -12 -41c-4 -10 -9.16699 -20.333 -15.5 -31
s-15.166 -16.334 -26.499 -17.001h-2c-6.66699 0 -13.5 1.83301 -20.5 5.5s-15.5 10.167 -25.5 19.5c-20 20 -39.5 43.167 -58.5 69.5s-37 53.666 -54 81.999s-32.5 56.333 -46.5 84s-26 52.5 -36 74.5c0.666992 3.33301 1.16699 6.33301 1.5 9s0.5 4.66699 0.5 6
c0 20 -9 32.667 -27 38c-0.666992 2 -1.5 4 -2.5 6s-1.16699 2.33301 -0.5 1l-1 2l-0.5 1.5c-0.333008 1 -1.66602 2.83301 -3.99902 5.5s-5.83301 7.66699 -10.5 15c-6 6.66699 -15 10 -27 10c-8.66699 0 -16 -1.66699 -22 -5c-6.66699 -3.33301 -12.5 -8.5 -17.5 -15.5
s-7.5 -15.5 -7.5 -25.5c0 -1.33301 0.166992 -2.66602 0.5 -3.99902s0.5 -2.66602 0.5 -3.99902c1.33301 -7.33301 3.83301 -15 7.5 -23l10.5 -23l2 -4c-3.33301 -22 -6.66602 -47.5 -9.99902 -76.5s-6.33301 -59.333 -9 -91s-5 -63.167 -7 -94.5s-3 -60 -3 -86
c0 -25.333 1 -47 3 -65c1.33301 -20 7.66602 -37.167 18.999 -51.5s28.333 -22.833 51 -25.5h6c13.333 0 24.166 4.5 32.499 13.5s12.5 19.167 12.5 30.5c0 7.33301 -2 14.166 -6 20.499s-10.667 11.166 -20 14.499c-2.66699 0.666992 -4.66699 5.33398 -6 14.001v2
c-0.666992 1.33301 -1 3 -1 5c-0.666992 5.33301 -1 10.666 -1 15.999v18c0 27.333 1.33301 59.333 4 96s5.66699 73.667 9 111c23.333 -42.667 47.666 -82.167 72.999 -118.5s51.666 -68.5 78.999 -96.5c19.333 -22 38.666 -37.5 57.999 -46.5s37.666 -13.833 54.999 -14.5
c29.333 0.666992 55.5 11.334 78.5 32.001s40.167 48 51.5 82h-1c5.33301 16 10.333 34.333 15 55s8.66699 42.5 12 65.5s6 46.5 8 70.5s3 47 3 69c0 20 -0.666992 38.667 -2 56s-3.66602 32.333 -6.99902 45z" />
    <glyph glyph-name="O" unicode="O" horiz-adv-x="787" 
d="M793 198c0 53.333 -26.6689 100.003 -80.002 140.003c-23.333 17.333 -48.166 34.166 -74.499 50.499s-53.5 31.166 -81.5 44.499c-26 12.667 -50.167 21.334 -72.5 26.001s-43.166 7 -62.499 7c-16.667 0 -32.334 -1 -47.001 -3
c-0.666992 0 -1.16699 -0.166992 -1.5 -0.5l-0.5 -0.5v2c0 10 -4.16699 19 -12.5 27s-17.166 13.667 -26.499 17c-4 1.33301 -7.5 2.16602 -10.5 2.49902s-5.5 0.5 -7.5 0.5c-12.667 0 -23 -3.83301 -31 -11.5s-13.333 -17.834 -16 -30.501
c-26 -17.333 -50.333 -39.666 -73 -66.999s-42.5 -56.5 -59.5 -87.5s-30.5 -62.333 -40.5 -94s-15 -60.167 -15 -85.5c0 -62 17.667 -109.667 53 -143c18.667 -17.333 41.167 -30.333 67.5 -39s55.833 -13 88.5 -13c54.667 0 116.334 12.667 185.001 38l44 16l46 16l46 15.5
c15.333 5 30.666 10.5 45.999 16.5c46 17.333 80 39.166 102 65.499s33.333 56.5 34 90.5zM696.998 196.003c0 -13.333 -5.83301 -25.6689 -17.5 -37.002s-31.5 -23 -59.5 -35c-21.333 -9.33301 -43.833 -18 -67.5 -26l-70.5 -24l-19.5 -6l-18.5 -6
c-34.667 -11.333 -65.334 -19.833 -92.001 -25.5s-50.667 -8.5 -72 -8.5c-17.333 0 -32.166 2 -44.499 6s-22.833 9.66699 -31.5 17c-10 9.33301 -17.333 21.333 -22 36s-7.66699 30.667 -9 48c0 14 3.66699 32.167 11 54.5s17.166 45.5 29.499 69.5s26.333 47 42 69
s31.834 40 48.501 54c4 -4 9 -6.83301 15 -8.5s12.333 -2.5 19 -2.5c7.33301 0 12.666 0.333008 15.999 1c8 1.33301 15.833 2.33301 23.5 3s15.834 1 24.501 1c18 0 37 -2 57 -6s39.667 -10.667 59 -20h-1c25.333 -13.333 49.5 -26.666 72.5 -39.999
s43.5 -27.666 61.5 -42.999v1c30.667 -28 46 -52 46 -72z" />
    <glyph glyph-name="P" unicode="P" horiz-adv-x="572" 
d="M265 431l-0.00585938 2.00195c0 1.33301 0.166992 2.33301 0.5 3s0.5 1.66699 0.5 3c0 10 -3.5 18.333 -10.5 25s-14.5 11.334 -22.5 14.001c3.33301 -0.666992 6.5 -1.16699 9.5 -1.5s6.5 -0.833008 10.5 -1.5l110 -21c36.667 -6.66699 70 -14.334 100 -23.001
c41.333 -10.667 62 -24.334 62 -41.001v-2c0 -10.667 -11.667 -21.667 -35 -33l-44.5 -21.5l-54 -26.5l-59.5 -28.5l-61 -27.5c-18 -8.66699 -27 -21.667 -27 -39c0 -6.66699 1.66699 -13.334 5 -20.001c3.33301 -8 8.5 -14.833 15.5 -20.5s15.5 -8.5 25.5 -8.5
c6.66699 0 13.334 1.66699 20.001 5l61.5 28.5l64.5 31.5l54.5 26c17 8 32.167 14.667 45.5 20c32.667 16.667 57 35 73 55s24 40.667 24 62v2c-0.666992 26.667 -12.667 51.167 -36 73.5s-59.666 40.5 -108.999 54.5c-27.333 7.33301 -57.166 14 -89.499 20l-97.5 19
c-34 5.33301 -66.833 11.166 -98.5 17.499s-60.834 13.166 -87.501 20.499c-5.33301 5.33301 -12 9.83301 -20 13.5s-15.667 5.5 -23 5.5c-16.667 0 -30.167 -5.16699 -40.5 -15.5s-15.5 -22.166 -15.5 -35.499c0 -8 2.33301 -15.667 7 -23s11.667 -13.666 21 -18.999
c12.667 -7.33301 34.334 -14.5 65.001 -21.5s65.667 -13.833 105 -20.5h-1c-9.33301 0 -17.666 -2.66699 -24.999 -8s-12.333 -14.333 -15 -27c-3.33301 -17.333 -7 -38.166 -11 -62.499s-7.66699 -50.833 -11 -79.5s-6.16602 -59.167 -8.49902 -91.5
s-3.5 -65.166 -3.5 -98.499c0 -32 1.16699 -63.5 3.5 -94.5s6.5 -60.5 12.5 -88.5c3.33301 -13.333 9 -22.833 17 -28.5s17.333 -8.5 28 -8.5h6c2.66699 0 5 0.333008 7 1c10 2 18.333 6.33301 25 13s10 15.334 10 26.001v4c0 1.33301 -0.666992 3.66602 -2 6.99902l1 -1
c-5.33301 27.333 -9.16602 55.5 -11.499 84.5s-3.5 58.5 -3.5 88.5s1 60 3 90s4.66699 58.667 8 86s6.83301 52.666 10.5 75.999s7.5 43.666 11.5 60.999zM231.994 479.002v-1h-1v1h1z" />
    <glyph glyph-name="Q" unicode="Q" horiz-adv-x="734" 
d="M705 310c-5.33301 26.667 -14 55.832 -26 87.499s-25 59.834 -39 84.501c-16 30 -35.833 53.5 -59.5 70.5s-50.834 25.833 -81.501 26.5h-3c-39.333 0 -82.333 -16.333 -129 -49c-24.667 -17.333 -49.5 -38.666 -74.5 -63.999s-49.167 -53 -72.5 -83s-45.333 -61 -66 -93
s-38.334 -63.333 -53.001 -94c-28 -57.333 -42 -106 -42 -146c0 -41.333 12 -74.333 36 -99c13.333 -13.333 30 -23.833 50 -31.5s43 -11.5 69 -11.5c13.333 0 26.333 0.833008 39 2.5s26 4.16699 40 7.5c8 2 18 5 30 9s25 8.66699 39 14l43.5 16.5
c15 5.66699 29.5 11.5 43.5 17.5l1 -1l22.5 -74c7.66699 -25.333 18.167 -50 31.5 -74c10.667 -20.667 25 -36.667 43 -48s38.667 -17.333 62 -18h2c14.667 0 26.167 4.66699 34.5 14s12.833 20.333 13.5 33v2c0 10 -3.5 19.333 -10.5 28s-17.167 14 -30.5 16
c-5.33301 0 -11.166 1.66699 -17.499 5s-12.166 9.66602 -17.499 18.999c-8.66699 16 -17 36 -25 60s-15 48.667 -21 74c1.33301 0 2.66602 0.666992 3.99902 2v-1c14.667 7.33301 30.5 16 47.5 26s31.833 20 44.5 30c30.667 24 51.834 50.167 63.501 78.5
s17.5 57.5 17.5 87.5c0 26.667 -3 52 -9 76zM613 285.998c2 -9.33301 3.66699 -18.6729 5 -28.0059s2 -17.666 2 -24.999c0 -17.333 -3.5 -33.166 -10.5 -47.499s-19.167 -28.833 -36.5 -43.5c-6 -5.33301 -14.333 -11.166 -25 -17.499l-34 -19.5l-4 20
c-1.33301 6.66699 -2 13 -2 19c-1.33301 6 -2.33301 11.833 -3 17.5s-1.66699 10.834 -3 15.501c-2.66699 12 -7.5 20.5 -14.5 25.5s-14.167 7.5 -21.5 7.5c-10.667 0 -21.167 -3.5 -31.5 -10.5s-18.5 -16.167 -24.5 -27.5c-2.66699 -5.33301 -4.5 -10.666 -5.5 -15.999
s-1.5 -10.666 -1.5 -15.999c0 -10 1.66699 -18.833 5 -26.5s7.66602 -13.167 12.999 -16.5c1.33301 -4 2.5 -8.83301 3.5 -14.5s2.16699 -11.834 3.5 -18.501c-10.667 -4.66699 -22.5 -9.5 -35.5 -14.5s-26 -9.66699 -39 -14s-26 -8.33301 -39 -12s-24.833 -6.5 -35.5 -8.5
c-20 -5.33301 -37.667 -8 -53 -8c-22 0 -39 5 -51 15v-1c-10.667 10.667 -16 24.334 -16 41.001c0 23.333 11 57.666 33 102.999c14 28 30.333 56.333 49 85s38 56 58 82s40.333 49.667 61 71s40.334 38.666 59.001 51.999c13.333 10 25.833 17.333 37.5 22s22.167 7 31.5 7
h3c13.333 -0.666992 25.333 -5.5 36 -14.5s21 -21.5 31 -37.5c5.33301 -8.66699 11 -19.167 17 -31.5s11.5 -25.166 16.5 -38.499s9.33301 -26.666 13 -39.999s6.5 -25.333 8.5 -36z" />
    <glyph glyph-name="R" unicode="R" horiz-adv-x="590" 
d="M633 -64c1.33301 3.33301 2.16992 6.16895 2.50293 8.50195s0.5 4.83301 0.5 7.5c0 9.33301 -2.83301 18.333 -8.5 27s-15.167 14.667 -28.5 18c-27.333 6.66699 -57.5 16.167 -90.5 28.5s-66.167 25.833 -99.5 40.5s-65.166 30.167 -95.499 46.5
s-56.5 31.833 -78.5 46.5v10l48 18.5c16.667 6.33301 34 12.5 52 18.5l85.5 30.5c28.333 10.333 52.166 20.5 71.499 30.5c64 30 96 65 96 105c0 38.667 -30 76.667 -90 114c-26 14.667 -54.167 28.167 -84.5 40.5s-62 23.5 -95 33.5s-67.167 19.333 -102.5 28l-106 25
c-5.33301 4.66699 -11.666 8.5 -18.999 11.5s-14.666 4.5 -21.999 4.5h-7c-18 0 -32 -6.66699 -42 -20c-2.66699 -3.33301 -4.83398 -7.16602 -6.50098 -11.499s-2.5 -9.16602 -2.5 -14.499c0 -10.667 4.66699 -21.334 14 -32.001c4 -4 9.16699 -7.83301 15.5 -11.5
s13 -7.16699 20 -10.5s14 -6 21 -8s13.167 -3 18.5 -3c3.33301 0 6 0.333008 8 1c0.666992 0 1.16699 -0.166992 1.5 -0.5s0.833008 -0.5 1.5 -0.5h-1l25 -4.5c9.33301 -1.66699 18.666 -3.83398 27.999 -6.50098c-10 -28.667 -16.167 -61.5 -18.5 -98.5
s-3.5 -73.5 -3.5 -109.5v-67c-20 -18 -30 -38 -30 -60c0 -11.333 2.33301 -22 7 -32s12 -19 22 -27c0 -17.333 -0.166992 -35.833 -0.5 -55.5s-0.833008 -39.167 -1.5 -58.5c-0.666992 -11.333 -1.16699 -22 -1.5 -32s-0.5 -19.667 -0.5 -29v-2
c0 -15.333 4.66699 -26.833 14 -34.5s19.666 -11.834 30.999 -12.501c11.333 0 21.666 3.5 30.999 10.5s14.333 18.833 15 35.5c0 7.33301 0.166992 16 0.5 26s0.833008 20.667 1.5 32c0.666992 10 1 20 1 30c0 10.667 0.333008 20.667 1 30
c26 -15.333 54.167 -30.333 84.5 -45s61 -28.667 92 -42s61.167 -25.333 90.5 -36s55.333 -19 78 -25c4 -1.33301 8.66699 -2 14 -2c10.667 0 19.667 3.16699 27 9.5s12.666 14.166 15.999 23.499zM481.004 374.003c0 -9.33301 -10.9971 -19.0029 -32.9971 -29.0029
c-11.333 -6 -25 -12.333 -41 -19s-33 -13.167 -51 -19.5l-55 -19c-18.667 -6.33301 -36.667 -12.166 -54 -17.499c-2.66699 -1.33301 -5.33398 -2.16602 -8.00098 -2.49902s-5 -1.16602 -7 -2.49902c0 1.33301 0.166992 2.83301 0.5 4.5s0.5 3.16699 0.5 4.5
c1.33301 47.333 2.66602 89.833 3.99902 127.5s6 65.5 14 83.5c42 -11.333 80.667 -23.833 116 -37.5s62.666 -26.5 81.999 -38.5c21.333 -14 32 -25.667 32 -35z" />
    <glyph glyph-name="S" unicode="S" 
d="M482 751c-10.667 9.33301 -23.001 13.999 -37.001 13.999c-7.33301 0 -14 -1.33301 -20 -4c-22 -8 -35.667 -24.333 -41 -49l-28 -24l-35 -31l-88.5 -77c-31.667 -28 -61.167 -57 -88.5 -87c-44 -48 -66 -92.333 -66 -133v-3c0 -44 22 -86 66 -126l23.5 -21l28.5 -26
l50.5 -45c17 -15.333 30.833 -28.333 41.5 -39c13.333 -13.333 23 -26 29 -38s9.33301 -23.333 10 -34c0 -8 -1.33301 -16 -4 -24s-7.66699 -16.333 -15 -25c-15.333 -20.667 -34.833 -38.667 -58.5 -54s-44.167 -28 -61.5 -38c-9.33301 -4.66699 -15.833 -10.667 -19.5 -18
s-5.5 -14.666 -5.5 -21.999s2.33301 -15 7 -23c4 -8.66699 9.66699 -15.167 17 -19.5s15 -6.5 23 -6.5c4.66699 0 8.83398 0.333008 12.501 1s7.83398 2.33398 12.501 5.00098c19.333 10.667 42.833 25.834 70.5 45.501s53.5 44.5 77.5 74.5
c11.333 15.333 20.333 31.166 27 47.499s10 33.833 10 52.5v3c0 46 -22 92 -66 138c-7.33301 7.33301 -16.833 16.166 -28.5 26.499l-36.5 31.5l-45 41.5l-36 34.5c-22 22 -33 42.333 -33 61c0 22 12.333 46.333 37 73c21.333 24 46.5 49 75.5 75l85.5 75l65 56.5
c19.333 17 33.666 31.5 42.999 43.5c5.33301 7.33301 9 13.833 11 19.5s3 11.5 3 17.5c0 14 -4.33301 24.333 -13 31z" />
    <glyph glyph-name="T" unicode="T" horiz-adv-x="525" 
d="M647 480l-0.00292969 8.00098c0 11.333 -4 21.666 -12 30.999s-21.667 14 -41 14c-11.333 0.666992 -24 1 -38 1h-44c-22 0 -45.833 -0.166992 -71.5 -0.5s-52.5 -0.5 -80.5 -0.5c-31.333 -0.666992 -63.333 -1 -96 -1h-96c-39.333 0 -76.666 0.166992 -111.999 0.5
s-67 1.16602 -95 2.49902h-2c-14.667 0 -25.5 -4.16699 -32.5 -12.5s-10.833 -18.166 -11.5 -29.499v-2c0 -11.333 4.5 -22 13.5 -32s20.833 -15 35.5 -15c15.333 -0.666992 34.833 -1.16699 58.5 -1.5s48.834 -0.5 75.501 -0.5h76c26 0 50.667 0.333008 74 1
c0 -9.33301 -0.166992 -18.833 -0.5 -28.5s-0.833008 -19.5 -1.5 -29.5l-2 -90.5c-0.666992 -31 -1 -61.833 -1 -92.5c0 -36 0.666992 -69.5 2 -100.5s3.66602 -58.5 6.99902 -82.5c2.66699 -21.333 9.83398 -36.833 21.501 -46.5s23.167 -15.5 34.5 -17.5l-1 1
c3.33301 -1.33301 6.66602 -2 9.99902 -2c11.333 0 21.666 3.5 30.999 10.5s15 17.833 17 32.5v4c0 15.333 -6.33301 28.333 -19 39c-3.33301 15.333 -5.5 39.666 -6.5 72.999s-1.5 70 -1.5 110v85c0 19.333 0.333008 38.5 1 57.5s1.33398 36.167 2.00098 51.5
c0 4.66699 0.166992 9.16699 0.5 13.5s0.5 8.83301 0.5 13.5h7c22 0.666992 42.667 1.16699 62 1.5s37.666 0.5 54.999 0.5h49c14.667 0 27.334 -0.333008 38.001 -1c10.667 -8 23.334 -12 38.001 -12c8.66699 0 16.334 1.66699 23.001 5
c9.33301 4 16.833 9.83301 22.5 17.5s9.16699 15.834 10.5 24.501z" />
    <glyph glyph-name="U" unicode="U" horiz-adv-x="667" 
d="M630 610l-0.00195312 1c-8 24 -22.667 36 -44 36c-8.66699 0 -16.834 -2.33301 -24.501 -7s-14.167 -10.667 -19.5 -18l1 1c-3.33301 -4 -5.33301 -8.16699 -6 -12.5s-1 -8.83301 -1 -13.5c0 -5.33301 0.333008 -10.333 1 -15s1.66699 -10 3 -16
c1.33301 -5.33301 2.33301 -10.833 3 -16.5s1.66699 -12.5 3 -20.5c2 -15.333 3.66699 -32 5 -50s2 -36.667 2 -56c0 -27.333 -1.33301 -55.666 -4 -84.999s-7.16699 -58.333 -13.5 -87s-14.5 -56.334 -24.5 -83.001s-22.333 -50.667 -37 -72
c-25.333 -34.667 -53.166 -62.5 -83.499 -83.5s-59.166 -31.5 -86.499 -31.5c-10 0 -19.667 1.66699 -29 5s-17.666 9 -24.999 17c-19.333 17.333 -34.666 49.333 -45.999 96c-6 30.667 -9 61.667 -9 93c0 34 2.5 68.5 7.5 103.5s10.5 68.167 16.5 99.5
c4 21.333 7.33301 41.333 10 60s4 35 4 49c0 15.333 -4.83301 27.166 -14.5 35.499s-20.5 12.5 -32.5 12.5h-2c-10 0 -19.667 -4 -29 -12s-14 -19.333 -14 -34c0 -8 -1.33301 -18.833 -4 -32.5l-9 -47.5l-17.5 -105.5c-6.33301 -39 -9.5 -80.5 -9.5 -124.5
c0 -19.333 0.833008 -38.5 2.5 -57.5s4.5 -37.5 8.5 -55.5c14 -69.333 38.667 -119.666 74 -150.999c34 -30 72 -45 114 -45c14 0 28.667 1.5 44 4.5s30.666 7.83301 45.999 14.5c30 14 58.667 33 86 57s51.333 51 72 81c20 28 36.333 58 49 90s22.667 64.667 30 98
s12.333 66.666 15 99.999s4 65 4 95c0 42.667 -1.83301 80.334 -5.5 113.001s-7.16699 56 -10.5 70z" />
    <glyph glyph-name="V" unicode="V" horiz-adv-x="645" 
d="M713 447c0 5.33301 -0.831055 13.3281 -2.49805 23.9951s-7.5 19.667 -17.5 27c-8.66699 6.66699 -17.334 10 -26.001 10c-14.667 0 -29 -9 -43 -27c-3.33301 -4 -6.66602 -8.66699 -9.99902 -14s-7.33301 -10.666 -12 -15.999l-60 -81.5l-75.5 -101l-79 -103.5
l-69.5 -89c-1.33301 -3.33301 -2.66602 -5 -3.99902 -5l-0.5 1.5c-0.333008 1 -1.16602 2.16699 -2.49902 3.5c-32 54 -61.5 109 -88.5 165l-86.5 185c-4.66699 10.667 -11 18 -19 22s-15.667 6 -23 6h-9c-14 -1.33301 -24.167 -6.16602 -30.5 -14.499
s-9.5 -18.166 -9.5 -29.499c0 -3.33301 0.5 -7.16602 1.5 -11.499s2.16699 -8.83301 3.5 -13.5l42.5 -91l51.5 -107l56 -109.5c19.333 -36.333 38.333 -69.166 57 -98.499h-1c5.33301 -10 12.666 -17.167 21.999 -21.5s18.666 -6.5 27.999 -6.5s18.666 2 27.999 6
s16.666 10.667 21.999 20l-1 -1c40 47.333 80.833 98.5 122.5 153.5l120.5 160.5l37 49.5l35 47.5c13.333 7.33301 23.833 16 31.5 26s11.5 21.333 11.5 34z" />
    <glyph glyph-name="W" unicode="W" horiz-adv-x="932" 
d="M889 333c-6 32 -13.3252 62.6689 -21.9922 92.002s-18.167 56.333 -28.5 81s-20.833 45.834 -31.5 63.501s-20.334 31.167 -29.001 40.5c-10 9.33301 -21 14 -33 14c-12.667 0 -23.667 -4.66699 -33 -14v1c-10 -9.33301 -15 -20.333 -15 -33
c0 -14 5.66699 -25.667 17 -35c3.33301 -3.33301 8.5 -11.666 15.5 -24.999s14.833 -30.333 23.5 -51s17.167 -44.334 25.5 -71.001s15.166 -55 20.499 -85c2.66699 -15.333 4.5 -29.666 5.5 -42.999s1.5 -26.333 1.5 -39c0 -24.667 -3.66699 -46.334 -11 -65.001
c-9.33301 -21.333 -22.5 -40.5 -39.5 -57.5s-36.5 -31.167 -58.5 -42.5h1c-20 -9.33301 -40 -14 -60 -14c-28.667 0 -52 9.33301 -70 28c-10 10 -18.333 23.5 -25 40.5s-12 36 -16 57s-6.83301 43.167 -8.5 66.5s-2.5 46 -2.5 68c0 13.333 0.166992 25.666 0.5 36.999
s0.833008 22.333 1.5 33v6c0 11.333 -3 20.333 -9 27s-13.667 11 -23 13c-2 0.666992 -4 1.16699 -6 1.5s-4.66699 0.5 -8 0.5c-8 0 -15.833 -2.16699 -23.5 -6.5s-13.5 -10.833 -17.5 -19.5v1c-6 -11.333 -13.5 -26.666 -22.5 -45.999l-30.5 -64l-29 -60.5l-30 -62
l-30 -58.5c-10 -18.667 -19.333 -35.334 -28 -50.001h1c-8 -13.333 -14 -20 -18 -20c-2 0 -4 7.66699 -6 23c-4.66699 30.667 -8.83398 63.334 -12.501 98.001s-7 69.5 -10 104.5s-5.33301 69.333 -7 103s-2.83398 65.167 -3.50098 94.5c0 14 -4.83301 25 -14.5 33
s-20.167 12 -31.5 12s-21.833 -3.83301 -31.5 -11.5s-14.5 -19.834 -14.5 -36.501c0 -34 1 -69.333 3 -106s4.66699 -72.834 8 -108.501l10 -103.5c3.33301 -33.333 6.66602 -64 9.99902 -92c0.666992 -4.66699 1.16699 -9.16699 1.5 -13.5s0.833008 -8.5 1.5 -12.5
c4.66699 -33.333 13.167 -58.833 25.5 -76.5s27.166 -27.834 44.499 -30.501h-1c2.66699 -0.666992 7 -1 13 -1c15.333 0 31.166 6.16699 47.499 18.5s31.5 30.166 45.5 53.499c18 30 37 64.167 57 102.5l56 111.5c2.66699 -38.667 8.5 -75.167 17.5 -109.5
s25.167 -62.5 48.5 -84.5c20 -17.333 41.667 -30.166 65 -38.499s46.666 -12.5 69.999 -12.5c18.667 0 37.167 2.33301 55.5 7s35.833 11 52.5 19c32 16 59.333 35.667 82 59s41 52 55 86c12.667 31.333 19 64.333 19 99c0 16.667 -1 33.667 -3 51s-4.66699 35 -8 53z" />
    <glyph glyph-name="X" unicode="X" horiz-adv-x="510" 
d="M549 573l0.00390625 7.00293c0 9.33301 -2.16699 17.333 -6.5 24s-10.166 12.667 -17.499 18c-9.33301 4.66699 -17 7 -23 7c-7.33301 0 -14 -1.66699 -20 -5s-11 -9.33301 -15 -18c-2.66699 -6.66699 -5.33398 -11.334 -8.00098 -14.001
c-2 -1.33301 -4.16699 -3 -6.5 -5s-4.5 -4.66699 -6.5 -8l-39 -60l-42 -66l-42.5 -68.5l-40.5 -66.5l-31 49.5l-35.5 55.5l-31.5 48c-9.33301 14 -15 23 -17 27c-10.667 14.667 -23.667 22 -39 22c-8 0 -19.667 -4.33301 -35 -13c-6.66699 -6.66699 -10 -17.334 -10 -32.001
c0 -10 2.33301 -18.667 7 -26c1.33301 -1.33301 5.5 -7.33301 12.5 -18l26.5 -42l26 -40.5l27.5 -43.5l25.5 -41.5l20 -33.5l-55 -88.5l-50 -81.5l-42 -68.5l-31 -50.5c-0.666992 -0.666992 -1 -1.33398 -1 -2.00098s-0.333008 -1.33398 -1 -2.00098l-14 -29
c-4.66699 -10 -8.33398 -19.667 -11.001 -29c0 -1.33301 -0.166992 -3 -0.5 -5s-0.5 -3.66699 -0.5 -5c0 -15.333 4.33301 -27.666 13 -36.999s19.667 -14.333 33 -15c7.33301 0 14.5 2 21.5 6s12.833 11.667 17.5 23l10 23c3.33301 8 7.66602 16 12.999 24l39.5 68l49.5 82
l31.5 51l33.5 53c23.333 -32 50.166 -66.667 80.499 -104s62.5 -72.666 96.5 -105.999c4.66699 -4 9.66699 -7 15 -9s10.333 -3 15 -3c13.333 0 24 4.66699 32 14c4.66699 4 8.5 8.83301 11.5 14.5s4.5 11.834 4.5 18.501c0 12.667 -5 23 -15 31v-1
c-16.667 16.667 -33.667 34.667 -51 54l-50.5 59l-47 60c-15 20 -28.5 39 -40.5 57l36.5 59l38.5 60l58 92l55 88l0.5 -1c0.333008 -0.666992 1.16602 -0.333984 2.49902 0.999023c4 4 8.5 9.16699 13.5 15.5s8.16699 15.166 9.5 26.499z" />
    <glyph glyph-name="Y" unicode="Y" horiz-adv-x="516" 
d="M644 551c5.33301 5.33301 8.83203 10.5 10.499 15.5s2.5 10.167 2.5 15.5c0 11.333 -4.83301 21.5 -14.5 30.5s-20.834 13.5 -33.501 13.5c-13.333 0 -25.666 -5.33301 -36.999 -16l-46.5 -59c-15.667 -20.667 -31.167 -42.667 -46.5 -66
c-30 -44 -58.167 -88.167 -84.5 -132.5l-69.5 -117.5l-14.5 -26c-4.33301 -8 -8.83301 -15.667 -13.5 -23c-15.333 28 -31 58.167 -47 90.5l-45.5 95l-39 87c-11.667 27 -20.834 49.5 -27.501 67.5c-3.33301 10.667 -8.5 18.167 -15.5 22.5s-14.5 6.5 -22.5 6.5
c-12 0 -23.333 -4 -34 -12s-16 -17.667 -16 -29c0 -4 1 -8 3 -12h-1c6 -18.667 15.833 -44.5 29.5 -77.5s29.334 -68.667 47.001 -107s36.667 -77.333 57 -117s39.833 -75.834 58.5 -108.501l-47 -81.5l-47 -78.5v1c-6.66699 -9.33301 -10 -18.666 -10 -27.999
c0 -7.33301 2 -13.666 6 -18.999s9 -10.333 15 -15c3.33301 -3.33301 7.33301 -5.5 12 -6.5s9.66699 -1.5 15 -1.5s11.333 1.16699 18 3.5s13 7.16602 19 14.499c6 8 13.333 19.167 22 33.5l27 45.5l27 46l21 36c8.66699 3.33301 15.834 8.5 21.501 15.5
s8.5 15.833 8.5 26.5c0 4 -0.333008 7.66699 -1 11l47 83.5l47.5 81l51.5 84l59 92.5c13.333 20 27.5 39.833 42.5 59.5s30.167 38.167 45.5 55.5z" />
    <glyph glyph-name="Z" unicode="Z" horiz-adv-x="550" 
d="M564 487c-5.33301 14 -14.8301 25.1699 -28.4971 33.5029s-32.167 12.5 -55.5 12.5h-11c-64.667 -1.33301 -124.834 -5.16602 -180.501 -11.499s-108.834 -15.5 -159.501 -27.5c-19.333 -5.33301 -34 -13.333 -44 -24c-12 -11.333 -18 -23.333 -18 -36
c0 -10.667 2.33301 -19.667 7 -27c4 -7.33301 8.5 -12.333 13.5 -15s11.167 -4 18.5 -4c6.66699 0 13.834 1.33301 21.501 4s15.167 6.33398 22.5 11.001c48 11.333 94 19.833 138 25.5s92 9.5 144 11.5c9.33301 0 14.666 -1 15.999 -3v-1h1c0 -4 -3.66699 -9.66699 -11 -17
v1l-82 -72.5l-87.5 -79.5l-88.5 -82.5l-84 -81.5c-32.667 -34 -49 -64.333 -49 -91c0 -8.66699 1.33301 -15.667 4 -21l-1 1c10.667 -32 44.667 -51.333 102 -58c18 -2 36.667 -3 56 -3c26 0 52.667 1.5 80 4.5s53.833 7.33301 79.5 13s50 12.167 73 19.5s43.5 15 61.5 23
c19.333 9.33301 29 22.666 29 39.999c0 3.33301 -0.333008 7.16602 -1 11.499s-2.33398 8.83301 -5.00098 13.5c-4 7.33301 -9.16699 13.166 -15.5 17.499s-14.166 6.5 -23.499 6.5c-8.66699 0 -17 -2 -25 -6c-12.667 -7.33301 -28.334 -14 -47.001 -20s-39 -11.333 -61 -16
s-45 -8.33398 -69 -11.001s-48 -4 -72 -4c-4.66699 0 -9 0.166992 -13 0.5s-8 0.5 -12 0.5c-7.33301 0.666992 -13 1.83398 -17 3.50098s-6.66699 3.16699 -8 4.5c0 3.33301 2 7.33301 6 12s9 10 15 16c26.667 28 58.667 58.833 96 92.5l113 101.5l72 63.5l61 56.5
c14.667 14 25.667 28.667 33 44s11 29.666 11 42.999c0 9.33301 -1.66699 17.666 -5 24.999zM161.003 35.0029v-1.00098c0.666992 0 1 -0.333008 1 -1c-0.666992 0.666992 -1 1.33398 -1 2.00098z" />
    <glyph glyph-name="bracketleft" unicode="[" horiz-adv-x="220" 
d="M261 -109c0 12 -3.49609 22.1699 -10.4961 30.5029s-17.167 13.5 -30.5 15.5c-6.66699 0.666992 -12.667 1 -18 1c-4.66699 0 -9.33398 0.333008 -14.001 1c-8 0.666992 -15.333 1.16699 -22 1.5s-13.667 0.5 -21 0.5c-3.33301 0 -6.83301 0.166992 -10.5 0.5
s-7.83398 0.166016 -12.501 -0.500977c0.666992 18 1.16699 40.5 1.5 67.5s0.666016 57 0.999023 90s0.666016 68 0.999023 105s0.5 74.5 0.5 112.5v113c0 38 -0.166992 73.667 -0.5 107s-0.833008 63.833 -1.5 91.5s-1.33398 50.5 -2.00098 68.5h118
c14.667 0 25.5 4.5 32.5 13.5s10.5 18.833 10.5 29.5v2c0 11.333 -4 21.666 -12 30.999s-19 14 -33 14c-16 0 -35.667 0.166992 -59 0.5s-49 1.16602 -77 2.49902l2 -1c-6 2.66699 -11.5 4.33398 -16.5 5.00098s-9.16699 1 -12.5 1
c-14.667 0 -25.334 -5.16699 -32.001 -15.5s-10 -27.166 -10 -50.499v-11c0 -4 0.333008 -7.66699 1 -11c1.33301 -23.333 2.33301 -55.833 3 -97.5s1 -87.834 1 -138.501s-0.166992 -103.334 -0.5 -158.001s-0.666016 -106.667 -0.999023 -156s-0.833008 -94 -1.5 -134
s-1.33398 -70.333 -2.00098 -91c-1.33301 -3.33301 -2 -6.66602 -2 -9.99902v-10c0 -15.333 4.33301 -29.333 13 -42s25.334 -19 50.001 -19h8c12.667 0 22.834 -0.166992 30.501 -0.5s15.167 -0.833008 22.5 -1.5c8 -0.666992 16.667 -1.16699 26 -1.5s21.333 -0.5 36 -0.5
c14 0 24.833 4.66699 32.5 14s11.5 19.666 11.5 30.999z" />
    <glyph glyph-name="backslash" unicode="\" horiz-adv-x="476" 
d="M24 610c2.66699 -16 12.1699 -37.832 28.5029 -65.499s36.833 -58.834 61.5 -93.501l82.5 -111.5l92.5 -118.5l76.5 -98l67 -89c19.667 -27.333 36 -51.5 49 -72.5s21.167 -37.5 24.5 -49.5c3.33301 -10 7.16602 -17 11.499 -21s10.166 -6 17.499 -6
c5.33301 0 10.666 1.33301 15.999 4l-1 -1c19.333 4 29 16.333 29 37v7c-1.33301 13.333 -8.66602 31.666 -21.999 54.999s-30.5 50 -51.5 80s-45.167 62.333 -72.5 97l-85 108l-67 84l-65 83l-58 78.5c-18 25 -33.667 48.5 -47 70.5c0 24 -4.33301 43.667 -13 59
c-5.33301 10.667 -11.333 18 -18 22s-13.667 6 -21 6h-5c-2 0 -4.66699 -0.666992 -8 -2l1 1c-8.66699 -1.33301 -14.834 -6.16602 -18.501 -14.499s-5.5 -18.5 -5.5 -30.5v-10c0 -2.66699 0.333008 -5.66699 1 -9z" />
    <glyph glyph-name="bracketright" unicode="]" horiz-adv-x="206" 
d="M-22 -109c0 -11.333 3.83105 -21.6699 11.498 -31.0029s18.5 -14 32.5 -14c14.667 0 26.834 0.166992 36.501 0.5s18.167 0.833008 25.5 1.5s14.833 1.16699 22.5 1.5s17.834 0.5 30.501 0.5h8c24.667 0 41.5 6.33301 50.5 19s13.5 26.667 13.5 42c0 7.33301 -1 14 -3 20
c-0.666992 20.667 -1.33398 51 -2.00098 91s-1.16699 84.667 -1.5 134s-0.666016 101.333 -0.999023 156s-0.5 107.334 -0.5 158.001s0.333008 96.834 1 138.501s1.66699 74.167 3 97.5c0.666992 3.33301 1 7 1 11v11c0 23.333 -3.33301 40.166 -10 50.499
s-17.334 15.5 -32.001 15.5c-4 0 -8.33301 -0.333008 -13 -1s-10 -2.33398 -16 -5.00098l2 1c-28 -1.33301 -53.667 -2.16602 -77 -2.49902s-43 -0.5 -59 -0.5c-14 0 -25 -4.66699 -33 -14s-12 -19.666 -12 -30.999v-2c0 -10.667 3.5 -20.5 10.5 -29.5
s17.833 -13.5 32.5 -13.5h118c-1.33301 -18 -2.16602 -40.833 -2.49902 -68.5s-0.666016 -58.167 -0.999023 -91.5s-0.5 -69 -0.5 -107v-113v-113c0 -36.667 0.166992 -71.5 0.5 -104.5s0.666016 -63 0.999023 -90s0.833008 -49.5 1.5 -67.5
c-4 0.666992 -7.66699 0.833984 -11 0.500977s-6.66602 -0.5 -9.99902 -0.5c-7.33301 0 -14.5 -0.166992 -21.5 -0.5s-14.5 -0.833008 -22.5 -1.5c-4.66699 -0.666992 -9.66699 -1 -15 -1c-4.66699 0 -10.334 -0.333008 -17.001 -1c-13.333 -2 -23.5 -7.16699 -30.5 -15.5
s-10.5 -18.5 -10.5 -30.5z" />
    <glyph glyph-name="asciicircum" unicode="^" horiz-adv-x="319" 
d="M323 377l-0.998047 -0.000976562c-7.33301 8 -16.666 17.333 -27.999 28l-31 29c-8.66699 6.66699 -17.334 10 -26.001 10c-4.66699 0 -8.83398 -0.833008 -12.501 -2.5s-7.83398 -3.83398 -12.501 -6.50098v1c-6.66699 -3.33301 -13.667 -7.16602 -21 -11.499
s-15 -9.16602 -23 -14.499c-18 -9.33301 -35.333 -19 -52 -29c-10.667 -6.66699 -16 -15.334 -16 -26.001c0 -6.66699 2 -12.334 6 -17.001c6.66699 -10.667 16.667 -16 30 -16c7.33301 0 13.666 1.33301 18.999 4c4 2.66699 8.33301 5.16699 13 7.5s9 4.83301 13 7.5
c8 5.33301 16.333 10.333 25 15s16.334 9.33398 23.001 14.001l10.5 -8.5l12.5 -10.5l11 -11c4 -4 8 -7.66699 12 -11c3.33301 -3.33301 7 -5.16602 11 -5.49902s8 -0.5 12 -0.5c9.33301 0 17.5 2.83301 24.5 8.5s10.5 13.167 10.5 22.5c0 3.33301 -0.666992 7 -2 11
s-4 8 -8 12z" />
    <glyph glyph-name="underscore" unicode="_" horiz-adv-x="485" 
d="M546 -107l-0.00195312 0.99707c0 4 -1.5 8.5 -4.5 13.5s-7 9.5 -12 13.5s-10.333 7.5 -16 10.5s-11.5 4.5 -17.5 4.5h-4c-9.33301 -0.666992 -28.666 -1 -57.999 -1h-102h-196c-32.667 0 -61.667 -0.5 -87 -1.5s-42.333 -2.5 -51 -4.5
c-7.33301 -2 -13.833 -6.66699 -19.5 -14s-8.5 -14.666 -8.5 -21.999c0 -10 4.33301 -18.833 13 -26.5s24.667 -11.5 48 -11.5h4c5.33301 -0.666992 19.333 -1.16699 42 -1.5s50.334 -0.5 83.001 -0.5h104h80c26.667 0 51.167 0.166992 73.5 0.5s41.666 0.833008 57.999 1.5
s27.833 1.33398 34.5 2.00098c12.667 2 21.834 6.83301 27.501 14.5s8.5 14.834 8.5 21.501z" />
    <glyph glyph-name="grave" unicode="`" horiz-adv-x="248" 
d="M249 326c6 7.33301 9.00391 15 9.00391 23c0 9.33301 -4.66699 17.333 -14 24h1c-10 8.66699 -20.333 17 -31 25l-33 25c-7.33301 5.33301 -14.5 10.833 -21.5 16.5s-14.167 11.167 -21.5 16.5c-4.66699 4.66699 -11.334 7 -20.001 7c-11.333 0 -20 -4.66699 -26 -14
c-6 -6 -9 -13.667 -9 -23c0 -10 4.33301 -18 13 -24l53.5 -41l54.5 -41c5.33301 -4.66699 11.666 -7 18.999 -7c5.33301 0 10.166 1.33301 14.499 4s8.16602 5.66699 11.499 9z" />
    <glyph glyph-name="a" unicode="a" horiz-adv-x="594" 
d="M663 95l-0.0078125 1.00098c-9.33301 10.667 -20.333 16 -33 16c-6.66699 0 -14 -2 -22 -6c-7.33301 -4 -16.166 -8 -26.499 -12s-21 -7.83301 -32 -11.5s-21.833 -6.83398 -32.5 -9.50098s-20 -4.66699 -28 -6h-4c-7.33301 0 -13.333 1.66699 -18 5
s-8.66699 9.66602 -12 18.999c-2 4.66699 -3.33301 10.667 -4 18s-1 15.666 -1 24.999v15c0 16.667 -4.33301 29 -13 37s-19.667 12 -33 12c-16 0 -32.667 -5.33301 -50 -16v1c-10.667 -6.66699 -22.834 -15.167 -36.501 -25.5l-42 -32.5l-42 -34.5l-36.5 -30.5l-12 -9
c-7.33301 -6 -13 -9 -17 -9c-1.33301 0 -2 0.666992 -2 2c-0.666992 0.666992 -1 3.33398 -1 8.00098s0.5 9.66699 1.5 15s2.5 9.66602 4.5 12.999c6.66699 14 15.834 28.833 27.501 44.5s24.334 30.667 38.001 45s27.5 27.5 41.5 39.5s27 22 39 30
c25.333 17.333 47.333 26 66 26c6 0 11.833 -0.833008 17.5 -2.5s10.834 -4.5 15.501 -8.5c8.66699 -6 18 -9 28 -9c9.33301 0 17.833 2.16699 25.5 6.5s13.834 10.166 18.501 17.499c4 6.66699 6 14.334 6 23.001c0 5.33301 -1.33301 11 -4 17s-7.33398 11.667 -14.001 17
c-14 11.333 -27.833 19.5 -41.5 24.5s-27.167 7.5 -40.5 7.5c-24.667 0 -48 -5.83301 -70 -17.5s-41 -22.5 -57 -32.5c-14 -9.33301 -29.167 -20.666 -45.5 -33.999s-32.5 -28.166 -48.5 -44.499s-31.167 -33.833 -45.5 -52.5s-26.5 -38 -36.5 -58
c-14 -26.667 -21.667 -55 -23 -85c0 -32.667 9.33301 -57 28 -73c14.667 -12.667 32.334 -19 53.001 -19c24.667 0 51.334 10.333 80.001 31l24.5 20.5l26.5 21.5l41.5 35.5c13 11 23.833 19.167 32.5 24.5c2 2 4 3 6 3c0 -10 2 -21.167 6 -33.5s8.33301 -21.833 13 -28.5v1
c10.667 -15.333 22.5 -26.5 35.5 -33.5s30.5 -10.5 52.5 -10.5h12c4.66699 0 9.33398 0.333008 14.001 1c24.667 2.66699 51.334 9.16699 80.001 19.5s54.334 21.5 77.001 33.5c7.33301 4.66699 13 10.667 17 18s6 15 6 23c0 9.33301 -3.33301 18.333 -10 27z" />
    <glyph glyph-name="b" unicode="b" horiz-adv-x="516" 
d="M482 299l-0.992188 0.00488281c-9.33301 9.33301 -20.833 17 -34.5 23s-30.167 9 -49.5 9h-16c-4.66699 0 -9.66699 -0.666992 -15 -2h1c-25.333 -3.33301 -50.833 -9.33301 -76.5 -18s-47.5 -18 -65.5 -28l-20.5 -12.5c-7 -4.33301 -13.5 -9.16602 -19.5 -14.499
c2 26 4.33301 52 7 78s5.5 51.167 8.5 75.5s6.16699 47.5 9.5 69.5l9 59l-1 -1c0 0.666992 1.33301 3.66699 4 9l7 16c2.66699 6 4.33398 12 5.00098 18v6c0 11.333 -4 20.333 -12 27s-17.667 10 -29 10h-4c-18.667 0 -32.334 -7.33301 -41.001 -22
c-6.66699 -8 -11 -16.333 -13 -25s-4 -18.334 -6 -29.001c-4 -20 -8.33301 -44.5 -13 -73.5s-8.83398 -60 -12.501 -93s-6.66699 -66.833 -9 -101.5s-3.5 -67.334 -3.5 -98.001c0 -21.333 0.5 -41.5 1.5 -60.5s3.16699 -35.5 6.5 -49.5
c3.33301 -15.333 9.66602 -26.333 18.999 -33s18.666 -10 27.999 -10c11.333 0 21.166 3.83301 29.499 11.5s13.166 19.167 14.499 34.5v9c-0.666992 4 -1.16699 8 -1.5 12s-0.5 8.33301 -0.5 13c0 2 0.166992 4.5 0.5 7.5s0.833008 6.16699 1.5 9.5l-1 -1l3 8
c0.666992 1.33301 1.16699 2.66602 1.5 3.99902s1.16602 3.33301 2.49902 6c4.66699 9.33301 11.5 18.166 20.5 26.499s18.833 15.833 29.5 22.5c21.333 13.333 43.166 23.666 65.499 30.999s41.166 11.666 56.499 12.999c3.33301 0.666992 6 1 8 1h5c10 0 17 -2 21 -6
c2 -4 3 -8 3 -12c0 -8 -3.66699 -19.333 -11 -34c-5.33301 -11.333 -12.833 -24.5 -22.5 -39.5s-20.167 -28.833 -31.5 -41.5c-17.333 -21.333 -37.833 -40.333 -61.5 -57l-80.5 -54c-12.667 -9.33301 -19 -22.333 -19 -39c0 -6 1.66699 -12.333 5 -19
c11.333 -17.333 24 -26 38 -26c9.33301 0 18 2.66699 26 8h-1l83.5 56.5c27 19 51.833 41.167 74.5 66.5c14.667 16 28 33 40 51s22 35.333 30 52v-1c18 32.667 27 64 27 94c0 26 -6.66699 47.333 -20 64z" />
    <glyph glyph-name="c" unicode="c" horiz-adv-x="558" 
d="M593 116l-1.00586 -0.00390625c-8.66699 12.667 -21 19 -37 19c-8 0 -16 -2 -24 -6c-9.33301 -5.33301 -23.666 -12.166 -42.999 -20.499s-42 -16.5 -68 -24.5s-54.167 -15 -84.5 -21s-61.5 -9 -93.5 -9c-23.333 0 -40.5 3.5 -51.5 10.5s-16.5 15.833 -16.5 26.5
c0 7.33301 2.33301 15.333 7 24c6 12 14.167 24 24.5 36s21.666 23 33.999 33s24.833 18.667 37.5 26s24.667 12.666 36 15.999c6 -2 12 -3.33301 18 -4s12 -1 18 -1c4 0 7.33301 0.166992 10 0.5s5.33398 0.5 8.00098 0.5c13.333 2.66699 23.833 8.83398 31.5 18.501
s11.5 20.167 11.5 31.5c-0.666992 11.333 -5.16699 21.333 -13.5 30s-21.166 14.334 -38.499 17.001c-2 0.666992 -4.66699 1 -8 1h-11c-15.333 0 -25.666 -0.666992 -30.999 -2c-47.333 -17.333 -89.666 -40.5 -126.999 -69.5s-65.666 -60.5 -84.999 -94.5
c-8.66699 -14 -14.834 -27.833 -18.501 -41.5s-5.5 -26.167 -5.5 -37.5c0 -33.333 14.5 -59.833 43.5 -79.5s69.5 -29.5 121.5 -29.5h8c38 0.666992 74.333 4.33398 109 11.001s66.334 14.334 95.001 23.001s53.834 17.667 75.501 27s38.5 17 50.5 23
c16.667 10 25 23.333 25 40c0 8 -2.33301 16.667 -7 26z" />
    <glyph glyph-name="d" unicode="d" horiz-adv-x="595" 
d="M558 150v6.99805c-2 35.333 -4.83301 75.5 -8.5 120.5s-7.83398 90.167 -12.501 135.5s-9.5 88.833 -14.5 130.5s-9.5 76.834 -13.5 105.501c-2 15.333 -7.33301 26.666 -16 33.999s-18 11 -28 11h-4c-1.33301 0 -3.66602 -0.666992 -6.99902 -2l1 1
c-10 -2 -18.833 -6.83301 -26.5 -14.5s-11.5 -18.5 -11.5 -32.5v-4c0 -1.33301 0.666992 -3.66602 2 -6.99902l-1 1c3.33301 -24 6.83301 -51 10.5 -81s7.16699 -61.333 10.5 -94s6.5 -66 9.5 -100l8.5 -99c-14.667 11.333 -31.167 22.166 -49.5 32.499
s-40.833 15.5 -67.5 15.5c-19.333 0 -39.666 -3.83301 -60.999 -11.5s-42.5 -17.334 -63.5 -29.001s-40.5 -24.667 -58.5 -39s-33 -28.166 -45 -41.499c-28 -31.333 -42 -62 -42 -92v-3c0.666992 -29.333 11.667 -55.166 33 -77.499s53 -38.5 95 -48.5
c13.333 -3.33301 29.833 -6.16602 49.5 -8.49902s41.167 -3.5 64.5 -3.5s48 1.66699 74 5s53 10 81 20c13.333 4.66699 22.666 10.667 27.999 18s8 15.333 8 24c0 6.66699 -1 13 -3 19c-4 8.66699 -9.66699 15.667 -17 21s-16 8 -26 8h-6c-24.667 -8 -49 -13.833 -73 -17.5
s-46.333 -5.5 -67 -5.5c-18.667 0 -35.834 1.16699 -51.501 3.5s-28.5 4.83301 -38.5 7.5c-17.333 5.33301 -30 11.333 -38 18s-12.333 13.667 -13 21c0 5.33301 1.33301 11.166 4 17.499s7 12.5 13 18.5c10 10 21.5 20 34.5 30s26.333 18.833 40 26.5s27 13.834 40 18.501
s25.167 7 36.5 7c12.667 0 24.834 -2.83301 36.501 -8.5s22.667 -13 33 -22s19.833 -19.167 28.5 -30.5s16.667 -22.333 24 -33l-1 1c5.33301 -11.333 12.5 -19.333 21.5 -24s18.167 -7 27.5 -7c13.333 0 25 4.83301 35 14.5s15 24.167 15 43.5z" />
    <glyph glyph-name="e" unicode="e" horiz-adv-x="456" 
d="M512 90l0.000976562 -1.00586c-4 7.33301 -9.16699 13.5 -15.5 18.5s-13.833 7.5 -22.5 7.5c-3.33301 0 -6 -0.166992 -8 -0.5s-4 -0.833008 -6 -1.5c-6.66699 -2 -14.167 -4.66699 -22.5 -8s-17.166 -6.66602 -26.499 -9.99902c-27.333 -10 -57.833 -20.333 -91.5 -31
s-65.834 -16 -96.501 -16c-12.667 0 -24 1.33301 -34 4c-10 1.33301 -18 5.16602 -24 11.499s-9 14.5 -9 24.5c22.667 2.66699 46.167 8.83398 70.5 18.501s47 22 68 37s39.333 31.833 55 50.5s26.5 38.334 32.5 59.001c4 14 6 30 6 48
c0 16.667 -2.83301 32.334 -8.5 47.001s-15.834 26.334 -30.501 35.001c-13.333 8.66699 -29.333 13 -48 13c-13.333 0 -26.333 -1.66699 -39 -5s-23.667 -7.66602 -33 -12.999h1c-24 -12 -52 -37.667 -84 -77c-15.333 -20 -30.833 -44.667 -46.5 -74
s-26.834 -63 -33.501 -101c-1.33301 -6 -2.33301 -12.167 -3 -18.5s-1 -12.833 -1 -19.5c0 -36.667 12.333 -66.667 37 -90c18 -18.667 42 -30 72 -34c15.333 -2.66699 32 -4 50 -4c21.333 0 42.666 1.83301 63.999 5.5s41.833 8.33398 61.5 14.001
s38.334 11.834 56.001 18.501l47.5 18c7.33301 3.33301 14 6 20 8s11.667 4 17 6h-1c10.667 3.33301 18.334 8.66602 23.001 15.999s7 15 7 23c0 8.66699 -1.33301 15.667 -4 21zM295.001 273.994v1.00098c-2.66699 -9.33301 -7.83398 -18.5 -15.501 -27.5
s-16.834 -17.333 -27.501 -25s-22.167 -14.5 -34.5 -20.5s-24.833 -11 -37.5 -15c6.66699 17.333 15.334 33.666 26.001 48.999s21.667 28.666 33 39.999c10.667 11.333 19.667 19 27 23h-1l11 4.5c4 1.66699 7.66699 2.5 11 2.5c4 0 6.66699 -0.666992 8 -2
c0.666992 -1.33301 1.33398 -3.16602 2.00098 -5.49902s1 -4.5 1 -6.5c0 -4 -1 -10 -3 -18z" />
    <glyph glyph-name="f" unicode="f" horiz-adv-x="385" 
d="M495 584l-0.00292969 0.999023c0.666992 3.33301 1 9.33301 1 18v8c0 3.33301 -0.333008 6.66602 -1 9.99902v-1c-0.666992 10.667 -3.5 21.5 -8.5 32.5s-11.833 20.833 -20.5 29.5s-19.167 15.667 -31.5 21s-26.5 8 -42.5 8c-15.333 0 -30.166 -2.5 -44.499 -7.5
s-28 -11.167 -41 -18.5s-24.667 -15.166 -35 -23.499s-18.833 -15.833 -25.5 -22.5c-11.333 -12 -21.833 -25.333 -31.5 -40s-19.167 -30.667 -28.5 -48c-15.333 -31.333 -27.833 -65.333 -37.5 -102s-17.167 -74 -22.5 -112c-4 -0.666992 -8.16699 -1.16699 -12.5 -1.5
s-8.16602 -0.5 -11.499 -0.5c-6 -0.666992 -12.833 -1.33398 -20.5 -2.00098l-11.5 -1h1c-14.667 -2 -25.5 -7.66699 -32.5 -17s-10.5 -19 -10.5 -29v-2c0 -11.333 3.5 -21.333 10.5 -30s17.833 -13 32.5 -13h2c15.333 0 30 1 44 3c-2 -20.667 -3.33301 -42.667 -4 -66
s-1 -47.666 -1 -72.999c0 -26 0.5 -52.333 1.5 -79s2.66699 -52.667 5 -78s5.5 -49.666 9.5 -72.999s8.66699 -44.333 14 -63c5.33301 -15.333 11.666 -27.833 18.999 -37.5s16.666 -17.834 27.999 -24.501c7.33301 -4.66699 16.333 -7 27 -7s21.667 5 33 15
c9.33301 9.33301 14 19.333 14 30c0 8 -2.33301 16.333 -7 25c-2 3.33301 -4.16699 6.5 -6.5 9.5s-4.16602 5.5 -5.49902 7.5c-6 4.66699 -10 10 -12 16c-4 10 -7.5 24 -10.5 42s-5.83301 38.833 -8.5 62.5s-4.66699 49.334 -6 77.001s-2 56.167 -2 85.5
c0 22.667 0.333008 45.834 1 69.501s2.33398 47.167 5.00098 70.5c6.66699 0.666992 13.834 1.33398 21.501 2.00098s15.167 1.66699 22.5 3c21.333 2.66699 43.333 5.16699 66 7.5s44.667 5.5 66 9.5h-1c14 2 24.333 8 31 18s10 20 10 30c0 11.333 -3.66699 21.333 -11 30
s-17.666 13 -30.999 13c-1.33301 0 -2.66602 -0.166992 -3.99902 -0.5s-2.66602 -0.5 -3.99902 -0.5c-26.667 -3.33301 -53.167 -6.33301 -79.5 -9s-51.166 -5.33398 -74.499 -8.00098c5.33301 30.667 11.666 59.667 18.999 87s16.666 52.666 27.999 75.999
c6 11.333 13 22.833 21 34.5s15.667 21.167 23 28.5c11.333 11.333 23.333 20.833 36 28.5s23.667 11.834 33 12.501h2c7.33301 0 12.666 -5 15.999 -15v1c0 -0.666992 0.166992 -1.16699 0.5 -1.5l0.5 -0.5c0.666992 -2 1 -4.33301 1 -7c0 -4 1 -8 3 -12l-1 1
c2 -11.333 6.66699 -19.833 14 -25.5s15.666 -8.5 24.999 -8.5c1.33301 0 2.33301 0.166992 3 0.5s1.66699 0.5 3 0.5c9.33301 0 18.333 3.16699 27 9.5s14.667 15.166 18 26.499z" />
    <glyph glyph-name="g" unicode="g" horiz-adv-x="482" 
d="M437 341l-0.00292969 -1.00098c-9.33301 6 -19.166 9.5 -29.499 10.5s-20.833 1.5 -31.5 1.5c-20.667 0 -41.667 -3.33301 -63 -10s-42.166 -15.5 -62.499 -26.5s-39.333 -23.667 -57 -38s-33.5 -28.833 -47.5 -43.5c-21.333 -23.333 -40 -49.333 -56 -78
s-24 -58.667 -24 -90c0 -26.667 6.66699 -47.334 20 -62.001s31.666 -22 54.999 -22c10.667 0 22 1.5 34 4.5s24 8.5 36 16.5h-1c6.66699 3.33301 13 7 19 11l43 22.5c14 7.66699 25.667 13.5 35 17.5c2.66699 1.33301 5 2 7 2c3.33301 0 5.33301 -2.66699 6 -8
c0 -1.33301 0.166992 -2.66602 0.5 -3.99902s0.5 -2.66602 0.5 -3.99902c2.66699 -14 4.66699 -28.333 6 -43s2 -29.667 2 -45c0 -11.333 -0.5 -23.166 -1.5 -35.499s-3.16699 -26.166 -6.5 -41.499c-6.66699 -30.667 -18 -59.167 -34 -85.5s-40.667 -49.833 -74 -70.5
c-15.333 -11.333 -23 -24.333 -23 -39c0 -4 0.833008 -8.33301 2.5 -13s3.83398 -8.66699 6.50098 -12c4 -6 9.66699 -11.167 17 -15.5s15.333 -6.5 24 -6.5c8 0 16.333 2.66699 25 8l-1 -1c42 26.667 74.833 58.667 98.5 96s40.167 77 49.5 119
c4 16 6.83301 33.167 8.5 51.5s2.5 36.833 2.5 55.5s-0.833008 37 -2.5 55s-3.66699 34.5 -6 49.5s-5 28.167 -8 39.5s-5.83301 19.666 -8.5 24.999c-5.33301 11.333 -12.666 19.333 -21.999 24s-19.666 7 -30.999 7h-13c-4 0 -7.66699 -0.666992 -11 -2
c-10 -3.33301 -20.667 -7.5 -32 -12.5s-22.666 -10.5 -33.999 -16.5s-22.5 -12.333 -33.5 -19l-30.5 -18c-8 -4 -14 -6 -18 -6c-2 0 -3 1.66699 -3 5v5c1.33301 10 6 21.667 14 35s16.667 25.666 26 36.999h-1c12 12 25.333 23.5 40 34.5s29.5 20.5 44.5 28.5
s29.667 14.5 44 19.5s27.166 7.5 38.499 7.5c9.33301 0 16.333 -1.33301 21 -4h-1c7.33301 -4.66699 14.666 -7 21.999 -7c11.333 0 21.5 4.83301 30.5 14.5s13.5 21.167 13.5 34.5c0 7.33301 -2 15 -6 23s-10.333 14.667 -19 20z" />
    <glyph glyph-name="h" unicode="h" horiz-adv-x="627" 
d="M764 107l-0.000976562 -1.00195c-4 7.33301 -9.16699 13.666 -15.5 18.999s-13.833 8 -22.5 8c-6 0 -13 -2 -21 -6c-28.667 -12.667 -52.834 -22.167 -72.501 -28.5s-37.834 -9.5 -54.501 -9.5c-17.333 0 -29.666 2 -36.999 6s-14.333 9.66699 -21 17
c-6 7.33301 -11.5 19 -16.5 35s-8.83301 31 -11.5 45c-4 21.333 -10.667 37.833 -20 49.5s-22 20.5 -38 26.5c-11.333 4 -21.666 6 -30.999 6c-13.333 0 -27.333 -2.5 -42 -7.5s-29.334 -11.833 -44.001 -20.5c-7.33301 -4.66699 -16 -10.5 -26 -17.5l-31.5 -23l-33.5 -26.5
c-11.333 -9.33301 -21.666 -18.666 -30.999 -27.999c-0.666992 6 -1 12.333 -1 19v21c0 28.667 0.833008 58.834 2.5 90.501s4.83398 62.167 9.50098 91.5s11.334 56.666 20.001 81.999s20 46.333 34 63c8 8.66699 12 18.334 12 29.001c0 15.333 -8.66699 27.333 -26 36
c-7.33301 4 -15.333 6 -24 6c-7.33301 0 -14.666 -1.66699 -21.999 -5s-13.333 -9 -18 -17l1 1c-31.333 -42 -52.833 -94.167 -64.5 -156.5s-17.5 -131.166 -17.5 -206.499c0 -23.333 0.5 -47.833 1.5 -73.5s2.5 -51.167 4.5 -76.5c1.33301 -16.667 6.66602 -29 15.999 -37
s20.333 -12 33 -12c19.333 0 36 8.33301 50 25c10 12 21.833 24.5 35.5 37.5s27.667 25.5 42 37.5l41 33c13 10 24.167 17.667 33.5 23l18.5 8.5c5 2.33301 8.83301 3.5 11.5 3.5c5.33301 0 10 -6.66699 14 -20c0 -3.33301 0.666992 -5.33301 2 -6
c3.33301 -12.667 8 -27.667 14 -45s15 -33.666 27 -48.999c17.333 -21.333 37 -36 59 -44s45.667 -12 71 -12h6c28 0.666992 54.333 5.16699 79 13.5s52 19.166 82 32.499c9.33301 4.66699 16.166 10.667 20.499 18s6.5 15 6.5 23c0 4 -0.333008 8 -1 12s-2 7.33301 -4 10z
" />
    <glyph glyph-name="i" unicode="i" horiz-adv-x="382" 
d="M483 71l0.00195312 2.00586c-0.666992 12 -4.83398 22.667 -12.501 32s-19.167 14 -34.5 14h-2c-16 0 -35.5 -4 -58.5 -12s-45.833 -16.667 -68.5 -26l-39 -15c-12.667 -4.66699 -23.667 -7.66699 -33 -9c-4 -1.33301 -7.33301 -2 -10 -2h-8c-12.667 0 -21 7 -25 21
c-2.66699 10 -4 24 -4 42v16c1.33301 21.333 5.5 43.166 12.5 65.499s14.167 40.166 21.5 53.499c2 4.66699 3 10 3 16c0 7.33301 -2.66699 14.166 -8 20.499s-12.666 11.166 -21.999 14.499c-7.33301 2.66699 -14.333 4 -21 4c-12 0 -22.667 -3.66699 -32 -11
c-5.33301 -5.33301 -10.833 -13 -16.5 -23s-10.167 -18.667 -13.5 -26c-0.666992 -2 -1.16699 -3.83301 -1.5 -5.5s-0.5 -3.83398 -0.5 -6.50098c0 -6 1.33301 -10.333 4 -13c-4 -13.333 -7.5 -27.333 -10.5 -42s-5.16699 -29.667 -6.5 -45
c-0.666992 -4.66699 -1.16699 -9.83398 -1.5 -15.501s-0.5 -12.167 -0.5 -19.5c0 -10 0.5 -19.833 1.5 -29.5s2.5 -18.167 4.5 -25.5c8.66699 -30 20.667 -51.833 36 -65.5s36.333 -20.5 63 -20.5c15.333 0 33.666 2.66699 54.999 8
c13.333 3.33301 28.166 7.83301 44.499 13.5l49.5 17.5c18 7.33301 35.167 13.5 51.5 18.5s29.5 8.16699 39.5 9.5c16 2 27.167 7.33301 33.5 16s9.5 18 9.5 28zM295.002 514.006h-0.999023c-12 8 -25 12 -39 12c-15.333 0 -28.333 -4 -39 -12
c-10 -7.33301 -17.333 -15.833 -22 -25.5s-7 -19.167 -7 -28.5c0 -17.333 6.33301 -33 19 -47c7.33301 -7.33301 15.333 -12.5 24 -15.5s17 -4.5 25 -4.5c12.667 0 25.667 4.33301 39 13c9.33301 6.66699 16.166 15 20.499 25s6.5 20 6.5 30c0 22 -8.66699 39.667 -26 53z
" />
    <glyph glyph-name="j" unicode="j" horiz-adv-x="237" 
d="M204 108c0 34 -1.99512 66.6631 -5.99512 97.9961s-10.667 60.333 -20 87c-3.33301 9.33301 -8.33301 16 -15 20s-13.667 6 -21 6c-4.66699 0 -7.83398 -0.166992 -9.50098 -0.5s-3.83398 -0.833008 -6.50098 -1.5c-8 -2.66699 -15.333 -7 -22 -13
s-11.334 -13.667 -14.001 -23c0 -2.66699 -0.166992 -5.66699 -0.5 -9s-0.5 -7.33301 -0.5 -12c0 -5.33301 0.166992 -9.16602 0.5 -11.499s0.5 -4.83301 0.5 -7.5c2.66699 -11.333 7.66699 -19.333 15 -24c6 -36 9 -72.333 9 -109c0 -60 -6 -119.667 -18 -179
s-28 -111.666 -48 -156.999v0c0 -0.666992 -0.333008 -1.33398 -1 -2.00098l1 3c-3.33301 -6.66699 -6.33301 -12 -9 -16c-1.33301 0 -2.5 -0.166992 -3.5 -0.5s-1.83301 -0.5 -2.5 -0.5c-3.33301 -0.666992 -6.83301 -1.16699 -10.5 -1.5s-9.5 -3.5 -17.5 -9.5
c-6.66699 -6.66699 -10.334 -17.667 -11.001 -33v-2c0 -12 4.16699 -23.167 12.5 -33.5s21.166 -15.5 38.499 -15.5h2c17.333 0 32.333 5.83301 45 17.5s22.667 24.834 30 39.501c12.667 24.667 24.167 52.334 34.5 83.001s19 63 26 97s12.333 68.833 16 104.5
s5.5 70.834 5.5 105.501zM160.005 552.996c-5.33301 5.33301 -11.5 9 -18.5 11s-13.833 3 -20.5 3c-16 0 -29 -4.66699 -39 -14c-16.667 -12.667 -25 -30.334 -25 -53.001c0 -18 5.66699 -33.667 17 -47c12.667 -14.667 27.334 -22 44.001 -22c16 0 29 4 39 12
c9.33301 7.33301 16.166 15.833 20.499 25.5s6.5 19.834 6.5 30.501c0 22 -8 40 -24 54z" />
    <glyph glyph-name="k" unicode="k" horiz-adv-x="501" 
d="M550 -28c2.66699 5.33301 3.99902 10.9951 3.99902 16.9951c0 9.33301 -2.66699 17.833 -8 25.5s-14.333 13.167 -27 16.5c-23.333 4 -49.5 12.667 -78.5 26s-57.167 28 -84.5 44s-52.666 32.167 -75.999 48.5s-41 29.833 -53 40.5c-3.33301 3.33301 -5 7 -5 11
c0 4.66699 3.33301 8 10 10c9.33301 5.33301 21.166 10.5 35.499 15.5s29.833 9.83301 46.5 14.5s34 8.5 52 11.5s35 5.16699 51 6.5h33c4.66699 0 8.33398 -0.333008 11.001 -1c2 -0.666992 4 -1 6 -1h7c13.333 0 23.333 4.33301 30 13s10.334 18.667 11.001 30v4
c0 10 -3 19.167 -9 27.5s-16.333 13.5 -31 15.5c-14 2 -28.667 3 -44 3h-17c-18 -0.666992 -36.833 -2.66699 -56.5 -6s-39 -7.16602 -58 -11.499s-36.833 -9.16602 -53.5 -14.499s-31 -10.666 -43 -15.999c9.33301 38 21.333 74.167 36 108.5s33.667 68.5 57 102.5
c4.66699 8.66699 7 17 7 25s-1.16699 14.333 -3.5 19s-5.16602 8.66699 -8.49902 12c-13.333 9.33301 -24.666 14 -33.999 14c-12.667 0 -24 -5 -34 -15c-18 -20 -33.667 -42.5 -47 -67.5s-25 -51.667 -35 -80s-18.5 -57.833 -25.5 -88.5s-12.833 -61 -17.5 -91
c-4 -26 -6.83301 -51.667 -8.5 -77s-2.5 -49.666 -2.5 -72.999c0 -11.333 0.166992 -22.166 0.5 -32.499s0.833008 -20.5 1.5 -30.5c0 -15.333 4.66699 -26.5 14 -33.5s19.333 -10.5 30 -10.5c12 0 22 3.5 30 10.5s12.667 17.833 14 32.5v39c0 16.667 0.666992 32.667 2 48
c16.667 -15.333 37.667 -31.833 63 -49.5s52.833 -34.667 82.5 -51s59.667 -31 90 -44s58.833 -22.5 85.5 -28.5c1.33301 0 2.66602 -0.166992 3.99902 -0.5s2.66602 -0.5 3.99902 -0.5c10 0 18.667 3.16699 26 9.5s12.666 13.833 15.999 22.5z" />
    <glyph glyph-name="l" unicode="l" horiz-adv-x="409" 
d="M552 93l0.00292969 -1c-7.33301 20.667 -21.333 31 -42 31c-6.66699 0 -12.667 -1.33301 -18 -4h1l-51.5 -18c-17.667 -6 -35.5 -11.333 -53.5 -16s-35.667 -8.5 -53 -11.5s-33.333 -4.5 -48 -4.5c-4 0 -8.33301 0.166992 -13 0.5s-8.66699 0.833008 -12 1.5
c-4.66699 1.33301 -9.5 3.16602 -14.5 5.49902s-9.16699 4.5 -12.5 6.5c20 22 40.667 47.333 62 76s39.666 60.334 54.999 95.001c13.333 30 23.5 64.333 30.5 103s10.5 75 10.5 109v13c0 4.66699 -0.333008 9 -1 13c-2.66699 46.667 -11 82 -25 106s-32 37.333 -54 40l2 -1
c-3.33301 1.33301 -7.33301 2 -12 2c-18 0 -37 -7.5 -57 -22.5s-39.667 -36.5 -59 -64.5c-12 -17.333 -23.667 -38 -35 -62s-21.333 -49.667 -30 -77s-15.667 -55.666 -21 -84.999s-8 -58 -8 -86v-7c0 -31.333 1.83301 -60.166 5.5 -86.499s9.66699 -50 18 -71
s19.5 -39.167 33.5 -54.5s31.333 -27.333 52 -36c23.333 -8.66699 49.666 -13 78.999 -13c19.333 0 39.166 1.83301 59.499 5.5s40.333 8 60 13s38.167 10.5 55.5 16.5l47 16v-1c3.33301 1.33301 6.5 2.66602 9.5 3.99902s6.16699 2.66602 9.5 3.99902
c11.333 5.33301 19.833 11.833 25.5 19.5s8.5 16.167 8.5 25.5c0 6 -1.33301 11.333 -4 16zM300.003 477v-12.9961c0 -14 -0.833008 -29.167 -2.5 -45.5s-4 -32.333 -7 -48s-6.16699 -30.334 -9.5 -44.001s-7 -24.834 -11 -33.501c-9.33301 -22.667 -21 -44.167 -35 -64.5
s-28.667 -39.833 -44 -58.5c-4.66699 18 -7 38.667 -7 62v10c0.666992 23.333 3.33398 47.166 8.00098 71.499s10.334 47.666 17.001 69.999s14.167 43 22.5 62s16.5 34.5 24.5 46.5c7.33301 11.333 13.666 19.5 18.999 24.5s9.66602 7.5 12.999 7.5
c6 -3.33301 10 -19 12 -47z" />
    <glyph glyph-name="m" unicode="m" horiz-adv-x="947" 
d="M1080 56l0.00292969 -1.00293c6 8 9 16.333 9 25c0 11.333 -4.66699 21 -14 29v-1c-5.33301 4.66699 -11.166 8.16699 -17.499 10.5s-14.166 3.5 -23.499 3.5h-6c-8 -0.666992 -17.833 -2.16699 -29.5 -4.5s-24 -5.33301 -37 -9l-39 -11
c-13 -3.66699 -25.5 -7.5 -37.5 -11.5c-8.66699 -3.33301 -17.334 -5 -26.001 -5c-10 0 -18.667 4 -26 12c-10 12 -19.167 29.5 -27.5 52.5s-14.833 46.167 -19.5 69.5c-12 53.333 -37.667 80 -77 80h-2c-34 0 -74.667 -19.667 -122 -59l-20.5 -18.5l-23.5 -22l-23.5 -23
l-20.5 -20.5l-4 -2c1.33301 0 1.33301 0.666992 0 2c-2 3.33301 -4 9 -6 17l-11 28c-4 10 -7.66699 19.667 -11 29c-9.33301 19.333 -20.166 32.833 -32.499 40.5s-25.5 11.5 -39.5 11.5h-9c-2.66699 0 -5.33398 -0.333008 -8.00098 -1c-18 -3.33301 -36 -11.5 -54 -24.5
s-33 -26.833 -45 -41.5l-14 -17l-21.5 -25l-20.5 -23c-3.33301 -3.33301 -6.33301 -6.5 -9 -9.5s-5.33398 -6.16699 -8.00098 -9.5v22c0 20 0.333008 40.167 1 60.5s1.66699 39.833 3 58.5v3c0 13.333 -4.66699 23.833 -14 31.5s-19.666 11.5 -30.999 11.5h-2
c-12 0 -22.5 -3.5 -31.5 -10.5s-14.5 -18.167 -16.5 -33.5c-1.33301 -14.667 -2.16602 -34.167 -2.49902 -58.5s-0.5 -50.166 -0.5 -77.499c0 -21.333 0.166992 -42.666 0.5 -63.999s1.16602 -41 2.49902 -59c1.33301 -22.667 11.666 -38.667 30.999 -48h-1
c3.33301 -2 7 -3.33301 11 -4s8 -1 12 -1c7.33301 0 15.166 2 23.499 6s15.166 10.333 20.499 19c6.66699 10.667 15.167 23.334 25.5 38.001s21.833 29 34.5 43c6.66699 8.66699 14 17 22 25l29 32c9.33301 10 17.666 20.333 24.999 31c10 12 19.333 19 28 21
c1.33301 0 2.33301 0.166992 3 0.5s1.66699 0.5 3 0.5c2.66699 0 5 -1.66699 7 -5v1c4 -9.33301 7.66699 -18.333 11 -27l10 -27h-1l10.5 -31.5c3.66699 -11 8.16699 -21.5 13.5 -31.5c4.66699 -8.66699 11.334 -15.167 20.001 -19.5s17.667 -6.5 27 -6.5s18.166 2 26.499 6
s15.166 9.66699 20.499 17l31.5 36l32.5 34c10.667 10.667 20.334 19.834 29.001 27.501s15.334 12.834 20.001 15.501c23.333 16.667 39.666 25 48.999 25c4 0 7.66699 -5 11 -15c7.33301 -28 15.5 -54 24.5 -78s21.5 -45 37.5 -63c12.667 -14.667 26.667 -25 42 -31
s31.666 -9 48.999 -9c21.333 0 44 4.66699 68 14l29 8c10 2.66699 19.667 5 29 7l26 5.5c8 1.66699 14.333 3.16699 19 4.5c2.66699 -0.666992 4.83398 -1.33398 6.50098 -2.00098s1.83398 -0.333984 0.500977 0.999023c2.66699 -1.33301 5.66699 -2 9 -2
c9.33301 0.666992 17.666 4 24.999 10s13 12 17 18z" />
    <glyph glyph-name="n" unicode="n" horiz-adv-x="663" 
d="M808 80l0.00488281 1.99219c-0.666992 12.667 -4.5 23.334 -11.5 32.001s-17.833 13 -32.5 13c-6.66699 0 -11.334 -0.333008 -14.001 -1c-15.333 -3.33301 -32.5 -8.5 -51.5 -15.5s-37.5 -14.167 -55.5 -21.5h1c-5.33301 -1.33301 -10.5 -3.16602 -15.5 -5.49902
s-10.167 -4.5 -15.5 -6.5c-9.33301 -4 -19 -6 -29 -6c-16.667 0 -27.667 6.66699 -33 20c-5.33301 12 -10 27.167 -14 45.5s-7.66699 39.5 -11 63.5c-4 24.667 -13.167 43 -27.5 55s-31.833 18 -52.5 18h-6c-16 0 -33.333 -3.16699 -52 -9.5s-35 -15.166 -49 -26.499
c-13.333 -9.33301 -27.333 -20.166 -42 -32.499s-28.667 -24.833 -42 -37.5c-2 -1.33301 -4 -2.83301 -6 -4.5s-4 -3.16699 -6 -4.5l-20.5 -18c-7 -6 -13.833 -12.333 -20.5 -19v47c0 11.333 -0.166992 22.333 -0.5 33s-0.833008 20 -1.5 28c0 2 -0.166992 4.16699 -0.5 6.5
s-0.5 4.5 -0.5 6.5c-1.33301 10.667 -6.33301 18.667 -15 24s-17.667 8.33301 -27 9h-5c-16.667 0 -28.667 -5 -36 -15c-5.33301 -5.33301 -10 -12.5 -14 -21.5s-6.66699 -16.833 -8 -23.5c0 -12 5 -20.333 15 -25v-25c0 -7.33301 0.166992 -15.333 0.5 -24
s0.5 -17.667 0.5 -27v-104c0 -9.33301 1.83301 -17.666 5.5 -24.999s11.167 -13.666 22.5 -18.999c3.33301 -2 7.16602 -3.33301 11.499 -4s8.16602 -1 11.499 -1c8 0 16 2 24 6s14.667 11.333 20 22c3.33301 6 8.33301 13.5 15 22.5s14.167 18 22.5 27s17 17.667 26 26
s17.5 15.5 25.5 21.5c9.33301 6 18.666 13.167 27.999 21.5l28 24.5v-1l28 22.5c9.33301 7.66699 13.333 11.5 12 11.5h-1c6 3.33301 11.5 6.16602 16.5 8.49902s10.167 3.5 15.5 3.5c2 0 3.66699 -0.333008 5 -1c5.33301 -1.33301 8.33301 -4 9 -8
c0.666992 -1.33301 1 -3 1 -5s0.333008 -4.33301 1 -7v1c2 -13.333 4.83301 -29.666 8.5 -48.999s10.167 -38.666 19.5 -57.999c11.333 -24 26.666 -41.833 45.999 -53.5s41 -17.5 65 -17.5c22 0 46.333 5.33301 73 16c13.333 6.66699 26.333 12.334 39 17.001l36 13h-1
c10 2.66699 19 5.66699 27 9h8c4 0 7.83301 0.5 11.5 1.5l12.5 3.5c9.33301 4 16 9.83301 20 17.5s6 15.5 6 23.5z" />
    <glyph glyph-name="o" unicode="o" horiz-adv-x="548" 
d="M542 213v2c0 11.333 -4.66699 21.5 -14 30.5s-20.666 13.5 -33.999 13.5h-77c-8.66699 6.66699 -18.834 12.834 -30.501 18.501s-23.167 9.16699 -34.5 10.5c-5.33301 1.33301 -11 2 -17 2c-8 0 -15 -1 -21 -3c-16 12 -32 18 -48 18s-31 -4 -45 -12h1
c-32.667 -16 -61.167 -39.333 -85.5 -70s-40.833 -66 -49.5 -106c-4 -19.333 -6 -38 -6 -56c0 -29.333 5.66699 -53 17 -71c22 -38.667 63 -58 123 -58h5c23.333 0.666992 45 2.66699 65 6s39.667 9 59 17c22 9.33301 42.833 21.833 62.5 37.5s38.5 33.834 56.5 54.501
c12 13.333 20.167 27 24.5 41s6.5 26.667 6.5 38c0 17.333 -3.33301 32.666 -10 45.999c5.33301 0.666992 10.333 1.16699 15 1.5s8.66699 1.16602 12 2.49902c8.66699 3.33301 15 8.5 19 15.5s6 14.167 6 21.5zM397 103c-11.333 -14.667 -24.332 -28 -38.999 -40
s-30 -21.333 -46 -28c-10.667 -4 -22.334 -7.33301 -35.001 -10s-27.334 -4 -44.001 -4h-8c-19.333 0 -33.666 6.33301 -42.999 19c-4.66699 6.66699 -7 16.667 -7 30c0 7.33301 1 17 3 29c4 22.667 12.833 43.167 26.5 61.5s26.5 31.833 38.5 40.5l2 1
c0.666992 0 1.66699 0.333008 3 1c1.33301 0 2.33301 0.333008 3 1c1.33301 -10 8 -17.833 20 -23.5s26.667 -8.5 44 -8.5h69c15.333 -11.333 23 -25.333 23 -42c0 -10.667 -3.33301 -19.667 -10 -27z" />
    <glyph glyph-name="p" unicode="p" horiz-adv-x="498" 
d="M505 177l0.000976562 2.00195c0 21.333 -6.83301 42.166 -20.5 62.499s-35.834 37.5 -66.501 51.5c-40.667 20 -88.167 37.5 -142.5 52.5s-115.833 24.167 -184.5 27.5h-2c-17.333 0 -30.166 -5.16699 -38.499 -15.5s-12.5 -21.833 -12.5 -34.5c0 -8 3 -15.833 9 -23.5
s15.667 -14.167 29 -19.5c1.33301 -0.666992 4.66602 -1 9.99902 -1c4 0 7.66699 -0.333008 11 -1h17c-0.666992 -3.33301 -1 -6.33301 -1 -9v-9l-17 -228.5c-6 -83.667 -9 -168.834 -9 -255.501v-44c0 -7.33301 0.166992 -15 0.5 -23s1.16602 -14.667 2.49902 -20v2
c2 -15.333 7.33301 -26.5 16 -33.5s18.334 -10.5 29.001 -10.5c15.333 0 29 6.33301 41 19c7.33301 6.66699 12.5 14.834 15.5 24.501s4.5 18.167 4.5 25.5v4c-1.33301 7.33301 -3.33301 13.833 -6 19.5s-6.66699 10.5 -12 14.5v36c0 34.667 0.666992 71.334 2 110.001
s3.33301 78 6 118c3.33301 -8.66699 9.33301 -15.834 18 -21.501s19.667 -8.83398 33 -9.50098c8.66699 0 18.5 1.5 29.5 4.5s21.833 6.83301 32.5 11.5s20.667 9.5 30 14.5l23 12.5c9.33301 6 17 10.5 23 13.5l15 7.5c4 2 7.83301 3.5 11.5 4.5s7.5 2.5 11.5 4.5l9 4.5
l7 3.5c25.333 13.333 44.333 29.5 57 48.5s19 39.167 19 60.5zM205.001 269.002c15.333 -2.66699 31.167 -6.33105 47.5 -10.998s32 -9.66699 47 -15s28.667 -10.5 41 -15.5s22.166 -9.5 29.499 -13.5c24 -10.667 36 -22.667 36 -36c0 -10.667 -9 -21.334 -27 -32.001
c-8.66699 -4.66699 -17.667 -9 -27 -13l-21 -8c-6.66699 -2.66699 -11.667 -5.33398 -15 -8.00098c-10 -6 -20.667 -11.833 -32 -17.5s-19.666 -9.16699 -24.999 -10.5c-3.33301 1.33301 -6.66602 2 -9.99902 2h-8c-13.333 0 -25.333 -4 -36 -12
c-8.66699 -10 -14.334 -18 -17.001 -24l8 109c2.66699 36 5.66699 71 9 105z" />
    <glyph glyph-name="q" unicode="q" horiz-adv-x="525" 
d="M486 119c3.33301 7.33301 4.99805 14.6738 4.99805 22.0068c0 9.33301 -2.16699 17.333 -6.5 24s-9.5 12.667 -15.5 18c-12 8.66699 -24 13 -36 13c-2 0 -4.5 -0.333008 -7.5 -1s-6.16699 -1.33398 -9.5 -2.00098c-10.667 -3.33301 -23 -8.66602 -37 -15.999
s-29 -15.666 -45 -24.999l-49 -30l-48 -31c-3.33301 -2.66699 -6.83301 -5.16699 -10.5 -7.5l-10.5 -6.5c-8.66699 -6.66699 -16 -10 -22 -10c-4 0 -7 1 -9 3s-3.83301 4.5 -5.5 7.5s-2.5 6.83301 -2.5 11.5c0 3.33301 0.333008 6 1 8
c1.33301 18.667 4.66602 35.5 9.99902 50.5s13.333 31.167 24 48.5c6 10.667 13.833 21.5 23.5 32.5s20.167 21.667 31.5 32s23 19.666 35 27.999s23.667 15.166 35 20.499c6.66699 2.66699 12.167 4.66699 16.5 6s8.5 2 12.5 2c5.33301 0 9.66602 -1.66699 12.999 -5
c10.667 -7.33301 21 -11 31 -11c8.66699 0 18.334 3.66699 29.001 11c4 4 7.66699 9.16699 11 15.5s5 13.166 5 20.499s-3 16.666 -9 27.999c-16 26 -39.333 39 -70 39c-28.667 0 -57 -8.33301 -85 -25c-28 -14 -56 -33.333 -84 -58s-52.333 -54 -73 -88
c-13.333 -21.333 -24.666 -46.166 -33.999 -74.499s-15 -57.833 -17 -88.5v-10c0 -36.667 9.66699 -64.334 29 -83.001c18.667 -15.333 39 -23 61 -23c10.667 0 22.167 1.83301 34.5 5.5s25.166 9.16699 38.499 16.5l30.5 19l30.5 19l39 24.5
c11.333 7 19.666 11.833 24.999 14.5l0.5 0.5c0.333008 0.333008 0.833008 0.5 1.5 0.5c-0.666992 -0.666992 -1 -1.33398 -1 -2.00098s-0.333008 -1.33398 -1 -2.00098c-5.33301 -15.333 -10.666 -34.333 -15.999 -57s-10.166 -46.334 -14.499 -71.001
s-8 -49.334 -11 -74.001s-4.5 -47 -4.5 -67v-15c0 -5.33301 0.333008 -10 1 -14c2 -20 7.83301 -38.5 17.5 -55.5s26.167 -26.167 49.5 -27.5h3c14.667 0 26.334 5.5 35.001 16.5s13 23.167 13 36.5v2c0 9.33301 -2.66699 17.5 -8 24.5s-11 12.5 -17 16.5
c-1.33301 3.33301 -2 7 -2 11v10c0 18 1.83301 40.5 5.5 67.5s8.83398 55.5 15.501 85.5s14 59.833 22 89.5s16.667 56.167 26 79.5z" />
    <glyph glyph-name="r" unicode="r" horiz-adv-x="454" 
d="M490 197l-0.995117 0.00585938c6 8.66699 9 18.667 9 30c0 13.333 -5.66699 24.333 -17 33c-5.33301 4 -13.333 8 -24 12s-22.667 6 -36 6h-4c-15.333 -0.666992 -32.5 -3.66699 -51.5 -9s-38.333 -11.833 -58 -19.5s-38.834 -16.334 -57.501 -26.001
s-35 -19.5 -49 -29.5c-2 -0.666992 -3.66699 -1.66699 -5 -3s-2.33301 -2.16602 -3 -2.49902l-3 -1.5c0.666992 10 1.66699 21 3 33s3 21.667 5 29c0 1.33301 0.166992 2.66602 0.5 3.99902s0.5 2.66602 0.5 3.99902c0 9.33301 -3 17.166 -9 23.499s-12.667 10.833 -20 13.5
c-4 0 -7.66699 0.333008 -11 1s-5.66602 1 -6.99902 1c-8 0 -15.5 -1.83301 -22.5 -5.5s-12.167 -10.167 -15.5 -19.5v1c-4.66699 -12 -10 -23 -16 -33c-3.33301 -4.66699 -5 -9.33398 -5 -14.001c0 -7.33301 2.66699 -12.666 8 -15.999
c-1.33301 -10.667 -2.33301 -22.834 -3 -36.501s-1 -28.167 -1 -43.5v-46v-23c0 -6.66699 0.333008 -13.334 1 -20.001c0.666992 -15.333 5.5 -26.833 14.5 -34.5s19.167 -11.5 30.5 -11.5s21.333 3.5 30 10.5s13.667 17.833 15 32.5v-1
c1.33301 8.66699 2.66602 16.5 3.99902 23.5s4.66602 14.833 9.99902 23.5c7.33301 12 20.666 24 39.999 36c12.667 8 26.5 16 41.5 24s29.667 15.167 44 21.5s28.166 11.5 41.499 15.5s24.666 6.66699 33.999 8c1.33301 0.666992 3 1 5 1h6c4.66699 0 11.667 -2 21 -6h-1
c3.33301 -2.66699 7 -4.33398 11 -5.00098s7.66699 -1 11 -1c14 0 25.333 6.66699 34 20z" />
    <glyph glyph-name="s" unicode="s" horiz-adv-x="381" 
d="M427 340c6.66699 10 9.99316 19.9922 9.99316 29.9922c0 11.333 -4.33301 22 -13 32v-1c-6 8 -14.5 14.333 -25.5 19s-23.167 7 -36.5 7h-3c-19.333 -0.666992 -39.333 -3.66699 -60 -9s-40.5 -11.666 -59.5 -18.999s-37 -15.666 -54 -24.999s-31.5 -18.333 -43.5 -27h1
c-24.667 -16 -43.167 -32.667 -55.5 -50s-18.5 -34.333 -18.5 -51c0 -17.333 6 -33.666 18 -48.999s29.667 -27.666 53 -36.999c2.66699 -1.33301 4.83398 -2.33301 6.50098 -3s3.83398 -1.66699 6.50098 -3c21.333 -9.33301 40.5 -18.5 57.5 -27.5
s30.833 -18.167 41.5 -27.5c8.66699 -8.66699 13 -19 13 -31v-4c0 -9.33301 -1.16699 -18.5 -3.5 -27.5s-7.16602 -18.5 -14.499 -28.5c-10.667 -17.333 -25.5 -35.166 -44.5 -53.499s-39.167 -34.166 -60.5 -47.499c-3.33301 -2.66699 -7.66602 -4 -12.999 -4
c-4 0 -7.33301 1.33301 -10 4c-5.33301 4 -10.333 6.66699 -15 8s-9.66699 2 -15 2c-9.33301 0 -17.166 -2.33301 -23.499 -7s-11.166 -10.667 -14.499 -18c-1.33301 -4 -2.5 -8.16699 -3.5 -12.5s-1.5 -8.16602 -1.5 -11.499c0 -8.66699 2.33301 -17.334 7 -26.001
s12.667 -16 24 -22c14.667 -8 31.334 -12 50.001 -12c19.333 0 36 4.66699 50 14c33.333 18.667 61.666 39.5 84.999 62.5s43.666 47.5 60.999 73.5c9.33301 15.333 17.166 32.333 23.499 51s9.5 37.667 9.5 57c0 18.667 -3.5 37.334 -10.5 56.001s-18.5 34.667 -34.5 48
c-15.333 12 -30.166 21.667 -44.499 29l-41.5 22l-15.5 7.5l-15.5 7.5c-10.667 6 -16.667 11.333 -18 16c0.666992 6.66699 7.66699 14.667 21 24c10 7.33301 22 14.5 36 21.5s28.333 13.333 43 19s28.834 10.334 42.501 14.001s24.834 5.5 33.501 5.5
c14 -9.33301 27.667 -14 41 -14c14.667 0 26 6 34 18z" />
    <glyph glyph-name="t" unicode="t" horiz-adv-x="359" 
d="M402 266c0 19.333 -6.16699 31.8291 -18.5 37.4961s-30.166 9.16699 -53.499 10.5c-17.333 1.33301 -35.333 2.5 -54 3.5s-34 1.5 -46 1.5c0 22.667 1.33301 48 4 76s6 56.167 10 84.5s8.5 55.833 13.5 82.5s10.167 50.334 15.5 71.001l1 1
c3.33301 5.33301 6 10.5 8 15.5s3 11.5 3 19.5v3c0 11.333 -2.5 20.833 -7.5 28.5s-11.5 14.167 -19.5 19.5l1 -1c-8.66699 5.33301 -16.667 8 -24 8c-17.333 0 -30 -9 -38 -27l1 2c1.33301 1.33301 1.16602 0.5 -0.500977 -2.5s-3.16699 -5.5 -4.5 -7.5l-2 -9
c0 1.33301 -0.666992 0.5 -2 -2.5s-2.66602 -5.16699 -3.99902 -6.5c-8 -12 -12.667 -21.333 -14 -28l1 1c-1.33301 -2.66699 -2 -6.33398 -2 -11.001c0 -6.66699 1.66699 -11.667 5 -15c-5.33301 -24 -10 -49.5 -14 -76.5s-7.66699 -53.833 -11 -80.5s-6 -52.5 -8 -77.5
s-3 -47.5 -3 -67.5c-6 -0.666992 -12 -1 -18 -1h-16h-26c-15.333 -2 -26.5 -7.66699 -33.5 -17s-10.5 -19.666 -10.5 -30.999s3.5 -21.5 10.5 -30.5s17.833 -13.5 32.5 -13.5h61c0 -41.333 2 -80.666 6 -117.999s9.66699 -69.666 17 -96.999c3.33301 -14 9.5 -24 18.5 -30
s18.5 -9 28.5 -9h4c2 0 4.66699 0.666992 8 2l-1 -1c9.33301 2 17.166 6.83301 23.499 14.5s9.5 17.167 9.5 28.5v4c0 1.33301 -0.666992 3.66602 -2 6.99902l1 -1c-3.33301 12 -6.33301 25.833 -9 41.5s-5 32.334 -7 50.001s-3.66699 35.834 -5 54.501s-2 36.667 -2 54
c13.333 0 26.833 -0.166992 40.5 -0.5s26.5 -0.833008 38.5 -1.5c10 -0.666992 19.333 -1.16699 28 -1.5s16 -0.5 22 -0.5c15.333 0.666992 26.5 5.5 33.5 14.5s10.5 18.833 10.5 29.5z" />
    <glyph glyph-name="u" unicode="u" horiz-adv-x="659" 
d="M726 86c-6 16.667 -18.0039 24.998 -36.0039 24.998c-8 0 -16.333 -2.33301 -25 -7c-12.667 -7.33301 -27.5 -14 -44.5 -20s-34.5 -10 -52.5 -12c-2 0 -3.66699 -0.166992 -5 -0.5s-2.66602 -0.5 -3.99902 -0.5c-8 0 -15.167 1.66699 -21.5 5
s-11.166 9.66602 -14.499 18.999v-1c-2 6 -3.66699 13 -5 21s-2 17 -2 27c0 22 3.66699 48.667 11 80v-1c0.666992 3.33301 1 5.66602 1 6.99902v4c0 10 -3.5 18.5 -10.5 25.5s-15.167 11.5 -24.5 13.5l1 -1c-3.33301 1.33301 -6 2 -8 2h-5c-9.33301 0 -17.833 -2 -25.5 -6
s-13.834 -11 -18.501 -21c-10.667 -30 -27.834 -60.833 -51.501 -92.5s-54.5 -60.5 -92.5 -86.5c-10.667 -7.33301 -21.167 -12.833 -31.5 -16.5s-19.833 -5.5 -28.5 -5.5c-6 0 -11.667 0.666992 -17 2c-12 4 -20 12.667 -24 26c-4 12 -6 27.333 -6 46
c0 20.667 2 42.834 6 66.501s9.33301 45.167 16 64.5l-1 -1c1.33301 3.33301 2 6 2 8v8c0 11.333 -4.16699 20.5 -12.5 27.5s-17.833 10.5 -28.5 10.5c-10 0 -19.667 -2.83301 -29 -8.5s-16.666 -14.5 -21.999 -26.5c-5.33301 -15.333 -10.666 -37.166 -15.999 -65.499
s-8 -57.166 -8 -86.499c0 -14 0.833008 -28 2.5 -42s4.83398 -26.667 9.50098 -38c15.333 -41.333 43.666 -67 84.999 -77h-1c10.667 -2 23 -3 37 -3c38 0 77.667 13 119 39c14.667 9.33301 29.834 21 45.501 35s29.834 28.667 42.501 44
c1.33301 -9.33301 3.5 -17.5 6.5 -24.5s6.83301 -14.167 11.5 -21.5c10.667 -16 25.5 -27.833 44.5 -35.5s38.833 -11.5 59.5 -11.5c4 0 8 0.166992 12 0.5s8 0.833008 12 1.5c25.333 4.66699 49.333 10.834 72 18.501s41.667 16.167 57 25.5
c8.66699 5.33301 14.667 11.333 18 18s5 13.667 5 21s-1.66699 14.333 -5 21z" />
    <glyph glyph-name="v" unicode="v" horiz-adv-x="447" 
d="M470 225c0 10.667 -3.00195 20.165 -9.00195 28.498s-15.667 12.5 -29 12.5c-1.33301 0 -2.5 -0.166992 -3.5 -0.5s-2.16699 -0.5 -3.5 -0.5h-21c-6 0 -10.333 0.333008 -13 1c-4 7.33301 -9.66699 13.666 -17 18.999s-16 8 -26 8c-8 0 -15 -1.66699 -21 -5
c-24 -9.33301 -36 -25.333 -36 -48c0 -12 3 -22 9 -30c-9.33301 -25.333 -19.666 -50.666 -30.999 -75.999s-23.333 -48.666 -36 -69.999c-3.33301 -6 -6.16602 -9.83301 -8.49902 -11.5s-4.5 -2.83398 -6.5 -3.50098c-1.33301 0 -5.33301 5.33301 -12 16v-1
c-3.33301 4.66699 -6.5 10.834 -9.5 18.501s-5.5 15.167 -7.5 22.5h1c-5.33301 16 -9.66602 32.667 -12.999 50s-6.33301 34.166 -9 50.499s-4.66699 31.666 -6 45.999s-2.33301 26.5 -3 36.5c-2 16.667 -7 28.334 -15 35.001s-17 10.334 -27 11.001h-2
c-11.333 0 -21.5 -3.66699 -30.5 -11s-14.833 -18.666 -17.5 -33.999v-4c0 -0.666992 -0.666992 -2.66699 -2 -6c0 -1.33301 -0.166992 -1.83301 -0.5 -1.5s-0.666016 0.333008 -0.999023 0s-0.5 -1.5 -0.5 -3.5v-12c0 -5.33301 0.5 -10.666 1.5 -15.999
s3.16699 -9.66602 6.5 -12.999c3.33301 -26.667 7.16602 -53.5 11.499 -80.5s10.5 -52.5 18.5 -76.5c4.66699 -13.333 10 -26.666 16 -39.999s11.667 -25 17 -35c26 -42 54.333 -63 85 -63c31.333 0 60 23 86 69c13.333 23.333 26.833 50.666 40.5 81.999
s25.5 59.666 35.5 84.999c3.33301 -0.666992 6.66602 -1 9.99902 -1h10h13c4.66699 0 8.66699 0.333008 12 1c15.333 2 26.5 8.16699 33.5 18.5s10.5 21.166 10.5 32.499z" />
    <glyph glyph-name="w" unicode="w" horiz-adv-x="829" 
d="M798 79c5.33301 10 9.16406 20.166 11.4971 30.499s3.5 20.166 3.5 29.499c0 12.667 -1.83301 25.5 -5.5 38.5s-9.16699 25.5 -16.5 37.5c-5.33301 10.667 -12 21.834 -20 33.501s-16.667 22.5 -26 32.5c-0.666992 10 -3.33398 18 -8.00098 24s-10.667 11 -18 15
c-10.667 8.66699 -23 13 -37 13s-26.333 -5.33301 -37 -16c-8.66699 -8.66699 -13 -18.667 -13 -30c0 -13.333 5 -25 15 -35c0.666992 -1.33301 1.33398 -2.16602 2.00098 -2.49902s1.33398 -0.833008 2.00098 -1.5l32.5 -37.5c11 -13 20.167 -26.167 27.5 -39.5v1
c2 -5.33301 3.66699 -10.5 5 -15.5s2 -10.167 2 -15.5c0 -7.33301 -1.66699 -15.333 -5 -24c-6.66699 -14.667 -26.334 -30.334 -59.001 -47.001h1c-19.333 -8.66699 -38.333 -15.667 -57 -21s-36.667 -8 -54 -8c-12 0.666992 -22.833 2.66699 -32.5 6
s-18.5 9.33301 -26.5 18s-15.333 22.167 -22 40.5s-12 33.833 -16 46.5c-3.33301 8 -8.66602 14.5 -15.999 19.5s-15.666 7.5 -24.999 7.5c-16.667 0 -31.667 -6.33301 -45 -19l-25.5 -22.5l-30 -25l-30.5 -24c-10 -7.66699 -19.333 -13.834 -28 -18.501
c-7.33301 -5.33301 -15 -9 -23 -11s-15.333 -3 -22 -3c-5.33301 0 -10 0.666992 -14 2h1c-10 6 -15 14.333 -15 25c0.666992 14 2.83398 27.5 6.50098 40.5s8.16699 24.833 13.5 35.5s11.166 19.5 17.499 26.5s12.833 11.833 19.5 14.5c0.666992 0 1.66699 0.166992 3 0.5
s2.66602 0.5 3.99902 0.5h12c12.667 0 21.834 3.66699 27.501 11s8.83398 16 9.50098 26v2c0 11.333 -3.5 21 -10.5 29s-17.5 13 -31.5 15l1 -1c-3.33301 1.33301 -6 2 -8 2h-7h-9c-2.66699 0 -5 -0.333008 -7 -1c-18.667 -3.33301 -36.167 -11.666 -52.5 -24.999
s-30.5 -29.5 -42.5 -48.5s-21.5 -40.333 -28.5 -64s-10.5 -47.5 -10.5 -71.5c0 -20 4.16699 -37.5 12.5 -52.5s19.833 -27.5 34.5 -37.5c20 -14 44.333 -21 73 -21c33.333 0 65.666 11 96.999 33c17.333 11.333 31.833 21.666 43.5 30.999l32.5 27
c3.33301 3.33301 6.33301 5 9 5h1c3.33301 -9.33301 8.33301 -19.666 15 -30.999s14 -21 22 -29c16.667 -18 35.334 -30.667 56.001 -38s42.667 -11 66 -11c28.667 0 56 3.83301 82 11.5s49.667 16.834 71 27.501c51.333 25.333 85.333 55 102 89z" />
    <glyph glyph-name="x" unicode="x" horiz-adv-x="511" 
d="M494 60c-7.33301 0 -15.998 -2.33301 -25.998 -7c-3.33301 -2 -7 -3.33301 -11 -4s-8 -1 -12 -1c-16 0 -32.333 6.66699 -49 20c-11.333 8.66699 -23 19.667 -35 33s-24.333 28.666 -37 45.999l58.5 45l58.5 42c13.333 9.33301 25.833 18.5 37.5 27.5l33.5 25.5
c7.33301 6 12.333 12.167 15 18.5s4 12.5 4 18.5c0 12 -3.66699 21.667 -11 29v-1c-4.66699 5.33301 -9.83398 10 -15.501 14s-12.167 6 -19.5 6c-4 0 -8.33301 -0.666992 -13 -2s-9.33398 -4 -14.001 -8h1l-61 -46.5l-69 -51.5l-28.5 -21l-26.5 -20
c-3.33301 4.66699 -7 10.334 -11 17.001l-12 21l-18.5 29.5c-6.33301 9.66699 -12.166 18.167 -17.499 25.5c-11.333 11.333 -23.333 17 -36 17c-13.333 0 -25 -4.83301 -35 -14.5s-15.667 -21.167 -17 -34.5v-5c0 -6 0.166992 -12.333 0.5 -19s2.16602 -12.667 5.49902 -18
c6.66699 -10 17.334 -15.667 32.001 -17c3.33301 -4.66699 7.16602 -10.834 11.499 -18.501l14.5 -25.5l4.5 -6.5l5.5 -7.5l-73.5 -57l-59.5 -46c-18 -14 -34.333 -27.333 -49 -40l-42 -37c-13.333 -13.333 -20 -28 -20 -44c0 -13.333 4.5 -25 13.5 -35s21.167 -15 36.5 -15
c6 0 10.333 0.333008 13 1c11.333 3.33301 20.833 9.5 28.5 18.5s12.167 18.167 13.5 27.5l96.5 80c33 26.667 63.833 50.334 92.5 71.001c14.667 -18 29.334 -34.833 44.001 -50.5s29.667 -30.167 45 -43.5c17.333 -14 35 -24.167 53 -30.5s35.667 -9.5 53 -9.5
c12.667 0 24.667 1.5 36 4.5s21.666 7.16699 30.999 12.5s15.666 11.333 18.999 18s5 13.667 5 21c0 10.667 -3 20 -9 28c-7.33301 12.667 -18.666 19 -33.999 19z" />
    <glyph glyph-name="y" unicode="y" horiz-adv-x="622" 
d="M568 254c-2 15.333 -6.66797 27.3359 -14.001 36.0029s-15.666 15 -24.999 19c-7.33301 2.66699 -14.666 4 -21.999 4c-18.667 0 -34 -6.33301 -46 -19l-56.5 -53.5l-62 -56c-21 -18.333 -41.833 -35.666 -62.5 -51.999s-40.334 -30.5 -59.001 -42.5
c-13.333 -9.33301 -25 -14 -35 -14c-1.33301 0 -2.83301 0.333008 -4.5 1s-3.16699 1.33398 -4.5 2.00098c-2 2 -4 4.66699 -6 8s-3 7.66602 -3 12.999c0 8.66699 1.83301 18.5 5.5 29.5s8.16699 22.167 13.5 33.5s11.166 22 17.499 32s12.166 18.667 17.499 26
c9.33301 12.667 14 23.667 14 33c0 8 -2.33301 15.167 -7 21.5s-10.667 11.833 -18 16.5c-5.33301 3.33301 -13 5 -23 5c-15.333 0 -28.666 -7 -39.999 -21v1c-7.33301 -8.66699 -15.5 -20.334 -24.5 -35.001s-17.333 -30.667 -25 -48s-14 -35.333 -19 -54
s-7.5 -36 -7.5 -52c0.666992 -22.667 5 -40.834 13 -54.501s16.667 -24.167 26 -31.5c10 -8 20 -13.667 30 -17s20.667 -5 32 -5c30 0 61.667 11 95 33c14.667 9.33301 30.834 20.833 48.501 34.5l52.5 42.5l50 43l40 36c1.33301 2 3.33301 3.5 6 4.5s5 1.5 7 1.5
c1.33301 0 2 -1 2 -3v-4c-0.666992 -30 -2.16699 -63.5 -4.5 -100.5s-5.33301 -74.833 -9 -113.5s-8.33398 -76.667 -14.001 -114s-12.5 -71 -20.5 -101c-0.666992 -2.66699 -1.16699 -4.83398 -1.5 -6.50098s-0.5 -4.16699 -0.5 -7.5c0 -12.667 3.66699 -22.667 11 -30
s16 -12 26 -14v1c3.33301 -1.33301 6.66602 -2 9.99902 -2c10.667 0 20.334 3.5 29.001 10.5s14.334 17.167 17.001 30.5c8 36.667 15.333 76.5 22 119.5s12.167 85.833 16.5 128.5s7.83301 83.667 10.5 123s4 73.666 4 102.999c0 12 -0.166992 23 -0.5 33
s-0.833008 18.667 -1.5 26z" />
    <glyph glyph-name="z" unicode="z" horiz-adv-x="430" 
d="M486 40l1 -1.00098c-2 8.66699 -6.5 16.167 -13.5 22.5s-15.833 9.5 -26.5 9.5c-3.33301 0 -6.16602 -0.166992 -8.49902 -0.5s-4.5 -0.833008 -6.5 -1.5c-14 -4 -29.833 -7.66699 -47.5 -11s-35.834 -6.16602 -54.501 -8.49902s-37 -4.16602 -55 -5.49902s-34 -2 -48 -2
h-14c-4.66699 0 -9 0.333008 -13 1c-1.33301 0.666992 -2.66602 1 -3.99902 1h-1c0 1.33301 1 2.66602 3 3.99902c13.333 17.333 28.333 34 45 50s32.667 30.667 48 44c5.33301 4 10 7.66699 14 11l12 10c30 30 45 57.667 45 83c0 8.66699 -2 17 -6 25
c-13.333 31.333 -44 47 -92 47h-24c-9.33301 0 -19.166 0.166992 -29.499 0.5l-30 1c-9.66699 0.333008 -18.5 0.833008 -26.5 1.5c-9.33301 6 -18.666 9 -27.999 9c-8.66699 0 -18.667 -3.33301 -30 -10v1c-14.667 -8.66699 -22 -21 -22 -37
c0 -11.333 4.16699 -21.5 12.5 -30.5s19.833 -14.5 34.5 -16.5c6 -0.666992 13.333 -1.16699 22 -1.5s18.167 -0.666016 28.5 -0.999023l32 -1c11 -0.333008 21.5 -0.5 31.5 -0.5c9.33301 0 14 -0.666992 14 -2c0.666992 -1.33301 1 -2.33301 1 -3
c0 -4.66699 -4 -10.334 -12 -17.001v1c-4 -3.33301 -8.16699 -7.16602 -12.5 -11.499l-13.5 -13.5l-58.5 -53.5c-21.667 -20.333 -41.5 -42.166 -59.5 -65.499c-8 -9.33301 -13.5 -18.333 -16.5 -27s-4.5 -17 -4.5 -25c0 -3.33301 0.166992 -6.5 0.5 -9.5
s1.16602 -6.16699 2.49902 -9.5v1c7.33301 -22.667 25 -36.667 53 -42c9.33301 -1.33301 20.166 -2.33301 32.499 -3s25.166 -1 38.499 -1c22 0 45.333 1 70 3s48.667 4.66699 72 8s45 7 65 11s36.333 8.33301 49 13v-1c11.333 3.33301 19.5 9.16602 24.5 17.499
s7.5 16.833 7.5 25.5v4c0 1.33301 -0.666992 3.66602 -2 6.99902z" />
    <glyph glyph-name="braceleft" unicode="{" horiz-adv-x="253" 
d="M217 800l-0.00292969 0.996094c-18 -5.33301 -34.333 -13.5 -49 -24.5s-27.5 -24.167 -38.5 -39.5s-19.5 -32 -25.5 -50s-9 -36.667 -9 -56c0 -8.66699 0.666992 -17 2 -25s3 -16 5 -24c0 -10.667 0.833008 -21.5 2.5 -32.5s3.83398 -21.833 6.50098 -32.5
c2 -12 3.83301 -24 5.5 -36s2.5 -22.667 2.5 -32c0 -10 -1.16699 -19.167 -3.5 -27.5s-6.16602 -16.166 -11.499 -23.499c-2 -2 -4 -4.16699 -6 -6.5s-4.33301 -4.5 -7 -6.5c-5.33301 -5.33301 -10.5 -9.83301 -15.5 -13.5s-10.833 -5.83398 -17.5 -6.50098
c-13.333 -2 -23.166 -7.5 -29.499 -16.5s-9.5 -19.167 -9.5 -30.5c0 -6 1 -12 3 -18s5.33301 -11.667 10 -17c5.33301 -7.33301 10.666 -12.5 15.999 -15.5l17 -9.5l6 -3c2 -5.33301 3.83301 -10.666 5.5 -15.999s3.5 -10.666 5.5 -15.999h-1
c7.33301 -22.667 13.666 -45.334 18.999 -68.001s8 -44.667 8 -66c0 -6 -0.333008 -12.5 -1 -19.5s-2 -14.833 -4 -23.5c3.33301 -9.33301 5.5 -18.5 6.5 -27.5s1.5 -18.167 1.5 -27.5c0 -15.333 0.333008 -31 1 -47s2.66699 -31.167 6 -45.5s8.5 -27.666 15.5 -39.999
s17.167 -22.5 30.5 -30.5c10 -3.33301 19 -5.66602 27 -6.99902s16 -2 24 -2c12.667 0 25 1 37 3s23.667 4.33301 35 7c14 3.33301 24 9.5 30 18.5s9 18.833 9 29.5c0 12 -4.16699 23.167 -12.5 33.5s-19.5 15.5 -33.5 15.5c-4.66699 0 -8.66699 -0.333008 -12 -1
c-1.33301 -0.666992 -3 -1 -5 -1s-3.66699 -0.333008 -5 -1l1 1l-21.5 -4c-7 -1.33301 -13.833 -2 -20.5 -2h-5c-3.33301 21.333 -5.5 42.666 -6.5 63.999s-1.83301 42.666 -2.5 63.999c-1.33301 38 -3.66602 75.167 -6.99902 111.5s-13.333 72.5 -30 108.5v-1
c-2 7.33301 -3.83301 14.833 -5.5 22.5s-4.83398 15.167 -9.50098 22.5l1 1c0.666992 0 1.33398 0.333008 2.00098 1c5.33301 5.33301 10.833 10 16.5 14l15.5 11c10.667 17.333 17.834 34.333 21.501 51s5.5 33.334 5.5 50.001c0 15.333 -1 30.5 -3 45.5l-6 44.5
c-2.66699 15.333 -5.16699 30.5 -7.5 45.5s-3.5 29.167 -3.5 42.5c0 11.333 1 22.333 3 33s5.66699 21.334 11 32.001c7.33301 7.33301 14.333 13.333 21 18s13.667 8.33398 21 11.001c11.333 4 19.5 10 24.5 18s7.5 16.667 7.5 26c0 12 -4.33301 23.333 -13 34
s-19.667 16 -33 16c-6 0 -12 -1.33301 -18 -4z" />
    <glyph glyph-name="bar" unicode="|" horiz-adv-x="259" 
d="M135 714c-6.66699 -12.667 -11.8301 -33.335 -15.4971 -62.002s-6.33398 -62.334 -8.00098 -101.001s-2.66699 -81.167 -3 -127.5s-0.5 -93.166 -0.5 -140.499v-176c0 -29.333 -0.166992 -57.166 -0.5 -83.499s-0.833008 -50 -1.5 -71s-1.83398 -39.167 -3.50098 -54.5
s-3.83398 -26.333 -6.50098 -33c-3.33301 -11.333 -5 -18.666 -5 -21.999c0 -7.33301 1.83301 -13 5.5 -17s8.83398 -8 15.501 -12c4.66699 -2 9.33398 -3 14.001 -3c12 0 21.667 7 29 21c10.667 16.667 17.5 48.334 20.5 95.001s4.5 101.667 4.5 165
c0 24 -0.166992 49 -0.5 75s-0.833008 52.333 -1.5 79c0 28 -0.166992 55.333 -0.5 82s-0.5 53.667 -0.5 81c0 44 0.5 86 1.5 126s3.16699 76 6.5 108c5.33301 10 10.166 19.5 14.499 28.5s6.83301 17.5 7.5 25.5c0 2 0.166992 4.16699 0.5 6.5s0.5 4.5 0.5 6.5
c0 11.333 -1.83301 19.666 -5.5 24.999s-8.5 10.333 -14.5 15c-6.66699 2.66699 -10.667 4 -12 4c-7.33301 0 -14.333 -3.66699 -21 -11s-13.334 -17 -20.001 -29z" />
    <glyph glyph-name="braceright" unicode="}" horiz-adv-x="280" 
d="M78 801l-0.000976562 -0.999023c-7.33301 2.66699 -13.333 4 -18 4c-13.333 0 -24.333 -5.33301 -33 -16s-13 -22 -13 -34c0 -9.33301 2.5 -18 7.5 -26s13.167 -14 24.5 -18c7.33301 -2.66699 14.166 -6.33398 20.499 -11.001s13.166 -10.667 20.499 -18
c5.33301 -10 8.83301 -20.333 10.5 -31s2.5 -21.667 2.5 -33c0 -13.333 -1 -27.5 -3 -42.5s-4.33301 -30.167 -7 -45.5s-5 -30.5 -7 -45.5s-3 -30.167 -3 -45.5c0 -17.333 1.83301 -34.333 5.5 -51s11.167 -33 22.5 -49l15.5 -11.5
c5.66699 -4.33301 11.5 -9.16602 17.5 -14.499l2 -2c-4.66699 -7.33301 -8 -14.833 -10 -22.5s-3.66699 -15.5 -5 -23.5c-16 -36 -25.667 -72 -29 -108s-5.66602 -72.667 -6.99902 -110c-0.666992 -21.333 -1.66699 -42.666 -3 -63.999s-3.66602 -42.666 -6.99902 -63.999
h-4c-6.66699 0 -13.5 0.666992 -20.5 2l-21.5 4l1 -1c-1.33301 0.666992 -3.33301 1 -6 1c-2 0 -3.66699 0.333008 -5 1c-3.33301 0.666992 -5.66602 1 -6.99902 1h-4c-14.667 0 -26.167 -5.16699 -34.5 -15.5s-12.5 -21.5 -12.5 -33.5c0 -10.667 3.33301 -20.5 10 -29.5
s16.667 -15.167 30 -18.5c11.333 -2.66699 22.833 -5 34.5 -7s24.167 -3 37.5 -3c8 0 16 0.666992 24 2s17 3.66602 27 6.99902c12.667 8 22.667 18.167 30 30.5s12.666 25.666 15.999 39.999s5.33301 29.5 6 45.5s1 31.667 1 47c0 9.33301 0.5 18.5 1.5 27.5
s3.16699 18.167 6.5 27.5c-2 8.66699 -3.33301 16.5 -4 23.5s-1 13.5 -1 19.5c0 21.333 2.66699 43.333 8 66s11.666 45.334 18.999 68.001h-1c1.33301 5.33301 3 10.666 5 15.999s3.66699 10.666 5 15.999c0.666992 0.666992 3 1.66699 7 3
c5.33301 3.33301 10.833 6.5 16.5 9.5s11.167 8.16699 16.5 15.5c8.66699 10.667 13 22.334 13 35.001c0 11.333 -3.16699 21.5 -9.5 30.5s-16.166 14.5 -29.499 16.5c-7.33301 0.666992 -13.5 2.83398 -18.5 6.50098s-10.167 8.16699 -15.5 13.5
c-2.66699 2 -5 4.16699 -7 6.5s-4 4.5 -6 6.5c-6 7.33301 -10 15.166 -12 23.499s-3 17.833 -3 28.5c0 10 0.833008 20.833 2.5 32.5s3.83398 23.5 6.50098 35.5c2.66699 10.667 4.66699 21.5 6 32.5s2.33301 21.5 3 31.5c4 16 6 32.333 6 49c0 18.667 -3 37.167 -9 55.5
s-14.167 35 -24.5 50s-23 28.167 -38 39.5s-31.5 19.666 -49.5 24.999z" />
    <glyph glyph-name="asciitilde" unicode="~" horiz-adv-x="351" 
d="M362 377l-1.00195 -0.000976562c0.666992 3.33301 1 6.33301 1 9c0 14.667 -7.66699 24.334 -23 29.001c-6.66699 1.33301 -10.667 2 -12 2c-6.66699 0 -13.167 -1.66699 -19.5 -5s-11.166 -9 -14.499 -17c-2 -7.33301 -4.33301 -11 -7 -11
c-4.66699 0 -15.334 5.33301 -32.001 16c-23.333 15.333 -46.333 23 -69 23c-15.333 0 -31.166 -4.66699 -47.499 -14s-29.833 -24 -40.5 -44l1 2c-4.66699 -4.66699 -7 -10.667 -7 -18c0 -6 2 -11.333 6 -16s8.33301 -7.66699 13 -9h-1
c6.66699 -3.33301 13.334 -5 20.001 -5c12.667 0 22.667 5.66699 30 17c10.667 14.667 20.334 22 29.001 22c7.33301 0 15.666 -3.66699 24.999 -11c26.667 -19.333 52.334 -29 77.001 -29h2c15.333 0 29.166 4.5 41.499 13.5s21.833 24.167 28.5 45.5z" />
    <glyph glyph-name="Zcaron" horiz-adv-x="550" 
d="M564 491c-5.33301 14 -14.8301 25.3311 -28.4971 33.998s-32.167 13 -55.5 13h-11c-64.667 -1.33301 -124.834 -5.33301 -180.501 -12s-108.834 -16 -159.501 -28c-19.333 -5.33301 -34 -13.333 -44 -24c-12 -12 -18 -24.333 -18 -37c0 -10 2.33301 -18.667 7 -26
c4 -8 8.5 -13.333 13.5 -16s11.167 -4 18.5 -4c6.66699 0 13.834 1.33301 21.501 4s15.167 6.33398 22.5 11.001c48 11.333 94 19.833 138 25.5s92 9.83398 144 12.501c9.33301 0 14.666 -1 15.999 -3c0 -0.666992 0.166992 -1.16699 0.5 -1.5l0.5 -0.5
c0 -4 -3.66699 -9.66699 -11 -17v1l-82 -73l-87.5 -80l-88.5 -83.5l-84 -82.5c-32.667 -34 -49 -64.333 -49 -91c0 -8.66699 1.33301 -15.667 4 -21l-1 1c11.333 -32.667 45.333 -52 102 -58c18 -2 36.667 -3 56 -3c26 0 52.667 1.5 80 4.5s53.833 7.33301 79.5 13
s50 12.167 73 19.5s43.5 15 61.5 23c19.333 9.33301 29 22.666 29 39.999c0 3.33301 -0.333008 7.33301 -1 12s-2.33398 9.33398 -5.00098 14.001c-4 6.66699 -9.16699 12.334 -15.5 17.001s-14.166 7 -23.499 7c-3.33301 0 -7.33301 -0.5 -12 -1.5s-9 -2.83301 -13 -5.5
c-12.667 -6.66699 -28.334 -13.167 -47.001 -19.5s-39 -11.833 -61 -16.5s-45 -8.33398 -69 -11.001s-48 -4 -72 -4c-4.66699 0 -9 0.166992 -13 0.5s-8 0.5 -12 0.5c-7.33301 0.666992 -13 1.83398 -17 3.50098s-6.66699 3.16699 -8 4.5c0 3.33301 2 7.5 6 12.5
s9 10.167 15 15.5c26.667 28 58.667 59.167 96 93.5l113 102.5l72 64l61 57c14.667 14 25.667 28.667 33 44s11 29.666 11 42.999c0 10 -1.66699 18.667 -5 26zM188.003 668.998l1.00195 -0.000976562c9.33301 -10.667 20 -22.167 32 -34.5l29 -30.5
c8 -7.33301 17.333 -11 28 -11c7.33301 0 16 3.33301 26 10v-1c7.33301 4 14.666 8.5 21.999 13.5s15.666 10.167 24.999 15.5l26 16l27 16c11.333 8 17 18.333 17 31c0 6.66699 -2 13 -6 19c-7.33301 12.667 -18 19 -32 19c-6.66699 0 -13.334 -2 -20.001 -6
c-4.66699 -3.33301 -9.16699 -6.16602 -13.5 -8.49902s-8.83301 -5.16602 -13.5 -8.49902h1l-27.5 -16.5c-9 -5.66699 -17.167 -11.167 -24.5 -16.5v2c-3.33301 3.33301 -6.66602 6.5 -9.99902 9.5s-7.33301 6.83301 -12 11.5c-4 3.33301 -8.16699 7.33301 -12.5 12
s-8.5 8.66699 -12.5 12s-8 5.5 -12 6.5s-7.66699 1.5 -11 1.5c-9.33301 0 -17.833 -3.33301 -25.5 -10s-11.5 -15 -11.5 -25c0 -4 0.666992 -8.33301 2 -13s4 -9.33398 8 -14.001zM161.005 34.9971v-1.00098c0.666992 0 1 -0.333008 1 -1
c-0.666992 0.666992 -1 1.33398 -1 2.00098z" />
    <glyph glyph-name="Zcaron" unicode="&#x17d;" horiz-adv-x="550" 
d="M564 491c-5.33301 14 -14.8301 25.3311 -28.4971 33.998s-32.167 13 -55.5 13h-11c-64.667 -1.33301 -124.834 -5.33301 -180.501 -12s-108.834 -16 -159.501 -28c-19.333 -5.33301 -34 -13.333 -44 -24c-12 -12 -18 -24.333 -18 -37c0 -10 2.33301 -18.667 7 -26
c4 -8 8.5 -13.333 13.5 -16s11.167 -4 18.5 -4c6.66699 0 13.834 1.33301 21.501 4s15.167 6.33398 22.5 11.001c48 11.333 94 19.833 138 25.5s92 9.83398 144 12.501c9.33301 0 14.666 -1 15.999 -3c0 -0.666992 0.166992 -1.16699 0.5 -1.5l0.5 -0.5
c0 -4 -3.66699 -9.66699 -11 -17v1l-82 -73l-87.5 -80l-88.5 -83.5l-84 -82.5c-32.667 -34 -49 -64.333 -49 -91c0 -8.66699 1.33301 -15.667 4 -21l-1 1c11.333 -32.667 45.333 -52 102 -58c18 -2 36.667 -3 56 -3c26 0 52.667 1.5 80 4.5s53.833 7.33301 79.5 13
s50 12.167 73 19.5s43.5 15 61.5 23c19.333 9.33301 29 22.666 29 39.999c0 3.33301 -0.333008 7.33301 -1 12s-2.33398 9.33398 -5.00098 14.001c-4 6.66699 -9.16699 12.334 -15.5 17.001s-14.166 7 -23.499 7c-3.33301 0 -7.33301 -0.5 -12 -1.5s-9 -2.83301 -13 -5.5
c-12.667 -6.66699 -28.334 -13.167 -47.001 -19.5s-39 -11.833 -61 -16.5s-45 -8.33398 -69 -11.001s-48 -4 -72 -4c-4.66699 0 -9 0.166992 -13 0.5s-8 0.5 -12 0.5c-7.33301 0.666992 -13 1.83398 -17 3.50098s-6.66699 3.16699 -8 4.5c0 3.33301 2 7.5 6 12.5
s9 10.167 15 15.5c26.667 28 58.667 59.167 96 93.5l113 102.5l72 64l61 57c14.667 14 25.667 28.667 33 44s11 29.666 11 42.999c0 10 -1.66699 18.667 -5 26zM188.003 668.998l1.00195 -0.000976562c9.33301 -10.667 20 -22.167 32 -34.5l29 -30.5
c8 -7.33301 17.333 -11 28 -11c7.33301 0 16 3.33301 26 10v-1c7.33301 4 14.666 8.5 21.999 13.5s15.666 10.167 24.999 15.5l26 16l27 16c11.333 8 17 18.333 17 31c0 6.66699 -2 13 -6 19c-7.33301 12.667 -18 19 -32 19c-6.66699 0 -13.334 -2 -20.001 -6
c-4.66699 -3.33301 -9.16699 -6.16602 -13.5 -8.49902s-8.83301 -5.16602 -13.5 -8.49902h1l-27.5 -16.5c-9 -5.66699 -17.167 -11.167 -24.5 -16.5v2c-3.33301 3.33301 -6.66602 6.5 -9.99902 9.5s-7.33301 6.83301 -12 11.5c-4 3.33301 -8.16699 7.33301 -12.5 12
s-8.5 8.66699 -12.5 12s-8 5.5 -12 6.5s-7.66699 1.5 -11 1.5c-9.33301 0 -17.833 -3.33301 -25.5 -10s-11.5 -15 -11.5 -25c0 -4 0.666992 -8.33301 2 -13s4 -9.33398 8 -14.001zM161.005 34.9971v-1.00098c0.666992 0 1 -0.333008 1 -1
c-0.666992 0.666992 -1 1.33398 -1 2.00098z" />
    <glyph glyph-name="zcaron" horiz-adv-x="430" 
d="M486 41l1.00098 -0.999023c-2 8.66699 -6.5 16.334 -13.5 23.001s-15.833 10 -26.5 10c-3.33301 0 -6.16602 -0.166992 -8.49902 -0.5s-4.5 -0.833008 -6.5 -1.5c-14 -4.66699 -29.833 -8.66699 -47.5 -12s-35.834 -6.16602 -54.501 -8.49902s-37 -4.16602 -55 -5.49902
s-34 -2 -48 -2h-14c-4.66699 0 -9 0.333008 -13 1c-1.33301 0.666992 -2.66602 1 -3.99902 1h-1l0.5 1c0.333008 0.666992 1.16602 1.66699 2.49902 3c13.333 17.333 28.333 34.166 45 50.499s32.667 31.166 48 44.499l14 12l12 10c30 30 45 58.333 45 85
c0 8.66699 -2 17 -6 25c-13.333 32 -44 48 -92 48h-24c-9.33301 0 -19.166 0.166992 -29.499 0.5l-30 1c-9.66699 0.333008 -18.5 0.833008 -26.5 1.5c-9.33301 6 -18.666 9 -27.999 9c-8.66699 0 -18.667 -3.33301 -30 -10v1
c-7.33301 -4.66699 -12.833 -9.83398 -16.5 -15.501s-5.5 -13.167 -5.5 -22.5c0 -11.333 4.16699 -21.5 12.5 -30.5s19.833 -14.5 34.5 -16.5c6 -0.666992 13.333 -1.33398 22 -2.00098s18.167 -1.16699 28.5 -1.5l32 -1c11 -0.333008 21.5 -0.5 31.5 -0.5
c9.33301 0 14 -0.666992 14 -2c0.666992 -1.33301 1 -2.33301 1 -3c0 -3.33301 -4 -9 -12 -17v1c-4 -3.33301 -8.16699 -7.33301 -12.5 -12s-8.83301 -9 -13.5 -13c-17.333 -15.333 -36.833 -33.5 -58.5 -54.5s-41.5 -43.167 -59.5 -66.5
c-8 -9.33301 -13.5 -18.5 -16.5 -27.5s-4.5 -17.833 -4.5 -26.5c0 -3.33301 0.166992 -6.5 0.5 -9.5s1.16602 -6.16699 2.49902 -9.5v1c8 -23.333 25.667 -37.666 53 -42.999c9.33301 -1.33301 20.166 -2.33301 32.499 -3s25.166 -1 38.499 -1c22 0 45.333 1 70 3
s48.667 4.66699 72 8s45 7 65 11s36.333 8.33301 49 13v-1c11.333 3.33301 19.5 9.5 24.5 18.5s7.5 17.833 7.5 26.5v4c0 1.33301 -0.666992 3.66602 -2 6.99902zM105.001 481.001l1 -0.000976562l32 -35l29 -30c8 -7.33301 17.333 -11 28 -11c6.66699 0 15 3.33301 25 10
v-1c7.33301 4 14.666 8.5 21.999 13.5s15.333 10.167 24 15.5l26.5 16l26.5 16c11.333 8 17 18 17 30c0 7.33301 -2 13.666 -6 18.999c-7.33301 12.667 -17.666 19 -30.999 19c-7.33301 0 -14 -2 -20 -6c-4.66699 -3.33301 -9.33398 -6.16602 -14.001 -8.49902
s-9 -5.16602 -13 -8.49902h1l-27.5 -16.5l-24.5 -15.5v2c-3.33301 2.66699 -6.66602 5.5 -9.99902 8.5s-7.33301 6.83301 -12 11.5c-3.33301 4 -7.33301 8.16699 -12 12.5l-12 11.5c-4 3.33301 -8 5.5 -12 6.5s-7.66699 1.5 -11 1.5c-9.33301 0 -17.833 -3.33301 -25.5 -10
s-11.5 -15 -11.5 -25c0 -4 0.666992 -8.16699 2 -12.5s4 -8.83301 8 -13.5z" />
    <glyph glyph-name="zcaron" unicode="&#x17e;" horiz-adv-x="430" 
d="M486 41l1.00098 -0.999023c-2 8.66699 -6.5 16.334 -13.5 23.001s-15.833 10 -26.5 10c-3.33301 0 -6.16602 -0.166992 -8.49902 -0.5s-4.5 -0.833008 -6.5 -1.5c-14 -4.66699 -29.833 -8.66699 -47.5 -12s-35.834 -6.16602 -54.501 -8.49902s-37 -4.16602 -55 -5.49902
s-34 -2 -48 -2h-14c-4.66699 0 -9 0.333008 -13 1c-1.33301 0.666992 -2.66602 1 -3.99902 1h-1l0.5 1c0.333008 0.666992 1.16602 1.66699 2.49902 3c13.333 17.333 28.333 34.166 45 50.499s32.667 31.166 48 44.499l14 12l12 10c30 30 45 58.333 45 85
c0 8.66699 -2 17 -6 25c-13.333 32 -44 48 -92 48h-24c-9.33301 0 -19.166 0.166992 -29.499 0.5l-30 1c-9.66699 0.333008 -18.5 0.833008 -26.5 1.5c-9.33301 6 -18.666 9 -27.999 9c-8.66699 0 -18.667 -3.33301 -30 -10v1
c-7.33301 -4.66699 -12.833 -9.83398 -16.5 -15.501s-5.5 -13.167 -5.5 -22.5c0 -11.333 4.16699 -21.5 12.5 -30.5s19.833 -14.5 34.5 -16.5c6 -0.666992 13.333 -1.33398 22 -2.00098s18.167 -1.16699 28.5 -1.5l32 -1c11 -0.333008 21.5 -0.5 31.5 -0.5
c9.33301 0 14 -0.666992 14 -2c0.666992 -1.33301 1 -2.33301 1 -3c0 -3.33301 -4 -9 -12 -17v1c-4 -3.33301 -8.16699 -7.33301 -12.5 -12s-8.83301 -9 -13.5 -13c-17.333 -15.333 -36.833 -33.5 -58.5 -54.5s-41.5 -43.167 -59.5 -66.5
c-8 -9.33301 -13.5 -18.5 -16.5 -27.5s-4.5 -17.833 -4.5 -26.5c0 -3.33301 0.166992 -6.5 0.5 -9.5s1.16602 -6.16699 2.49902 -9.5v1c8 -23.333 25.667 -37.666 53 -42.999c9.33301 -1.33301 20.166 -2.33301 32.499 -3s25.166 -1 38.499 -1c22 0 45.333 1 70 3
s48.667 4.66699 72 8s45 7 65 11s36.333 8.33301 49 13v-1c11.333 3.33301 19.5 9.5 24.5 18.5s7.5 17.833 7.5 26.5v4c0 1.33301 -0.666992 3.66602 -2 6.99902zM105.001 481.001l1 -0.000976562l32 -35l29 -30c8 -7.33301 17.333 -11 28 -11c6.66699 0 15 3.33301 25 10
v-1c7.33301 4 14.666 8.5 21.999 13.5s15.333 10.167 24 15.5l26.5 16l26.5 16c11.333 8 17 18 17 30c0 7.33301 -2 13.666 -6 18.999c-7.33301 12.667 -17.666 19 -30.999 19c-7.33301 0 -14 -2 -20 -6c-4.66699 -3.33301 -9.33398 -6.16602 -14.001 -8.49902
s-9 -5.16602 -13 -8.49902h1l-27.5 -16.5l-24.5 -15.5v2c-3.33301 2.66699 -6.66602 5.5 -9.99902 8.5s-7.33301 6.83301 -12 11.5c-3.33301 4 -7.33301 8.16699 -12 12.5l-12 11.5c-4 3.33301 -8 5.5 -12 6.5s-7.66699 1.5 -11 1.5c-9.33301 0 -17.833 -3.33301 -25.5 -10
s-11.5 -15 -11.5 -25c0 -4 0.666992 -8.16699 2 -12.5s4 -8.83301 8 -13.5z" />
    <glyph glyph-name="exclamdown" unicode="&#xa1;" horiz-adv-x="295" 
d="M225 80v5c0 13.333 -4.16699 23.333 -12.5 30s-17.5 10 -27.5 10s-18.833 -3.16699 -26.5 -9.5s-11.834 -16.166 -12.501 -29.499c-2.66699 -27.333 -5.16699 -56.333 -7.5 -87s-4.5 -61 -6.5 -91s-3.66699 -59.167 -5 -87.5s-2.66602 -53.5 -3.99902 -75.5
c-1.33301 -3.33301 -2.66602 -7 -3.99902 -11s-2 -9.66699 -2 -17c0 -5.33301 0.166992 -11.833 0.5 -19.5s1.16602 -14.167 2.49902 -19.5v1c2 -12.667 6.66699 -22.334 14 -29.001s15 -10 23 -10c10.667 0 20 3.66699 28 11s12.667 18.333 14 33l5 67
c2 27.333 3.66699 57.333 5 90c2 38.667 4.33301 79 7 121s5.66699 81.333 9 118zM242 324c-10.667 12.667 -23.667 18.9961 -39 18.9961c-12 0 -23 -4 -33 -12c-6.66699 -5.33301 -11.667 -12.166 -15 -20.499s-5 -17.166 -5 -26.499s1.5 -18.166 4.5 -26.499
s8.16699 -16.166 15.5 -23.499c10 -8 20.667 -12 32 -12c12.667 0 24 4 34 12c14 12.667 21 28.667 21 48c0 16 -5 30 -15 42z" />
    <glyph glyph-name="cent" unicode="&#xa2;" horiz-adv-x="418" 
d="M430 210l0.99707 -0.00488281c-8 8.66699 -18.667 13 -32 13c-6.66699 0 -14 -1.33301 -22 -4c-3.33301 -1.33301 -7.66602 -4.16602 -12.999 -8.49902l-16 -13.5l-15 -11c-4.66699 -3.33301 -7.66699 -5.66602 -9 -6.99902v1
c-5.33301 -3.33301 -12.166 -6.66602 -20.499 -9.99902s-16.833 -5.66602 -25.5 -6.99902v5c0 24.667 0.833008 49.5 2.5 74.5s3.5 49.167 5.5 72.5v2h1c2.66699 -1.33301 5.5 -2.16602 8.5 -2.49902s6.16699 -0.5 9.5 -0.5c5.33301 0 10.666 0.5 15.999 1.5s10 2.5 14 4.5
c8.66699 4 15.834 10 21.501 18s8.5 16.667 8.5 26s-3 17.833 -9 25.5s-16 12.5 -30 14.5c-1.33301 0 -3 0.166992 -5 0.5s-4 0.5 -6 0.5c-3.33301 0 -6.66602 -0.166992 -9.99902 -0.5s-6.66602 -0.833008 -9.99902 -1.5l1 6
c1.33301 9.33301 2.66602 17.666 3.99902 24.999s3 15.666 5 24.999c0.666992 2 1.16699 3.66699 1.5 5s0.5 4 0.5 8c0 8.66699 -3 15.5 -9 20.5s-12.667 8.16699 -20 9.5c-1.33301 0 -2.83301 0.166992 -4.5 0.5s-3.16699 0.5 -4.5 0.5
c-9.33301 0 -17.666 -2.5 -24.999 -7.5s-12 -12.167 -14 -21.5s-4.5 -23.166 -7.5 -41.499s-5.16699 -37.5 -6.5 -57.5c-21.333 -12 -43.333 -28.667 -66 -50s-40.667 -44.666 -54 -69.999c-15.333 -27.333 -23 -52.333 -23 -75c0 -27.333 10.667 -49.666 32 -66.999
s54.333 -28 99 -32c0 -9.33301 0.666992 -19.166 2 -29.499s2.66602 -18.833 3.99902 -25.5c3.33301 -15.333 9.16602 -27 17.499 -35s18.5 -12 30.5 -12c2.66699 0 5.33398 0.166992 8.00098 0.5s6 1.16602 10 2.49902l-1 -1c8 3.33301 14.5 8.66602 19.5 15.999
s7.5 15 7.5 23c0 14.667 -6.66699 26 -20 34c-1.33301 3.33301 -2 7.33301 -2 12v18c15.333 2 30.333 6 45 12s27.667 12.667 39 20v-1c8.66699 5.33301 16.667 10.5 24 15.5s13.666 9.83301 18.999 14.5c2.66699 2 4.83398 3.83301 6.50098 5.5s3.5 3.16699 5.5 4.5
c13.333 9.33301 20 20 20 32c0 8 -3 15.667 -9 23zM206.997 265.995c-1.33301 -14.667 -2.50098 -29.499 -3.50098 -44.499s-1.5 -29.833 -1.5 -44.5v-15c-16.667 1.33301 -28.5 4.5 -35.5 9.5s-10.5 11.5 -10.5 19.5c0 6.66699 2.66699 16.334 8 29.001
c5.33301 11.333 11.833 21.666 19.5 30.999s15.834 17.666 24.501 24.999c0 -2 -0.166992 -3.83301 -0.5 -5.5s-0.5 -3.16699 -0.5 -4.5z" />
    <glyph glyph-name="sterling" unicode="&#xa3;" horiz-adv-x="529" 
d="M535 7l-1.00098 -1.00098c6 8 9 16.333 9 25c0 11.333 -4.33301 20.333 -13 27s-18.334 10 -29.001 10c-6 0 -12 -1.33301 -18 -4s-11.333 -7 -16 -13c-7.33301 -8.66699 -20.5 -14.834 -39.5 -18.501s-39.833 -5.5 -62.5 -5.5h-13c-3.33301 0 -7.33301 0.333008 -12 1
c1.33301 5.33301 2 9.33301 2 12c0 8 -1.66699 16.333 -5 25s-7.66602 17 -12.999 25l-8.5 11c-3 4 -6.16699 8.66699 -9.5 14l-23 35c13.333 0 26.5 0.333008 39.5 1l37.5 2h38c12 0 21.5 4 28.5 12s10.5 17 10.5 27c0 8 -3.16699 16.5 -9.5 25.5
s-16.166 13.5 -29.499 13.5c-11.333 0 -23.333 -0.166992 -36 -0.5s-25.667 -0.833008 -39 -1.5l-42 -2c-14 -0.666992 -27.667 -1 -41 -1c-22 38.667 -33 71.334 -33 98.001c0 13.333 4.33301 25.666 13 36.999s21.667 21 39 29c16.667 6.66699 34 11.667 52 15
s34.667 5 50 5c3.33301 0 6.66602 -0.166992 9.99902 -0.5s6.66602 -0.833008 9.99902 -1.5c0.666992 -4 2 -8 4 -12s5.66699 -7.33301 11 -10c10 -6 20.667 -10.5 32 -13.5s22.333 -4.83301 33 -5.5c6.66699 0 12.334 1.16699 17.001 3.5s9.33398 5.5 14.001 9.5
c8 8.66699 12 18.334 12 29.001c0 4.66699 -2 11.667 -6 21c-6 12.667 -17.5 23.834 -34.5 33.501s-34.5 16.5 -52.5 20.5c-12 2 -27 3 -45 3c-23.333 0 -47.833 -2.83301 -73.5 -8.5s-48.167 -12.5 -67.5 -20.5c-37.333 -17.333 -63.166 -38 -77.499 -62
s-21.5 -49.667 -21.5 -77c0 -33.333 8 -65.333 24 -96c-4.66699 0 -8.5 -0.333008 -11.5 -1s-6.16699 -1.66699 -9.5 -3c-8.66699 -3.33301 -14.5 -7.83301 -17.5 -13.5s-4.5 -12.167 -4.5 -19.5c0 -10.667 3.66699 -19.5 11 -26.5s16.666 -10.833 27.999 -11.5h42
c5.33301 -9.33301 11.5 -18.833 18.5 -28.5l21.5 -28.5c5.33301 -7.33301 9.83301 -14.166 13.5 -20.499s6.83398 -11.5 9.50098 -15.5c1.33301 -3.33301 2.66602 -6.5 3.99902 -9.5s2 -5.83301 2 -8.5s-0.666992 -4.66699 -2 -6c-19.333 1.33301 -40.166 3.5 -62.499 6.5
s-42.833 5.5 -61.5 7.5c-4.66699 0.666992 -9 1 -13 1c-3.33301 0 -6.66602 0.333008 -9.99902 1c-2 1.33301 -4 2 -6 2h-4c-14 0 -25 -5.66699 -33 -17c-4 -5.33301 -6 -12 -6 -20c0 -10 4 -18.667 12 -26v1c16 -17.333 35.833 -30.666 59.5 -39.999s47.834 -14 72.501 -14
c13.333 0 26.833 1.5 40.5 4.5s26.5 8.16699 38.5 15.5c1.33301 0 2.66602 -0.166992 3.99902 -0.5s2.66602 -0.5 3.99902 -0.5c9.33301 -0.666992 19.666 -1.16699 30.999 -1.5s23.333 -0.5 36 -0.5c16.667 0 34.167 0.666992 52.5 2s35.5 4.16602 51.5 8.49902
s30.5 10.166 43.5 17.499s23.167 17 30.5 29z" />
    <glyph glyph-name="yen" unicode="&#xa5;" horiz-adv-x="512" 
d="M348 106l0.00390625 2.00098c0 9.33301 -2.83301 17.666 -8.5 24.999s-13.834 11 -24.501 11h-6c-4 -0.666992 -8.33301 -1.16699 -13 -1.5s-9.66699 -0.5 -15 -0.5c-3.33301 0 -7.33301 0.166992 -12 0.5s-9.66699 0.5 -15 0.5h-1c2.66699 4 5 7.66699 7 11l6 10
c4 1.33301 6.66699 2.66602 8 3.99902c4.66699 0 9.33398 -0.166992 14.001 -0.5s8.66699 -0.5 12 -0.5c17.333 0 32 1 44 3c11.333 2 19.833 6.83301 25.5 14.5s8.5 15.167 8.5 22.5v2c0 9.33301 -2.83301 17.666 -8.5 24.999s-13.834 11 -24.501 11h-6
c-4 -0.666992 -8.66699 -1 -14 -1h-16l18 32c4 7.33301 7.5 13.333 10.5 18l7.5 11.5l9 13.5c1.33301 2.66699 3 5 5 7l17.5 26l27.5 42c13.333 20.667 27.666 40.834 42.999 60.501l44 54.5c9.33301 11.333 14 21.666 14 30.999c0 11.333 -4.83301 21.5 -14.5 30.5
s-20.834 13.5 -33.501 13.5c-13.333 0 -25.666 -5.33301 -36.999 -16l-46 -58.5c-15.333 -20.333 -30.666 -42.166 -45.999 -65.499l-32.5 -48.5l-20 -30c-5 -7.66699 -8.83301 -13.834 -11.5 -18.501l-8 -14l-6.5 -11l-8.5 -14c-17.333 33.333 -29.833 62.833 -37.5 88.5
l-21.5 73.5l-10.5 36.5c-3.66699 12.333 -7.83398 24.833 -12.501 37.5c-3.33301 10 -8.5 17.333 -15.5 22s-14.5 7 -22.5 7c-12 0 -23.167 -4.16699 -33.5 -12.5s-15.5 -18.166 -15.5 -29.499c0 -3.33301 1 -7 3 -11h-1l6 -21c2 -6.66699 3.66699 -14 5 -22
c7.33301 -30.667 16.666 -64.5 27.999 -101.5s30 -79.5 56 -127.5c-2.66699 0 -5.33398 0.166992 -8.00098 0.5s-5 0.5 -7 0.5c-11.333 0 -21.333 -0.333008 -30 -1s-15.667 -1.66699 -21 -3h1c-11.333 -2.66699 -21 -7.83398 -29 -15.501s-13 -17.167 -15 -28.5
c0 -1.33301 -0.166992 -2.66602 -0.5 -3.99902s-0.5 -2.33301 -0.5 -3c0 -13.333 4.66699 -23.666 14 -30.999v1c6.66699 -6.66699 15 -10 25 -10c6.66699 0 12.667 1.66699 18 5h-1l5 2.5c2 1 3.66699 2.16699 5 3.5c4 2.66699 7 4 9 4c3.33301 0.666992 7.33301 1 12 1h16
h1l-4 -6c-1.33301 -3.33301 -2.83301 -6.33301 -4.5 -9s-3.5 -5.33398 -5.5 -8.00098c-4.66699 0 -9.16699 0.166992 -13.5 0.5s-8.5 0.5 -12.5 0.5c-11.333 0 -21.166 -0.333008 -29.499 -1s-15.166 -1.66699 -20.499 -3h1c-11.333 -2.66699 -20.833 -7.66699 -28.5 -15
s-12.834 -16.666 -15.501 -27.999c0 -1.33301 -0.166992 -2.66602 -0.5 -3.99902s-0.5 -2.66602 -0.5 -3.99902c0 -7.33301 1.33301 -13.333 4 -18s6 -9 10 -13v1c3.33301 -3.33301 7.33301 -5.83301 12 -7.5s9 -2.5 13 -2.5c8 0 14 1.66699 18 5h-1
c2.66699 0.666992 6 3 10 7c1.33301 1.33301 2.5 2.16602 3.5 2.49902s2.16699 0.833008 3.5 1.5l-8 -14c-6 -8.66699 -9 -17.334 -9 -26.001c0 -7.33301 2 -13.666 6 -18.999s9 -10.333 15 -15c3.33301 -3.33301 7.33301 -5.66602 12 -6.99902s9.33398 -2 14.001 -2
c6 0 12.167 1.33301 18.5 4s12.5 7.66699 18.5 15c5.33301 7.33301 11.666 16.666 18.999 27.999l22 35h54c9.33301 0 18.166 0.166992 26.499 0.5s15.833 0.833008 22.5 1.5c12 2 20.833 6.66699 26.5 14s8.5 14.666 8.5 21.999z" />
    <glyph glyph-name="brokenbar" unicode="&#xa6;" horiz-adv-x="266" 
d="M145 -49c11.333 20 18.5 39.8359 21.5 59.5029s4.5 39.167 4.5 58.5c0 6 -0.166992 12.333 -0.5 19s-0.5 12.667 -0.5 18c-0.666992 6 -1 11.667 -1 17v18c0 14.667 1 29.334 3 44.001s5.66699 29.667 11 45c2.66699 6 4 11.667 4 17c0 7.33301 -1.83301 13.333 -5.5 18
s-8.83398 8.66699 -15.501 12l-8 2c-2.66699 0.666992 -4.66699 1 -6 1c-12 0 -22.333 -6.66699 -31 -20c-9.33301 -14.667 -15.5 -24.834 -18.5 -30.501s-4.5 -11.834 -4.5 -18.501v-7c0 -2 0.333008 -4.33301 1 -7c0.666992 -4.66699 1.33398 -10.667 2.00098 -18
s1 -17.333 1 -30c0 -13.333 -0.5 -30.333 -1.5 -51s-3.16699 -46.334 -6.5 -77.001c-6 -8 -11 -16.5 -15 -25.5s-6.33301 -17.5 -7 -25.5c-0.666992 -2.66699 -1 -5.33398 -1 -8.00098v-8c0 -9.33301 1.5 -16.833 4.5 -22.5s7.83301 -11.167 14.5 -16.5
c3.33301 -1.33301 6 -2.33301 8 -3s3.66699 -1 5 -1c7.33301 0 14.5 3.66699 21.5 11s13.833 17 20.5 29zM139 712.003c-10.667 -20 -17.8369 -40.1699 -21.5039 -60.5029s-5.5 -40.5 -5.5 -60.5c0 -8 0.166992 -15.833 0.5 -23.5s0.833008 -15.5 1.5 -23.5
c0.666992 -7.33301 1.16699 -14.666 1.5 -21.999s0.5 -14.666 0.5 -21.999c0 -10.667 -1.16699 -21.667 -3.5 -33s-5.16602 -22.666 -8.49902 -33.999c-2.66699 -7.33301 -4 -13.333 -4 -18c0 -7.33301 1.83301 -13 5.5 -17s8.83398 -8 15.501 -12
c4.66699 -2 9.33398 -3 14.001 -3c12 0 22.333 6.66699 31 20c9.33301 15.333 15.333 26 18 32s4 11.667 4 17s-0.333008 9.66602 -1 12.999c-1.33301 5.33301 -2.33301 12.333 -3 21s-1 20.667 -1 36c0 12.667 0.333008 28.834 1 48.501s2.33398 43.5 5.00098 71.5
c6.66699 9.33301 12 18.333 16 27s6.33301 17.334 7 26.001c0 2 0.166992 4.16699 0.5 6.5s0.5 4.5 0.5 6.5c0 11.333 -1.83301 19.666 -5.5 24.999s-8.5 10.333 -14.5 15c-6.66699 2.66699 -10.667 4 -12 4c-7.33301 0 -14.5 -3.66699 -21.5 -11s-13.833 -17 -20.5 -29z
" />
    <glyph glyph-name="section" unicode="&#xa7;" horiz-adv-x="518" 
d="M478 579c0.666992 1.33301 1.16504 2.83008 1.49805 4.49707s0.5 4.16699 0.5 7.5c0 8 -2.16699 16 -6.5 24s-10.833 14.667 -19.5 20l1 -1c-10.667 7.33301 -22.667 11 -36 11c-5.33301 0 -11.333 -0.666992 -18 -2s-12.667 -3.66602 -18 -6.99902
c-18.667 -7.33301 -36.834 -17 -54.501 -29s-34.167 -25 -49.5 -39s-29.5 -28.167 -42.5 -42.5s-23.833 -27.833 -32.5 -40.5c-26.667 -36.667 -40 -67.667 -40 -93c0 -11.333 2.33301 -23.333 7 -36c-23.333 -17.333 -44.833 -36.333 -64.5 -57s-36.167 -39.667 -49.5 -57
c-26.667 -36 -40 -67.667 -40 -95c0 -11.333 1.66699 -20.666 5 -27.999v1c13.333 -35.333 45 -54.333 95 -57c27.333 -1.33301 52.166 -3.33301 74.499 -6s40.166 -7 53.499 -13c10.667 -5.33301 18.167 -13.333 22.5 -24s6.5 -22.667 6.5 -36
c0 -4 -0.333008 -8.33301 -1 -13s-1.66699 -9.66699 -3 -15c-1.33301 -6 -4.5 -16.833 -9.5 -32.5s-11.167 -31.5 -18.5 -47.5s-15.833 -30.167 -25.5 -42.5s-19.5 -18.5 -29.5 -18.5h-5c-3.33301 0.666992 -6.33301 1.33398 -9 2.00098s-4.66699 1 -6 1
c-13.333 0 -23.5 -4.16699 -30.5 -12.5s-11.5 -18.166 -13.5 -29.499v-4c0 -11.333 4 -22.5 12 -33.5s20.667 -17.833 38 -20.5h-1c2 -0.666992 4.33301 -1 7 -1h7c15.333 0 30 3.16699 44 9.5s26.333 15.5 37 27.5h-1c25.333 28.667 45.5 58.334 60.5 89.001
s26.167 61.334 33.5 92.001c0.666992 5.33301 1.33398 10.333 2.00098 15s1.33398 9.66699 2.00098 15c21.333 7.33301 38 18 50 32c25.333 30 45.166 59.833 59.499 89.5s25.5 60.5 33.5 92.5v-1c3.33301 15.333 5 31.666 5 48.999c0 20 -3.66699 41.667 -11 65
c-6 17.333 -15.333 33.5 -28 48.5s-29 26.167 -49 33.5c-21.333 7.33301 -40.166 12.166 -56.499 14.499s-32.166 4.16602 -47.499 5.49902c-4 0 -8 0.166992 -12 0.5s-8 0.833008 -12 1.5h1c-17.333 6 -26 12.333 -26 19c0 6 3.33301 13.333 10 22
c7.33301 10.667 16.333 21.667 27 33s21.834 22.333 33.501 33s23.167 20 34.5 28s21.333 13.667 30 17c4.66699 -1.33301 9.83398 -2.33301 15.501 -3s10.167 -1 13.5 -1c12 0 21.667 3.5 29 10.5s12 15.167 14 24.5zM277.998 130.997l0.000976562 1
c-16.667 5.33301 -32.334 9.16602 -47.001 11.499s-29.334 4.16602 -44.001 5.49902c-7.33301 1.33301 -14.5 2.33301 -21.5 3s-14.5 1.66699 -22.5 3c-12 0.666992 -19.333 3 -22 7v2c0 8 4.33301 17.667 13 29c7.33301 10.667 16.333 21.667 27 33
s21.834 22.333 33.501 33s23.167 20 34.5 28s21.333 13.667 30 17c4.66699 -1.33301 9.83398 -2.16602 15.501 -2.49902s10.167 -0.5 13.5 -0.5c20.667 0 40.167 -1 58.5 -3s33.5 -5.66699 45.5 -11c10.667 -4.66699 18.334 -12.167 23.001 -22.5s7 -21.5 7 -33.5
c0 -9.33301 -1.66699 -20 -5 -32c-2 -10 -5.16699 -21 -9.5 -33s-9.5 -24 -15.5 -36s-12.833 -23.667 -20.5 -35s-15.834 -21.333 -24.501 -30c-6.66699 14 -15.834 26.833 -27.501 38.5s-25.5 20.834 -41.5 27.501z" />
    <glyph glyph-name="dieresis" unicode="&#xa8;" horiz-adv-x="349" 
d="M353 371c0 13.333 -5.5 24.833 -16.5 34.5s-23.5 14.5 -37.5 14.5c-15.333 0 -27.833 -4.83301 -37.5 -14.5s-14.5 -21.167 -14.5 -34.5c0 -14 5 -25.333 15 -34s22.667 -13 38 -13c14.667 0 27 4.33301 37 13s15.333 20 16 34zM197 371
c0 13.333 -5.16895 24.833 -15.502 34.5s-23.166 14.5 -38.499 14.5s-27.666 -4.83301 -36.999 -14.5s-14.333 -21.167 -15 -34.5c0 -14 5 -25.333 15 -34s22.667 -13 38 -13c14 0 26.333 4.66699 37 14s16 20.333 16 33z" />
    <glyph glyph-name="copyright" unicode="&#xa9;" horiz-adv-x="843" 
d="M50 163l1.00781 -1c19.333 -30 46.666 -54.5 81.999 -73.5s76.666 -30.167 123.999 -33.5c15.333 -2 32.166 -3.83301 50.499 -5.5s38.166 -2.5 59.499 -2.5c36 0 73.333 3.33301 112 10s76.667 19.334 114 38.001c20 10 40.833 22.667 62.5 38s42.5 32.333 62.5 51
c0 -0.666992 0.166992 -1.16699 0.5 -1.5l0.5 -0.5c1.33301 -4 2 -6.66699 2 -8c2 -9.33301 8.66699 -16.666 20 -21.999s22.666 -8 33.999 -8c1.33301 0 2.66602 0.166992 3.99902 0.5s2.66602 0.5 3.99902 0.5c12.667 4.66699 24.5 11.167 35.5 19.5
s16.5 22.166 16.5 41.499v8c0 6 -0.5 13 -1.5 21s-2.16699 16.5 -3.5 25.5s-2.83301 18 -4.5 27s-3.5 17.167 -5.5 24.5c3.33301 6.66699 5 13 5 19c0 12.667 -5.66699 23.667 -17 33c-6 26 -15.333 55.833 -28 89.5s-28.667 68.334 -48 104.001s-42.333 70.667 -69 105
s-57.334 65.5 -92.001 93.5c-36.667 30 -71.834 51.667 -105.501 65s-66.834 20 -99.501 20h-15c-4.66699 0 -9 -0.333008 -13 -1c-49.333 -8 -92.666 -30.333 -129.999 -67s-64.666 -84.667 -81.999 -144h1l-15 -43.5l-17 -49.5l-32 -87.5
c-10.667 -29.667 -19.667 -57.167 -27 -82.5c-5.33301 -16 -9 -31.833 -11 -47.5s-3 -30.834 -3 -45.501c0 -40.667 9.33301 -77.334 28 -110.001zM130.008 196l1.00391 -1.00098c-10 18 -15 38.667 -15 62c0 9.33301 0.833008 19.5 2.5 30.5s3.83398 22.167 6.50098 33.5
c2.66699 16 6.5 33.667 11.5 53s10.667 39.333 17 60s13.166 41.5 20.499 62.5l21 60.5l10 29l10 28c14 40.667 30.833 73.5 50.5 98.5s45.5 38.833 77.5 41.5h9c18 0 38.333 -3.83301 61 -11.5s48 -22.167 76 -43.5c30 -22 57.667 -49 83 -81s48 -65.667 68 -101
s36.833 -70.333 50.5 -105s23.5 -65.334 29.5 -92.001c-26.667 -35.333 -53.334 -64.666 -80.001 -87.999s-55.667 -41.666 -87 -54.999c-28 -14.667 -59.833 -25.5 -95.5 -32.5s-73.834 -10.5 -114.501 -10.5c-18.667 0 -37.334 0.666992 -56.001 2s-37.667 3.33301 -57 6
h1c-50.667 10.667 -84.334 28.667 -101.001 54zM686.012 372.999l-1 1c-9.33301 12.667 -21.666 19 -36.999 19c-8.66699 0 -16.667 -2.33301 -24 -7c-9.33301 -5.33301 -23.833 -12.333 -43.5 -21s-42.5 -17.167 -68.5 -25.5s-54.667 -15.5 -86 -21.5s-63 -9 -95 -9
c-23.333 0 -40.5 3.66699 -51.5 11s-16.5 16.333 -16.5 27c0 7.33301 2 15.666 6 24.999c6 12 14.333 24.167 25 36.5s22.167 23.666 34.5 33.999s25 19.5 38 27.5s25.167 13.667 36.5 17c6 -2.66699 12.167 -4.33398 18.5 -5.00098s12.166 -1 17.499 -1
c4 0 7.5 0.166992 10.5 0.5s5.83301 0.833008 8.5 1.5c13.333 2.66699 23.833 9 31.5 19s11.5 20.667 11.5 32c-0.666992 11.333 -5.16699 21.5 -13.5 30.5s-21.5 14.833 -39.5 17.5h1c-2.66699 0.666992 -5.66699 1 -9 1h-11c-15.333 0 -25.666 -0.666992 -30.999 -2
c-48 -17.333 -90.833 -41.166 -128.5 -71.499s-66.5 -62.5 -86.5 -96.5c-8.66699 -15.333 -14.834 -29.833 -18.501 -43.5s-5.5 -26.5 -5.5 -38.5c0 -34.667 14.667 -62 44 -82s70.333 -30 123 -30h8c38.667 0.666992 75.667 4.16699 111 10.5s67.5 14 96.5 23
s54.5 18.333 76.5 28s39 17.834 51 24.501c16.667 10.667 25 24.334 25 41.001c0 9.33301 -2.66699 18.333 -8 27z" />
    <glyph glyph-name="ordfeminine" unicode="&#xaa;" horiz-adv-x="472" 
d="M444 461c-6.66699 8 -14.3379 12.001 -23.0049 12.001c-3.33301 0 -8.33301 -1.66699 -15 -5c-10.667 -5.33301 -24.167 -10.666 -40.5 -15.999s-30.166 -9 -41.499 -11h-3c-10 0 -17 5.66699 -21 17c-1.33301 3.33301 -2.16602 7.5 -2.49902 12.5s-0.5 10.833 -0.5 17.5
v10c0 11.333 -3 19.833 -9 25.5s-13.667 8.5 -23 8.5c-11.333 0 -23 -3.66699 -35 -11v1c-7.33301 -4.66699 -15.833 -10.5 -25.5 -17.5s-19.5 -14.5 -29.5 -22.5l-29 -24l-25 -21l-8 -7c-5.33301 -4 -9.33301 -6 -12 -6l-1 1c-0.666992 0.666992 -1 2.66699 -1 6
c0 7.33301 1.33301 13.666 4 18.999c4.66699 10 11 20.333 19 31s16.833 21 26.5 31s19.5 19.333 29.5 28s19 15.667 27 21c18 12 33 18 45 18c8.66699 0 16.334 -2.66699 23.001 -8c6 -4 12.667 -6 20 -6c6.66699 0 12.5 1.5 17.5 4.5s9.16699 6.83301 12.5 11.5
c2.66699 4.66699 4 10 4 16c0 4 -0.833008 8.16699 -2.5 12.5s-4.83398 8.16602 -9.50098 11.499c-10 8 -19.667 13.667 -29 17s-18.666 5 -27.999 5c-17.333 0 -33.5 -4 -48.5 -12s-28.167 -15.667 -39.5 -23c-9.33301 -6 -19.666 -13.667 -30.999 -23
s-22.5 -19.666 -33.5 -30.999s-21.667 -23.5 -32 -36.5s-18.833 -26.5 -25.5 -40.5c-9.33301 -17.333 -14.666 -36.666 -15.999 -57.999c0 -23.333 6.33301 -40.333 19 -51c10.667 -8.66699 23 -13 37 -13c16 0 34.667 7 56 21l16.5 14.5
c5.66699 5 11.834 9.83301 18.501 14.5c10 9.33301 19.5 17.666 28.5 24.999s16.5 13 22.5 17l4 2c0 -7.33301 1.33301 -15.166 4 -23.499s5.66699 -14.833 9 -19.5v1c7.33301 -10.667 15.5 -18.5 24.5 -23.5s21.167 -7.5 36.5 -7.5h8c3.33301 0 6.66602 0.333008 9.99902 1
c17.333 1.33301 36 5.66602 56 12.999s37.667 15.333 53 24c10.667 6 16 15.333 16 28c0 5.33301 -2.33301 11.666 -7 18.999z" />
    <glyph glyph-name="guillemotleft" unicode="&#xab;" horiz-adv-x="347" 
d="M337 36l-1 1.00098c-10.667 15.333 -22.334 31 -35.001 47l-21.5 28c-7 8.66699 -14.167 19.667 -21.5 33c-0.666992 0.666992 -1 1.33398 -1 2.00098v2c8 13.333 18.667 28.166 32 44.499s28.666 34.166 45.999 53.499h-1c6 6 9 13.333 9 22c0 10 -4 18 -12 24
c-5.33301 5.33301 -12.333 8 -21 8c-8 0 -15.667 -3.66699 -23 -11c-7.33301 -8 -15.166 -17 -23.499 -27l-25 -30.5l-24 -31c-7.66699 -10.333 -13.834 -19.833 -18.501 -28.5c-3.33301 -4.66699 -5.66602 -9.33398 -6.99902 -14.001s-2 -9 -2 -13
c0 -9.33301 3.33301 -18.666 10 -27.999v1l20.5 -31l23.5 -33.5l23 -31.5c7.33301 -10 14 -18.333 20 -25c6.66699 -8 15.334 -12 26.001 -12c6.66699 0 12.667 2 18 6c9.33301 5.33301 14 14 14 26c0 6.66699 -1.66699 12.667 -5 18zM215 36.001l-1 1.00098l-18 24l-17 23
c-7.33301 10 -14.666 19.333 -21.999 28s-14.666 19.667 -21.999 33c-0.666992 0.666992 -1 1.33398 -1 2.00098v2c8.66699 13.333 19.667 28.166 33 44.499s28.666 34.166 45.999 53.499h-1c6 6.66699 9 14 9 22c0 10 -4 18 -12 24c-6.66699 5.33301 -13.667 8 -21 8
c-8 0 -15.667 -3.66699 -23 -11c-7.33301 -8 -15.166 -17 -23.499 -27l-25 -30.5l-24 -31c-7.66699 -10.333 -13.834 -19.833 -18.501 -28.5c-6.66699 -8.66699 -10 -17.667 -10 -27c0 -5.33301 1 -10 3 -14s4.66699 -8.66699 8 -14v1l20.5 -31l23.5 -33.5l23 -31.5
l18.999 -25c8 -8 17 -12 27 -12c6.66699 0 12.667 2 18 6c9.33301 5.33301 14 14 14 26c0 5.33301 -1.66699 11.333 -5 18z" />
    <glyph glyph-name="logicalnot" unicode="&#xac;" horiz-adv-x="802" 
d="M658 115l4.00098 4.00293h1c12 7.33301 24.333 13 37 17s23 6.66699 31 8h4c5.33301 0 8.66602 -0.666992 9.99902 -2c0.666992 -0.666992 1 -1.66699 1 -3c0 -4 -1.66699 -8.66699 -5 -14c-2.66699 -7.33301 -6.5 -14.666 -11.5 -21.999s-10.833 -14.666 -17.5 -21.999
c-11.333 -12.667 -23.333 -23.5 -36 -32.5l-42 -28.5c-7.33301 -6 -11 -13.667 -11 -23c0 -2 0.166992 -4.16699 0.5 -6.5s1.5 -4.83301 3.5 -7.5c6.66699 -10 14.334 -15 23.001 -15c2 0 4.5 0.333008 7.5 1s6.16699 2.33398 9.5 5.00098
c1.33301 1.33301 2.66602 2.16602 3.99902 2.49902s2.66602 1.16602 3.99902 2.49902h-1l42 28.5c14 9.66699 27.333 20.5 40 32.5c14.667 18.667 26.667 37 36 55v-1c5.33301 9.33301 9.16602 18.5 11.499 27.5s3.5 17.833 3.5 26.5c0 7.33301 -0.666992 14 -2 20
s-4.33301 11.667 -9 17v-1c-4 7.33301 -10.333 12.166 -19 14.499s-18.667 3.5 -30 3.5c-15.333 0 -32 -2.5 -50 -7.5s-33.333 -11.5 -46 -19.5l1 1c-2.66699 -1.33301 -5.16699 -2.66602 -7.5 -3.99902s-4.83301 -2.66602 -7.5 -3.99902
c1.33301 26 3.66602 51.5 6.99902 76.5s6.66602 46.167 9.99902 63.5c0 2 0.333008 3.83301 1 5.5s1.33398 3.5 2.00098 5.5c11.333 2.66699 23 6.16699 35 10.5s23 8.5 33 12.5l10 4l10 4c13.333 4 20 12 20 24c0 6 -1.33301 10.667 -4 14v-1
c-4.66699 11.333 -12.334 17 -23.001 17c-3.33301 0 -6.66602 -0.666992 -9.99902 -2v1c-3.33301 -1.33301 -8.16602 -2.83301 -14.499 -4.5s-13.166 -4.16699 -20.499 -7.5h1c-14 -5.33301 -29.167 -10.333 -45.5 -15s-32.166 -7 -47.499 -7
c-3.33301 0 -6.5 0.166992 -9.5 0.5s-6.16699 0.833008 -9.5 1.5c-6.66699 0.666992 -11 3.66699 -13 9c10 2.66699 19.833 5.66699 29.5 9s20.5 7.66602 32.5 12.999c4.66699 2 8.66699 5.66699 12 11c11.333 8 21.166 16.833 29.499 26.5s14.166 20.167 17.499 31.5
c1.33301 6 2.5 11.833 3.5 17.5s1.5 10.5 1.5 14.5c0 10 -1.66699 19 -5 27s-9.66602 14.667 -18.999 20c-7.33301 4.66699 -16.333 7 -27 7c-8 0 -15.5 -1.16699 -22.5 -3.5s-13.167 -4.83301 -18.5 -7.5c-4 -2 -8.16699 -4.5 -12.5 -7.5l-13.5 -9.5h1
c-2.66699 -1.33301 -4.66699 -2.66602 -6 -3.99902c-8 -10 -17.333 -22.333 -28 -37s-19.334 -31.334 -26.001 -50.001c-1.33301 0 -2 0.666992 -2 2c-3.33301 5.33301 -6.66602 12.333 -9.99902 21s-5.66602 17 -6.99902 25c-5.33301 27.333 -17.333 42.333 -36 45l2 -1
c-3.33301 1.33301 -6 2 -8 2h-4c-8 0 -16.5 -1.33301 -25.5 -4s-18.167 -5.66699 -27.5 -9c-8 -3.33301 -17.667 -9.5 -29 -18.5s-22.333 -18.5 -33 -28.5v10c0 10.667 0.333008 22 1 34s1.66699 24 3 36h24c7.33301 -5.33301 14.333 -8 21 -8
c5.33301 0 10.666 1.66699 15.999 5l-1 -1c11.333 6.66699 17.666 16 18.999 28c0 1.33301 0.166992 2.33301 0.5 3s0.5 1.66699 0.5 3c0 16.667 -11.333 25 -34 25h-37c4.66699 19.333 12.334 36 23.001 50c5.33301 5.33301 8 11.333 8 18
c0 5.33301 -1.66699 9.83301 -5 13.5s-7 7.16699 -11 10.5c-3.33301 1.33301 -6.5 2.33301 -9.5 3s-5.5 1 -7.5 1c-10 0 -18 -4.33301 -24 -13c-17.333 -20.667 -29 -48.334 -35 -83.001h-123c-21.333 0 -42 0.166992 -62 0.5s-37.667 0.833008 -53 1.5h-2
c-9.33301 0 -16 -2.66699 -20 -8s-6.66699 -11.666 -8 -18.999v-2c0 -6.66699 2.66699 -13 8 -19s12.666 -9 21.999 -9c8 -0.666992 18.667 -1.16699 32 -1.5s27 -0.5 41 -0.5h37c13.333 0 26 0.333008 38 1c0 -8.66699 -0.166992 -17.334 -0.5 -26.001
s-0.5 -17.667 -0.5 -27c0 -11.333 -0.166992 -22.833 -0.5 -34.5s-0.5 -23.5 -0.5 -35.5c0 -19.333 0.333008 -37.833 1 -55.5s2 -32.834 4 -45.501c1.33301 -13.333 5.16602 -22.833 11.499 -28.5s13.166 -8.83398 20.499 -9.50098c2 -0.666992 4.66699 -1 8 -1
c6.66699 0 12.667 2 18 6s8.66602 10.333 9.99902 19c0.666992 2 1 4.33301 1 7c0 4.66699 -1.16699 8.5 -3.5 11.5s-5.16602 6.16699 -8.49902 9.5c-1.33301 8 -2.33301 20.833 -3 38.5s-1 37.167 -1 58.5v61c0 20 0.666992 37.667 2 53c2.66699 0 5 0.166992 7 0.5
s4.33301 0.5 7 0.5h11c-1.33301 -9.33301 -2 -18.666 -2 -27.999v-27c0 -14 0.333008 -28 1 -42s1.66699 -28.667 3 -44c0.666992 -10.667 3.66699 -18.334 9 -23.001s12 -7 20 -7c12.667 0 22.667 4.66699 30 14h-1l20 20c7.33301 7.33301 14.833 14.166 22.5 20.499
l21.5 17.5c6.66699 5.33301 12.334 9 17.001 11c6.66699 3.33301 11 5 13 5c1.33301 0 2.66602 -2 3.99902 -6c0.666992 -1.33301 1.16699 -2.66602 1.5 -3.99902s0.833008 -2.66602 1.5 -3.99902v1c3.33301 -8 6.33301 -16.333 9 -25s6.66699 -16.667 12 -24
c12 -16 26.333 -25.333 43 -28c0.666992 -10 2.83398 -18.667 6.50098 -26s8.83398 -14.333 15.501 -21c10 -11.333 24.333 -18 43 -20c3.33301 0 6.83301 -0.166992 10.5 -0.5s7.5 -0.5 11.5 -0.5c-4.66699 -19.333 -8.83398 -44.333 -12.501 -75
s-6.16699 -61.334 -7.5 -92.001c-2.66699 -0.666992 -5 -1 -7 -1c-7.33301 0 -12.333 3.66699 -15 11c-1.33301 2 -2 8.33301 -2 19v10c0 10.667 -2.66699 18.5 -8 23.5s-12.333 7.5 -21 7.5c-9.33301 0 -19 -3 -29 -9h1c-9.33301 -4.66699 -19.5 -11.5 -30.5 -20.5
l-33.5 -27.5l-15 -13l-13 -11l-4 -4v2c0 5.33301 1 10 3 14c7.33301 14.667 18.833 30.167 34.5 46.5s29.834 28.833 42.501 37.5c12.667 8 23.667 12 33 12c6.66699 0 11.667 -1.33301 15 -4c4 -4 10.333 -6 19 -6c12 0 20.667 4.66699 26 14c2.66699 4.66699 4 10 4 16
c0 8.66699 -3.66699 16 -11 22c-16 12 -32 18 -48 18c-14 0 -27.167 -3.16699 -39.5 -9.5s-22.166 -12.5 -29.499 -18.5l1 1c-16 -10 -33.5 -24.5 -52.5 -43.5s-34.5 -39.833 -46.5 -62.5c-8 -15.333 -12 -31 -12 -47v-15c-11.333 -4 -24.666 -7.83301 -39.999 -11.5
s-31 -6.83398 -47 -9.50098s-31.833 -4.83398 -47.5 -6.50098s-29.5 -2.5 -41.5 -2.5c-9.33301 0 -14.666 0.666992 -15.999 2c-2.66699 2.66699 -4 5.66699 -4 9c0 6 1.66699 14.667 5 26c14.667 46.667 26 91.167 34 133.5s13.667 81.833 17 118.5v3
c0 8.66699 -2.66699 15 -8 19s-11.666 6.66699 -18.999 8c-0.666992 0 -1.5 0.166992 -2.5 0.5s-1.83301 0.5 -2.5 0.5c-6 0 -12 -2.5 -18 -7.5s-9 -11.5 -9 -19.5c-4 -30 -9.33301 -65 -16 -105s-17.667 -85.333 -33 -136c-6 -19.333 -9 -36.666 -9 -51.999
c0 -18 4.66699 -31.667 14 -41c4.66699 -5.33301 11.667 -9.66602 21 -12.999s21.666 -5 36.999 -5c16 0 35.167 1.16699 57.5 3.5s45.166 5.5 68.499 9.5s45.5 9 66.5 15s38.167 13 51.5 21c11.333 2 25 9 41 21c4 3.33301 7.33301 6.33301 10 9l10 10
c6.66699 5.33301 13.167 10.833 19.5 16.5s11.833 10.167 16.5 13.5l4.5 -15c1.66699 -5.33301 4.16699 -9.66602 7.5 -12.999v1c5.33301 -9.33301 11.833 -16 19.5 -20s17.5 -6 29.5 -6h8c3.33301 0 6.33301 0.333008 9 1h4c0 -9.33301 1.66699 -18.333 5 -27l-1 1
c2 -9.33301 6.16699 -16 12.5 -20s12.5 -6 18.5 -6c6.66699 0 13 2.5 19 7.5s9 11.833 9 20.5v27c1.33301 1.33301 2 3 2 5l1 1c1.33301 3.33301 3.16602 6.16602 5.49902 8.49902s4.5 5.16602 6.5 8.49902c0.666992 0 2.33398 1.33301 5.00098 4zM356.001 248.003
l-0.00195312 16c0 4 0.166992 7.83301 0.5 11.5s0.5 7.5 0.5 11.5v34c-1.33301 7.33301 -4.16602 13 -8.49902 17s-9.16602 6 -14.499 6c-12 0 -21 -6 -27 -18c-3.33301 -5.33301 -5 -11.333 -5 -18c0 -6 1.33301 -10.333 4 -13v-47c0 -16.667 8 -25 24 -25
c17.333 0 26 8.33301 26 25zM634.999 487.003c-1.33301 -8 -7.00098 -15.6631 -17.001 -22.9961s-21 -13.333 -33 -18c3.33301 7.33301 7.33301 14.166 12 20.499s9.33398 12.166 14.001 17.499c3.33301 3.33301 6 5.66602 8 6.99902s3.66699 2.66602 5 3.99902
c4 2 7.66699 3 11 3h1v-2c0 -3.33301 -0.333008 -6.33301 -1 -9z" />
    <glyph glyph-name="registered" unicode="&#xae;" horiz-adv-x="483" 
d="M54 358l1.00098 -0.998047c11.333 -16.667 26.333 -30.167 45 -40.5s40.667 -16.5 66 -18.5c8.66699 -1.33301 18.167 -2.33301 28.5 -3s21.166 -1 32.499 -1c19.333 0 39.166 1.66699 59.499 5s40.166 10 59.499 20c19.333 10.667 39 25 59 43
c2 -5.33301 6 -9.5 12 -12.5s12.333 -4.5 19 -4.5c4 0 7 0.666992 9 2c6.66699 2 13 5.33301 19 10s9 12.667 9 24v5c0 5.33301 -0.666992 13 -2 23s-2.66602 19 -3.99902 27c0 1.33301 0.166992 3 0.5 5s0.5 3.66699 0.5 5c0 6.66699 -3 13.667 -9 21
c-3.33301 13.333 -8.33301 28.833 -15 46.5s-15.167 35.667 -25.5 54s-22.5 36.666 -36.5 54.999s-30 34.833 -48 49.5c-19.333 16 -38 27.667 -56 35s-36 11 -54 11c-2.66699 0 -5.5 -0.166992 -8.5 -0.5s-5.5 -0.5 -7.5 -0.5c-26.667 -4 -50 -16 -70 -36
s-34.667 -46 -44 -78l-2.5 -10l-0.5 -2l-0.5 0.5c-0.333008 0.333008 -0.5 0.166016 -0.5 -0.500977l-22.5 -61c-8.33301 -23.333 -15.166 -44.333 -20.499 -63c-4.66699 -14.667 -7 -31 -7 -49c0 -21.333 4.66699 -41.333 14 -60zM104.001 379.002l0.998047 -0.99707
c-4.66699 9.33301 -7 19.666 -7 30.999c0 10.667 1.33301 21 4 31c2 11.333 5 23.666 9 36.999l12.5 41c4.33301 14 8.83301 27.5 13.5 40.5l12 34.5c7.33301 20.667 16 37.167 26 49.5s22.333 19.166 37 20.499c1.33301 0 2.66602 0.166992 3.99902 0.5
s2.66602 0.5 3.99902 0.5c8.66699 0 18.334 -2.16699 29.001 -6.5s22.667 -11.833 36 -22.5c15.333 -11.333 29.5 -25 42.5 -41s24.667 -33 35 -51s19 -35.833 26 -53.5s12.167 -33.5 15.5 -47.5c-13.333 -18 -26.666 -32.667 -39.999 -44s-27.666 -20.333 -42.999 -27
c-14.667 -7.33301 -31.667 -12.833 -51 -16.5s-39.666 -5.5 -60.999 -5.5c-18 0 -36.333 1 -55 3h1c-24 4.66699 -41 13.667 -51 27zM373.999 507.005c0 9.33301 -4.33203 17.3301 -12.999 23.9971c-3.33301 2 -7.66602 4 -12.999 6s-12.666 3 -21.999 3
c-16.667 -1.33301 -36 -6.33301 -58 -15s-41.667 -18.667 -59 -30c0.666992 4.66699 1.16699 9 1.5 13s1.16602 7.66699 2.49902 11c0 0.666992 0.166992 1.66699 0.5 3s0.5 2.33301 0.5 3c0 6 -1.83301 10.667 -5.5 14s-8.16699 6.33301 -13.5 9
c-2.66699 1.33301 -6.33398 2 -11.001 2c-13.333 0 -21.333 -5.66699 -24 -17c-0.666992 -1.33301 -1.33398 -2.83301 -2.00098 -4.5s-1.33398 -3.16699 -2.00098 -4.5c-1.33301 -1.33301 -2.16602 -2.66602 -2.49902 -3.99902s-0.833008 -2.33301 -1.5 -3l-3 -4.5
c-0.666992 -1 -1 -3.16699 -1 -6.5c0 -4.66699 1.33301 -8 4 -10c-1.33301 -7.33301 -2 -16 -2 -26v-29c0 -6 0.166992 -12 0.5 -18s0.5 -11.333 0.5 -16c0 -9.33301 2.83301 -16.666 8.5 -21.999s12.167 -8 19.5 -8s13.833 2.16699 19.5 6.5s8.83398 11.166 9.50098 20.499
v3c0.666992 3.33301 1.16699 6.33301 1.5 9s2.16602 6.33398 5.49902 11.001c2 3.33301 4.83301 6.33301 8.5 9s7.83398 6 12.501 10h-1c13.333 8.66699 28.166 16.334 44.499 23.001s30.166 11 41.499 13h-1c0.666992 0 1.33398 0.166992 2.00098 0.5s1.66699 0.5 3 0.5
c0.666992 0 1.5 -0.333008 2.5 -1s2.83301 -1.66699 5.5 -3s7 -2 13 -2c10 0 17.333 4 22 12c4 4.66699 6 10.667 6 18z" />
    <glyph glyph-name="macron" unicode="&#xaf;" horiz-adv-x="459" 
d="M395 570l0.00390625 0.998047c0 8 -2.83301 15 -8.5 21s-13.834 9 -24.501 9h-6c-4 -0.666992 -8.66699 -1 -14 -1h-18c-10 0 -21.167 0.166992 -33.5 0.5s-24.833 0.833008 -37.5 1.5c-13.333 0 -27 0.166992 -41 0.5s-26.667 0.5 -38 0.5c-22.667 0 -39 -1 -49 -3h1
c-11.333 -2 -20.833 -6.16699 -28.5 -12.5s-12.5 -14.166 -14.5 -23.499c0 -0.666992 -0.166992 -1.66699 -0.5 -3s-0.5 -2.33301 -0.5 -3c0 -10 4.66699 -18.667 14 -26v1c3.33301 -3.33301 7.16602 -5.5 11.499 -6.5s8.5 -1.5 12.5 -1.5c7.33301 0 13.333 1.33301 18 4h-1
c1.33301 0.666992 2.83301 1.33398 4.5 2.00098s3.16699 1.66699 4.5 3c4 2.66699 7.33301 4 10 4c3.33301 0.666992 7.66602 1 12.999 1h19h55c11.333 0 22.5 -0.166992 33.5 -0.5s21.5 -0.5 31.5 -0.5c10.667 0 20.667 0.166992 30 0.5s17.333 0.5 24 0.5
c11.333 2 19.666 6 24.999 12s8 12.333 8 19z" />
    <glyph glyph-name="macron" unicode="&#x2c9;" horiz-adv-x="459" 
d="M395 570l0.00390625 0.998047c0 8 -2.83301 15 -8.5 21s-13.834 9 -24.501 9h-6c-4 -0.666992 -8.66699 -1 -14 -1h-18c-10 0 -21.167 0.166992 -33.5 0.5s-24.833 0.833008 -37.5 1.5c-13.333 0 -27 0.166992 -41 0.5s-26.667 0.5 -38 0.5c-22.667 0 -39 -1 -49 -3h1
c-11.333 -2 -20.833 -6.16699 -28.5 -12.5s-12.5 -14.166 -14.5 -23.499c0 -0.666992 -0.166992 -1.66699 -0.5 -3s-0.5 -2.33301 -0.5 -3c0 -10 4.66699 -18.667 14 -26v1c3.33301 -3.33301 7.16602 -5.5 11.499 -6.5s8.5 -1.5 12.5 -1.5c7.33301 0 13.333 1.33301 18 4h-1
c1.33301 0.666992 2.83301 1.33398 4.5 2.00098s3.16699 1.66699 4.5 3c4 2.66699 7.33301 4 10 4c3.33301 0.666992 7.66602 1 12.999 1h19h55c11.333 0 22.5 -0.166992 33.5 -0.5s21.5 -0.5 31.5 -0.5c10.667 0 20.667 0.166992 30 0.5s17.333 0.5 24 0.5
c11.333 2 19.666 6 24.999 12s8 12.333 8 19z" />
    <glyph glyph-name="degree" unicode="&#xb0;" horiz-adv-x="219" 
d="M199 363c17.333 19.333 26 41.333 26 66s-8.66699 46.667 -26 66c-19.333 18 -41.666 27 -66.999 27s-47.333 -9 -66 -27c-17.333 -19.333 -26 -41.333 -26 -66s8.66699 -46.667 26 -66c19.333 -17.333 41.333 -26 66 -26c25.333 0 47.666 8.66699 66.999 26zM162 399
c-8.66699 -8.66699 -18.667 -13 -30 -13s-21.333 4.33301 -30 13s-13 18.667 -13 30s4.33301 21.333 13 30s18.667 13 30 13s21.333 -4.33301 30 -13c8.66699 -8 13 -18 13 -30s-4.33301 -22 -13 -30z" />
    <glyph glyph-name="plusminus" unicode="&#xb1;" horiz-adv-x="374" 
d="M203 212l2.00195 -0.00195312c9.33301 0 17.5 3 24.5 9s10.5 14.333 10.5 25v6c-0.666992 4.66699 -1.16699 10 -1.5 16s-0.5 12.333 -0.5 19v28c0 10 0.666992 20.667 2 32h37c7.33301 0 14 0.166992 20 0.5s11.667 0.833008 17 1.5c12 2 20.833 6.66699 26.5 14
s8.5 14.666 8.5 21.999v2c0 9.33301 -2.83301 17.666 -8.5 24.999s-13.834 11 -24.501 11h-5c-4.66699 -0.666992 -9.33398 -1.16699 -14.001 -1.5s-10 -0.5 -16 -0.5c-4 0 -8.33301 0.166992 -13 0.5s-9.66699 0.5 -15 0.5h-10v13c0 22.667 -1 39.667 -3 51
c-2.66699 11.333 -7.66699 20.833 -15 28.5s-16.333 12.834 -27 15.501c-1.33301 0 -2.66602 0.166992 -3.99902 0.5s-2.66602 0.5 -3.99902 0.5c-11.333 0 -21.333 -5 -30 -15h1c-3.33301 -3.33301 -5.66602 -7.16602 -6.99902 -11.499s-2 -8.5 -2 -12.5
s0.166992 -7.33301 0.5 -10s1.5 -5.66699 3.5 -9v1c0.666992 -2 2.66699 -4.66699 6 -8s5 -7 5 -11c0.666992 -2.66699 1 -7.66699 1 -15v-15c-8 0.666992 -15.667 1.16699 -23 1.5s-13.666 0.5 -18.999 0.5c-28.667 0 -49.5 -3.33301 -62.5 -10s-21.833 -18.667 -26.5 -36
c0 -1.33301 -0.166992 -2.83301 -0.5 -4.5s-0.5 -3.16699 -0.5 -4.5c0 -12.667 4.66699 -23 14 -31v1c3.33301 -3.33301 7.16602 -5.66602 11.499 -6.99902s8.5 -2 12.5 -2c8 0 14 1.66699 18 5h-1c1.33301 0.666992 2.83301 1.33398 4.5 2.00098s3.16699 1.66699 4.5 3
c3.33301 3.33301 6.66602 5 9.99902 5c6.66699 1.33301 14.667 2 24 2h14c5.33301 0 11.333 -0.333008 18 -1v-52c0 -10 0.166992 -19.333 0.5 -28s0.833008 -16 1.5 -22c1.33301 -11.333 5.66602 -20 12.999 -26s14.666 -9 21.999 -9zM356.002 145.998l0.00195312 1.99805
c0 9.33301 -2.83301 17.666 -8.5 24.999s-13.834 11 -24.501 11h-6c-3.33301 -0.666992 -7.66602 -1 -12.999 -1h-16c-10 0 -20.667 0.166992 -32 0.5s-23.333 0.833008 -36 1.5c-14.667 0.666992 -29.167 1.16699 -43.5 1.5s-27.833 0.5 -40.5 0.5c-23.333 0 -40 -1 -50 -3
h1c-11.333 -2.66699 -20.833 -7.66699 -28.5 -15s-12.834 -16.666 -15.501 -27.999c0 -1.33301 -0.166992 -2.66602 -0.5 -3.99902s-0.5 -2.66602 -0.5 -3.99902c0 -11.333 4.66699 -21.666 14 -30.999v1c6.66699 -6 15 -9 25 -9c6.66699 0 12.667 1.66699 18 5
c2.66699 0 5 1.66699 7 5c3.33301 3.33301 7 5 11 5c2 0.666992 5 1 9 1h14h27c10 0 20.667 -0.333008 32 -1s23 -1 35 -1h35c10.667 0 20.667 0.166992 30 0.5s17.333 0.833008 24 1.5c11.333 2 19.666 6.66699 24.999 14s8 14.666 8 21.999z" />
    <glyph glyph-name="twosuperior" unicode="&#xb2;" horiz-adv-x="385" 
d="M363 383l-0.00195312 3.00098c0 7.33301 -2.66699 14 -8 20s-13.666 9.66699 -24.999 11c-6.66699 0.666992 -13.667 1 -21 1h-24c-21.333 0 -44 -0.666992 -68 -2s-47.667 -3.33301 -71 -6l53.5 44.5c17.667 15 32.167 29.167 43.5 42.5c19.333 23.333 29 45.333 29 66
s-9 37.667 -27 51l-22.5 14.5c-9.66699 6.33301 -19.834 11.166 -30.501 14.499c-6 2 -15.833 3.83301 -29.5 5.5s-28.167 2.5 -43.5 2.5h-12c-3.33301 0 -6.66602 -0.333008 -9.99902 -1c-8.66699 0 -15 -2.83301 -19 -8.5s-6 -11.5 -6 -17.5v-1
c0 -7.33301 2.5 -14 7.5 -20s12.167 -9 21.5 -9c10.667 0 23.667 -0.666992 39 -2s26 -2.33301 32 -3c6.66699 -1.33301 12.834 -3.83301 18.501 -7.5s10.167 -6.83398 13.5 -9.50098c4.66699 -4.66699 7 -9.33398 7 -14.001c0 -8 -4 -16.333 -12 -25
s-17.833 -18.167 -29.5 -28.5l-37 -32.5c-13 -11.333 -26.667 -22.666 -41 -33.999s-28.5 -22 -42.5 -32c-5.33301 -3.33301 -9.33301 -7.33301 -12 -12s-4 -9.66699 -4 -15c0 -6 1.33301 -11.333 4 -16v1c2.66699 -5.33301 6.83398 -10.166 12.501 -14.499
s12.5 -6.5 20.5 -6.5h5c31.333 4.66699 65.5 8.83398 102.5 12.501s71.5 5.5 103.5 5.5c4.66699 0 8.83398 0.166992 12.501 0.5s7.5 0.166016 11.5 -0.500977c6 -4.66699 13.667 -7 23 -7c5.33301 0 9.33301 0.666992 12 2c7.33301 2.66699 12.666 6.5 15.999 11.5
s5.66602 10.167 6.99902 15.5z" />
    <glyph glyph-name="threesuperior" unicode="&#xb3;" horiz-adv-x="286" 
d="M261 448c-0.666992 16.667 -5.66504 31.833 -14.998 45.5s-23.666 24.167 -42.999 31.5c-6 2 -11.5 3.33301 -16.5 4l-15.5 2c10 7.33301 19.167 14.666 27.5 21.999s15.166 13.666 20.499 18.999c16 16 24 32.667 24 50c0 8 -1.66699 14.667 -5 20
c-5.33301 8.66699 -13.833 16 -25.5 22s-27.167 9.66699 -46.5 11h-9c-20 0 -39.833 -2.16699 -59.5 -6.5s-35.834 -9.16602 -48.501 -14.499c-9.33301 -4.66699 -14 -12 -14 -22c0 -4.66699 1.33301 -9.66699 4 -15c2.66699 -3.33301 6 -6.33301 10 -9s8.66699 -4 14 -4
c2 0 4.16699 0.166992 6.5 0.5s4.83301 1.16602 7.5 2.49902c8 4 19 7.33301 33 10s28 4 42 4h9c13.333 0 20 -2.33301 20 -7c0 -2.66699 -2.33301 -7 -7 -13c-5.33301 -5.33301 -11.833 -11.166 -19.5 -17.499l-24 -19c-8.33301 -6.33301 -16.666 -12.333 -24.999 -18
l-21.5 -14.5c-11.333 -8 -17 -16.333 -17 -25c0 -3.33301 1 -7 3 -11c2 -4.66699 5.33301 -8.66699 10 -12s10.667 -5 18 -5h4c1.33301 0 3 0.166992 5 0.5s4 0.5 6 0.5c5.33301 0.666992 11.166 1.16699 17.499 1.5s12.5 0.5 18.5 0.5h13c4 0 7.66699 -0.666992 11 -2
c21.333 -7.33301 32 -18 32 -32v-2c0 -6 -1.33301 -12 -4 -18s-6.66699 -13 -12 -21c-8.66699 -11.333 -19.167 -21.666 -31.5 -30.999s-25.5 -18 -39.5 -26s-28.167 -15.167 -42.5 -21.5s-27.833 -11.833 -40.5 -16.5v1c-12.667 -4.66699 -19 -13 -19 -25
c0 -4.66699 1 -8.33398 3 -11.001c3.33301 -11.333 11.666 -17 24.999 -17c4 0 7.66699 0.666992 11 2c15.333 4.66699 31.333 10.834 48 18.501s33 16.334 49 26.001s31 20.167 45 31.5s26 23.666 36 36.999c18.667 24 28 48.333 28 73z" />
    <glyph glyph-name="acute" unicode="&#xb4;" horiz-adv-x="290" 
d="M293 434c-7.33301 11.333 -17 17 -29 17c-7.33301 0 -13.333 -1.66699 -18 -5l-32 -16l-37 -18.5l-37 -18.5l-33 -16c-7.33301 -4 -13 -8.83301 -17 -14.5s-6 -11.167 -6 -16.5s1.66699 -10.333 5 -15c2.66699 -5.33301 6.16699 -10 10.5 -14s10.5 -6 18.5 -6
c2.66699 0 5.66699 0.5 9 1.5s7 2.16699 11 3.5l33.5 16.5l39.5 19.5l38.5 19.5l31.5 16.5c11.333 7.33301 17 16.333 17 27c0 4.66699 -1.66699 11 -5 19z" />
    <glyph glyph-name="mu" unicode="&#xb5;" horiz-adv-x="660" 
d="M727 88c-6 16.667 -18 25.001 -36 25.001c-8 0 -16.333 -2.33301 -25 -7c-12.667 -7.33301 -27.5 -14.166 -44.5 -20.499s-34.5 -10.5 -52.5 -12.5c-2 0 -3.83301 -0.166992 -5.5 -0.5s-3.16699 -0.5 -4.5 -0.5c-7.33301 0 -14.333 1.66699 -21 5
s-11.667 9.66602 -15 18.999v-1c-4 12.667 -6 29 -6 49c0 11.333 0.833008 24 2.5 38s4.5 28.667 8.5 44l-1 -1c1.33301 3.33301 2 5.66602 2 6.99902v4c0 10 -3.5 18.5 -10.5 25.5s-15.5 11.833 -25.5 14.5l1 -1c-3.33301 1.33301 -6 2 -8 2h-4
c-9.33301 0 -17.833 -2.16699 -25.5 -6.5s-13.834 -11.5 -18.501 -21.5c-10.667 -30 -28 -61.167 -52 -93.5s-55 -61.833 -93 -88.5c-20.667 -14.667 -40.667 -22 -60 -22c-6.66699 0 -12 0.666992 -16 2c-12.667 4 -21 12.667 -25 26c-4 12.667 -6 28.334 -6 47.001
c0 21.333 2 44 6 68s9.33301 45.667 16 65l-1 -1c1.33301 4 2.16602 7.16699 2.49902 9.5s0.5 4.5 0.5 6.5c0 12 -4.33301 21.5 -13 28.5s-18.334 10.5 -29.001 10.5c-9.33301 0 -18.833 -2.83301 -28.5 -8.5s-17.167 -14.5 -22.5 -26.5
c-10.667 -27.333 -17.667 -60.166 -21 -98.499s-6.33301 -78.166 -9 -119.499c-1.33301 -36.667 -3.5 -72.334 -6.5 -107.001s-9.16699 -66 -18.5 -94c1.33301 -6 4.16602 -11.667 8.49902 -17s9.33301 -10 15 -14s11.5 -7.5 17.5 -10.5s11.333 -5.5 16 -7.5
c2 -0.666992 3.66699 -1.16699 5 -1.5s3.33301 -0.5 6 -0.5c5.33301 0 10.333 1 15 3s8.66699 4.33301 12 7c9.33301 7.33301 14 16.333 14 27c0 4 -1.66699 10 -5 18c0.666992 -0.666992 0.833984 -0.5 0.500977 0.5s-0.833008 1.83301 -1.5 2.5
c-3.33301 3.33301 -5 7.33301 -5 12v14c0 8.66699 0.333008 19.667 1 33s2.33398 28 5.00098 44c2 -0.666992 4 -1 6 -1s4.33301 -0.333008 7 -1l-1 1l12 -4h-1c10 -2.66699 22.333 -4 37 -4c38.667 0 78.667 13.333 120 40c14.667 9.33301 29.834 21.166 45.501 35.499
s29.834 29.166 42.501 44.499c2.66699 -17.333 8.66699 -32.666 18 -45.999c10.667 -16.667 25.5 -28.834 44.5 -36.501s38.5 -11.5 58.5 -11.5c4.66699 0 9 0.166992 13 0.5s8 0.833008 12 1.5c25.333 4 49.333 10 72 18s41.667 16.667 57 26
c8.66699 5.33301 14.667 11.5 18 18.5s5 14.167 5 21.5c0 8 -1.66699 15.333 -5 22z" />
    <glyph glyph-name="mu" unicode="&#x3bc;" horiz-adv-x="660" 
d="M727 88c-6 16.667 -18 25.001 -36 25.001c-8 0 -16.333 -2.33301 -25 -7c-12.667 -7.33301 -27.5 -14.166 -44.5 -20.499s-34.5 -10.5 -52.5 -12.5c-2 0 -3.83301 -0.166992 -5.5 -0.5s-3.16699 -0.5 -4.5 -0.5c-7.33301 0 -14.333 1.66699 -21 5
s-11.667 9.66602 -15 18.999v-1c-4 12.667 -6 29 -6 49c0 11.333 0.833008 24 2.5 38s4.5 28.667 8.5 44l-1 -1c1.33301 3.33301 2 5.66602 2 6.99902v4c0 10 -3.5 18.5 -10.5 25.5s-15.5 11.833 -25.5 14.5l1 -1c-3.33301 1.33301 -6 2 -8 2h-4
c-9.33301 0 -17.833 -2.16699 -25.5 -6.5s-13.834 -11.5 -18.501 -21.5c-10.667 -30 -28 -61.167 -52 -93.5s-55 -61.833 -93 -88.5c-20.667 -14.667 -40.667 -22 -60 -22c-6.66699 0 -12 0.666992 -16 2c-12.667 4 -21 12.667 -25 26c-4 12.667 -6 28.334 -6 47.001
c0 21.333 2 44 6 68s9.33301 45.667 16 65l-1 -1c1.33301 4 2.16602 7.16699 2.49902 9.5s0.5 4.5 0.5 6.5c0 12 -4.33301 21.5 -13 28.5s-18.334 10.5 -29.001 10.5c-9.33301 0 -18.833 -2.83301 -28.5 -8.5s-17.167 -14.5 -22.5 -26.5
c-10.667 -27.333 -17.667 -60.166 -21 -98.499s-6.33301 -78.166 -9 -119.499c-1.33301 -36.667 -3.5 -72.334 -6.5 -107.001s-9.16699 -66 -18.5 -94c1.33301 -6 4.16602 -11.667 8.49902 -17s9.33301 -10 15 -14s11.5 -7.5 17.5 -10.5s11.333 -5.5 16 -7.5
c2 -0.666992 3.66699 -1.16699 5 -1.5s3.33301 -0.5 6 -0.5c5.33301 0 10.333 1 15 3s8.66699 4.33301 12 7c9.33301 7.33301 14 16.333 14 27c0 4 -1.66699 10 -5 18c0.666992 -0.666992 0.833984 -0.5 0.500977 0.5s-0.833008 1.83301 -1.5 2.5
c-3.33301 3.33301 -5 7.33301 -5 12v14c0 8.66699 0.333008 19.667 1 33s2.33398 28 5.00098 44c2 -0.666992 4 -1 6 -1s4.33301 -0.333008 7 -1l-1 1l12 -4h-1c10 -2.66699 22.333 -4 37 -4c38.667 0 78.667 13.333 120 40c14.667 9.33301 29.834 21.166 45.501 35.499
s29.834 29.166 42.501 44.499c2.66699 -17.333 8.66699 -32.666 18 -45.999c10.667 -16.667 25.5 -28.834 44.5 -36.501s38.5 -11.5 58.5 -11.5c4.66699 0 9 0.166992 13 0.5s8 0.833008 12 1.5c25.333 4 49.333 10 72 18s41.667 16.667 57 26
c8.66699 5.33301 14.667 11.5 18 18.5s5 14.167 5 21.5c0 8 -1.66699 15.333 -5 22z" />
    <glyph glyph-name="paragraph" unicode="&#xb6;" horiz-adv-x="627" 
d="M524 503l1 -4.99707v-18c0 -18 -0.666992 -39 -2 -63s-3 -47.667 -5 -71s-4.33301 -45.333 -7 -66s-5.33398 -37 -8.00098 -49l1 1c-1.33301 -3.33301 -2 -5.66602 -2 -6.99902v-4c0 -10.667 3.33301 -19.334 10 -26.001s15 -11 25 -13
c2.66699 -0.666992 7.33398 -1 14.001 -1c10 0 19 2.83301 27 8.5s13.667 15.167 17 28.5c2.66699 13.333 5 30.166 7 50.499s3.66699 42.166 5 65.499s2.5 47.5 3.5 72.5s1.5 49.167 1.5 72.5v43c0 13.333 -0.666992 25.666 -2 36.999v4c0 5.33301 -0.333008 9.33301 -1 12
v4c-3.33301 10 -9.83301 18.5 -19.5 25.5s-21.167 10.5 -34.5 10.5c-8 0 -16 -1.83301 -24 -5.5s-14.667 -8.16699 -20 -13.5c-27.333 -8 -56.666 -15.167 -87.999 -21.5s-63 -12.166 -95 -17.499l-86 -18c-28.667 -6 -55.667 -12 -81 -18
c-49.333 -14 -85.666 -32.167 -108.999 -54.5s-35.333 -46.833 -36 -73.5v-2c0 -21.333 8 -42.166 24 -62.499s40.333 -38.5 73 -54.5c6.66699 -3.33301 14.667 -5.5 24 -6.5s19.666 -1.5 30.999 -1.5c10.667 0 21.834 0.333008 33.501 1s23.5 1.66699 35.5 3l40.5 2
c13.667 0.666992 27.167 1 40.5 1c15.333 0 29.666 -0.833008 42.999 -2.5s25.666 -4.16699 36.999 -7.5l2.5 -45.5c1 -18.333 1.83301 -38 2.5 -59l2 -65c0.666992 -22.333 1 -43.5 1 -63.5c0 -18.667 -0.333008 -35.5 -1 -50.5s-1.66699 -26.5 -3 -34.5l1 1
c-1.33301 -3.33301 -2 -5.66602 -2 -6.99902v-4c0 -10.667 3.16699 -19.334 9.5 -26.001s14.5 -11 24.5 -13c2.66699 -0.666992 7.33398 -1 14.001 -1c10 0 19 2.83301 27 8.5s13.667 15.167 17 28.5c4.66699 20.667 7.83398 42.667 9.50098 66s2.5 48 2.5 74
c0 38.667 -1.83301 78 -5.5 118s-8 78.333 -13 115s-10.333 70.667 -16 102s-10.834 57.666 -15.501 78.999c12.667 2 23.167 4 31.5 6s17.166 4.33301 26.499 7c5.33301 1.33301 9 2.66602 11 3.99902z" />
    <glyph glyph-name="periodcentered" unicode="&#xb7;" horiz-adv-x="170" 
d="M126 223c6.66699 4.66699 11.5 10.665 14.5 17.998s4.5 15 4.5 23s-1.5 15.833 -4.5 23.5s-7.83301 13.834 -14.5 18.501c-10 6.66699 -20.667 10 -32 10c-5.33301 0 -11 -0.833008 -17 -2.5s-11 -4.16699 -15 -7.5c-13.333 -11.333 -20 -24.333 -20 -39
c0 -17.333 5.33301 -30.666 16 -39.999s22.667 -14 36 -14c12 0 22.667 3.33301 32 10z" />
    <glyph glyph-name="periodcentered" unicode="&#x22c5;" horiz-adv-x="170" 
d="M126 223c6.66699 4.66699 11.5 10.665 14.5 17.998s4.5 15 4.5 23s-1.5 15.833 -4.5 23.5s-7.83301 13.834 -14.5 18.501c-10 6.66699 -20.667 10 -32 10c-5.33301 0 -11 -0.833008 -17 -2.5s-11 -4.16699 -15 -7.5c-13.333 -11.333 -20 -24.333 -20 -39
c0 -17.333 5.33301 -30.666 16 -39.999s22.667 -14 36 -14c12 0 22.667 3.33301 32 10z" />
    <glyph glyph-name="cedilla" unicode="&#xb8;" horiz-adv-x="345" 
d="M247 -95c5.33301 9.33301 8.00098 20.666 8.00098 33.999c0 10 -2.5 19.333 -7.5 28s-14.167 15.334 -27.5 20.001c-2.66699 0.666992 -4 1.66699 -4 3c0 2 0.333008 4.66699 1 8s1.66699 7 3 11v1c1.33301 2.66699 2 5.33398 2 8.00098c0 8 -3.16699 14.667 -9.5 20
s-13.5 8 -21.5 8c-6.66699 0 -13 -2.16699 -19 -6.5s-10.667 -11.833 -14 -22.5c-3.33301 -14.667 -5 -28.334 -5 -41.001c0 -23.333 10.333 -37.666 31 -42.999h4c0 -0.666992 -0.333008 -1 -1 -1v-1c-4.66699 -5.33301 -14.667 -10.333 -30 -15
c-8.66699 -2.66699 -14.834 -7 -18.501 -13s-5.5 -12.667 -5.5 -20c0 -8 2.5 -15.333 7.5 -22s12.833 -10 23.5 -10h5c15.333 2 29.833 7.66699 43.5 17s25.167 21.666 34.5 36.999z" />
    </font>
</defs>
</svg>
