<?xml version="1.0" standalone="no"?>
<!DOCTYPE svg PUBLIC "-//W3C//DTD SVG 1.1//EN" "http://www.w3.org/Graphics/SVG/1.1/DTD/svg11.dtd" >
<svg>
<metadata>
Created by FontForge 20090914 at Wed Sep 21 04:09:40 2016
 By www-data
Design and data by The Monotype Corporation. &#194;&#169; 1993. Microsoft Corporation. all rights reserved.
</metadata>
<defs>
<font id="ImprintMT-Shadow" horiz-adv-x="1024" >
  <font-face 
    font-family="Imprint MT Shadow"
    font-weight="400"
    font-stretch="normal"
    units-per-em="2048"
    panose-1="4 2 6 5 6 3 3 3 2 2"
    ascent="1638"
    descent="-410"
    x-height="874"
    cap-height="1411"
    bbox="-377 -510 2124 1903"
    underline-thickness="102"
    underline-position="-119"
    unicode-range="U+0020-U+F002"
  />
<missing-glyph 
d="M82 1365h860v-1365h-860v1365zM123 1324v-1283h778v1283h-778z" />
    <glyph glyph-name=".notdef" 
d="M82 1365h860v-1365h-860v1365zM123 1324v-1283h778v1283h-778z" />
    <glyph glyph-name="space" unicode=" " horiz-adv-x="512" 
 />
    <glyph glyph-name="exclam" unicode="!" horiz-adv-x="492" 
d="M324 874l-50.001 -462.001h-57l-59 551c-19.333 164 -29 256.667 -29 278c0 66 10.833 115.333 32.5 148s51.834 49 90.501 49c36 0 65.167 -14.667 87.5 -44s33.5 -72.666 33.5 -129.999c0 -39.333 -7.16699 -104.333 -21.5 -195s-23.5 -155.667 -27.5 -195z
M235.999 568.999h10c6.66699 48 10 98 10 150c0 88 -5.16699 197.333 -15.5 328s-15.5 206.334 -15.5 227.001c0 66 20 107 60 123c-6 4 -16.333 6 -31 6c-25.333 0 -47 -13.333 -65 -40s-27 -56.334 -27 -89.001c0 -16.667 1 -37.5 3 -62.5s5 -52 9 -81
s6.66699 -50.167 8 -63.5zM249.999 226.999c22.667 0 43.501 -5.66895 62.501 -17.002s34.167 -26.666 45.5 -45.999s17 -40.666 17 -63.999c0 -34.667 -12.167 -64.5 -36.5 -89.5s-53.833 -37.5 -88.5 -37.5c-34 0 -63 12.667 -87 38s-36 55 -36 89
c0 35.333 11.667 65.333 35 90s52.666 37 87.999 37zM266 189.997l-16.001 0.00292969c-21.333 0 -41.666 -7.83301 -60.999 -23.5s-29 -37.834 -29 -66.501c0 -26 10.167 -47.5 30.5 -64.5s45.5 -23.5 75.5 -19.5l-16.5 22c-7 9.33301 -12.5 19.666 -16.5 30.999
s-6 23.666 -6 36.999c0 30 13 58 39 84z" />
    <glyph glyph-name="quotedbl" unicode="&#x22;" horiz-adv-x="895" 
d="M119 791l-0.000976562 65.002c38.667 18 71.5 43.167 98.5 75.5s40.5 66.5 40.5 102.5c0 29.333 -7.16699 55.166 -21.5 77.499s-35.166 46.5 -62.499 72.5c-30.667 32 -52 56.5 -64 73.5s-18 38.833 -18 65.5c0 30 12.333 56.667 37 80s54 35 88 35
c30 0 59.167 -10.833 87.5 -32.5s51.5 -52.334 69.5 -92.001s27 -83.5 27 -131.5c0 -87.333 -23.5 -164 -70.5 -230s-117.5 -119.667 -211.5 -161zM263.999 942.002c40 51.333 60 103.332 60 155.999c0 41.333 -9 73.333 -27 96c-54.667 64.667 -86.5 102.667 -95.5 114
s-13.5 22.333 -13.5 33c0 26 13 46.667 39 62h-22c-26 0 -45.833 -8 -59.5 -24s-20.5 -34 -20.5 -54c0 -13.333 3.5 -26.666 10.5 -39.999s16.167 -26 27.5 -38l44 -45c26 -25.333 46.5 -50.333 61.5 -75s22.5 -53 22.5 -85c0 -11.333 -1.33301 -22.5 -4 -33.5
s-6.66699 -23.333 -12 -37s-9 -23.5 -11 -29.5zM523.999 791.001v65.001c39.333 19.333 72.166 44.833 98.499 76.5s39.5 65.5 39.5 101.5c0 30 -7.33301 56.5 -22 79.5s-34.667 46.5 -60 70.5c-30.667 32 -52 56.5 -64 73.5s-18 38.833 -18 65.5
c0 30.667 12.5 57.5 37.5 80.5s54.167 34.5 87.5 34.5c28.667 0 57.334 -10.833 86.001 -32.5s52.167 -52.334 70.5 -92.001s27.5 -83.5 27.5 -131.5c0 -178.667 -94.333 -309 -283 -391zM669.999 942.002c39.333 48 59 100.001 59 156.001c0 42.667 -9 74.667 -27 96
l-69.5 82.5c-14.333 17 -24.333 30 -30 39s-8.5 17.5 -8.5 25.5c0 12 2.16699 21.833 6.5 29.5s9.66602 14.167 15.999 19.5s11.833 9.66602 16.5 12.999h-23c-25.333 0 -45 -8 -59 -24s-21 -34 -21 -54c0 -9.33301 1.83301 -18.833 5.5 -28.5s11.167 -21.667 22.5 -36
s20.333 -24.833 27 -31.5l25 -25c26.667 -25.333 47.334 -50.5 62.001 -75.5s22 -53.833 22 -86.5c0 -26.667 -8 -60 -24 -100z" />
    <glyph glyph-name="numbersign" unicode="#" 
d="M90 -28l86 424h-136v133h162l59 292h-221v130h247l87 433h132l-88 -433h295l86 433h132l-88 -433h140v-130h-165l-60 -292h225v-133h-250l-86 -424h-133l86 424h-291l-90 -424h-129zM335 529h294l58 292h-294z" />
    <glyph glyph-name="dollar" unicode="$" horiz-adv-x="1044" 
d="M461 1442l114.007 -0.00390625v-58c57.333 -4 108.5 -14.333 153.5 -31s82.167 -37.167 111.5 -61.5s51.666 -50.833 66.999 -79.5s23 -57.334 23 -86.001c0 -26 -9.16699 -48.833 -27.5 -68.5s-40.5 -29.5 -66.5 -29.5c-23.333 0 -45 8.33301 -65 25s-32 35.667 -36 57
c-10.667 59.333 -18.834 98.833 -24.501 118.5s-18.667 38.667 -39 57s-52.5 30.833 -96.5 37.5v-494c67.333 -38 125.666 -75.5 174.999 -112.5s89.666 -73.667 120.999 -110s55.166 -74.666 71.499 -114.999s24.5 -81.833 24.5 -124.5c0 -62 -14 -119 -42 -171
s-71.167 -96.667 -129.5 -134s-131.833 -64.666 -220.5 -81.999v-201h-114v201c-116.667 4 -209 31.833 -277 83.5s-102 112.5 -102 182.5c0 30.667 9.66699 55.334 29 74.001s42.333 28 69 28c24.667 0 44.667 -5.33301 60 -16s27.833 -25 37.5 -43s19.667 -42.667 30 -74
s19.166 -60.666 26.499 -87.999c5.33301 -16.667 19.166 -34 41.499 -52s50.833 -30 85.5 -36v571c-122 69.333 -211.167 138 -267.5 206s-84.5 142 -84.5 222c0 56 13.5 108.667 40.5 158s67 90.833 120 124.5s116.833 54.834 191.5 63.501v58zM266.007 48.9961
c-20.667 22 -37.334 41 -50.001 57s-23.5 33.5 -32.5 52.5s-13.5 37.833 -13.5 56.5c0 17.333 6.83301 32.5 20.5 45.5s32.167 18.167 55.5 15.5c-20 24.667 -42 37 -66 37c-19.333 0 -35 -6.5 -47 -19.5s-18 -29.5 -18 -49.5c0 -28.667 6.83301 -55 20.5 -79
s31.334 -45 53.001 -63s47.5 -35.667 77.5 -53zM575.007 540.996v-498.003c41.333 6.66699 77.5 19.834 108.5 39.501s54.833 44.834 71.5 75.501s25 64.667 25 102c0 58.667 -17.167 108.834 -51.5 150.501s-85.5 85.167 -153.5 130.5zM723.007 71.9932
c47.333 33.333 82.666 67.334 105.999 102.001s35 77 35 127c0 47.333 -9.66699 89 -29 125s-48.333 70.833 -87 104.5s-84 67.167 -136 100.5l-239 151c-56 36 -100 80 -132 132s-48 105.667 -48 161c0 31.333 4.5 60.5 13.5 87.5s20.5 50.5 34.5 70.5s33.333 42.333 58 67
c-48.667 -31.333 -87.167 -67.833 -115.5 -109.5s-42.5 -91.834 -42.5 -150.501c0 -64 17.333 -121 52 -171s86 -99 154 -147s168 -112.667 300 -194c34.667 -21.333 64.334 -46.333 89.001 -75s43.667 -60 57 -94s20 -67.667 20 -101c0 -71.333 -30 -133.333 -90 -186z
M461.007 902.994v420.002c-60.667 -12 -106.667 -34 -138 -66s-47 -70.667 -47 -116c0 -44.667 14.333 -84.834 43 -120.501s76 -74.834 142 -117.501zM715.007 1280c16.667 -27.333 29.3311 -62.667 37.998 -106s16.667 -72.666 24 -87.999s25.333 -23 54 -23
c39.333 0 62 20.333 68 61c-2 -0.666992 -6.66699 -2.5 -14 -5.5s-13.666 -4.5 -18.999 -4.5c-17.333 0 -30.666 4.66699 -39.999 14s-20.166 27 -32.499 53s-23.833 46.667 -34.5 62s-25.334 27.666 -44.001 36.999z" />
    <glyph glyph-name="percent" unicode="%" horiz-adv-x="1942" 
d="M553 -51h-109l942 1493h105zM1888 322c0 -72 -16.998 -136.999 -50.998 -194.999s-82.5 -102.833 -145.5 -134.5s-136.833 -47.5 -221.5 -47.5c-86 0 -160.167 15.833 -222.5 47.5s-110 76.167 -143 133.5s-49.5 123.333 -49.5 198c0 73.333 16.833 138.833 50.5 196.5
s81.834 102 144.501 133s134.667 46.5 216 46.5c67.333 0 127.666 -9.33301 180.999 -28s97.666 -44.667 132.999 -78s62.166 -73.333 80.499 -120s27.5 -97.334 27.5 -152.001zM1571 637.001c22 -20 40.333 -45 55 -75s25.5 -65 32.5 -105s10.5 -88 10.5 -144
c0 -52.667 -3.5 -98.667 -10.5 -138s-17.667 -72.833 -32 -100.5s-32.833 -52.5 -55.5 -74.5c54 30.667 94.833 71.334 122.5 122.001s41.5 115 41.5 193c0 53.333 -6.16699 101.333 -18.5 144s-31 79.167 -56 109.5s-54.833 53.166 -89.5 68.499zM1636 309.001
c0 114.667 -13 197.667 -39 249s-67.333 77 -124 77s-97.5 -26 -122.5 -78s-37.5 -131.333 -37.5 -238s12.667 -186.5 38 -239.5s65 -79.5 119 -79.5c110.667 0 166 103 166 309zM1386 659.001c-45.333 -4.66699 -87.1641 -16.999 -125.497 -36.999s-70.5 -45.667 -96.5 -77
s-45.333 -66.333 -58 -105s-19 -77.334 -19 -116.001c0 -56 11.667 -108.833 35 -158.5s57.666 -90.5 102.999 -122.5s99 -50.333 161 -55c-50.667 20.667 -92.834 47.167 -126.501 79.5s-58.834 69.333 -75.501 111s-25 88.5 -25 140.5c0 85.333 19.5 155.5 58.5 210.5
s95.167 98.167 168.5 129.5zM883.004 1063c0 -112 -37.667 -202.501 -113 -271.501s-176.333 -103.5 -303 -103.5c-128.667 0 -230.167 34.5 -304.5 103.5s-111.5 160.167 -111.5 273.5c0 72.667 16.667 137.5 50 194.5s81.5 101 144.5 132s134.833 46.5 215.5 46.5
c88 0 164 -16 228 -48s112.333 -76.167 145 -132.5s49 -121.166 49 -194.499zM567.004 1380c34.667 -30.667 59.834 -71.501 75.501 -122.501s23.5 -117.167 23.5 -198.5c0 -80 -7.83301 -143.167 -23.5 -189.5s-40.834 -86.166 -75.501 -119.499
c108 59.333 162 163 162 311c0 81.333 -13.5 149 -40.5 203s-67.5 92.667 -121.5 116zM633.004 1053c0 114 -13.001 197.333 -39.001 250s-67.667 79 -125 79s-98.666 -26.5 -123.999 -79.5s-38 -132.833 -38 -239.5c0 -105.333 13.333 -185 40 -239s66.667 -81 120 -81
c110.667 0 166 103.333 166 310zM383.003 1401c-62.667 -8 -116.5 -27.666 -161.5 -58.999s-79.167 -71 -102.5 -119s-35 -100 -35 -156c0 -87.333 26.667 -163.5 80 -228.5s126.333 -100.833 219 -107.5c-51.333 21.333 -93.833 48 -127.5 80s-59 69.167 -76 111.5
s-25.5 89.166 -25.5 140.499c0 58 8.83301 108.167 26.5 150.5s43.167 78.5 76.5 108.5s75.333 56.333 126 79z" />
    <glyph glyph-name="ampersand" unicode="&#x26;" horiz-adv-x="1493" 
d="M414 -27c-67.333 0 -127.664 15.832 -180.997 47.499s-95 74.167 -125 127.5s-45 109 -45 167c0 42.667 7.33301 82.5 22 119.5s35.167 71.833 61.5 104.5s60.833 68.667 103.5 108c57.333 54.667 114.666 101 171.999 139c-109.333 119.333 -164 213 -164 281
c0 32.667 13.333 70 40 112s61.334 83.167 104.001 123.5s87.834 73 135.501 98s91.834 37.5 132.501 37.5c36 0 68.667 -7.66699 98 -23s54.666 -35.666 75.999 -60.999s37.833 -51.833 49.5 -79.5s17.5 -53.167 17.5 -76.5c0 -34.667 -11.5 -68.334 -34.5 -101.001
s-49.333 -61 -79 -85s-79.834 -62.333 -150.501 -115c78.667 -87.333 145.5 -168.666 200.5 -243.999s102.833 -144.333 143.5 -207c49.333 64 86.666 120.833 111.999 170.5s38 89.834 38 120.501c0 32.667 -13.5 60.334 -40.5 83.001s-63.5 34 -109.5 34v55h482v-55
c-49.333 -6.66699 -95.833 -28.834 -139.5 -66.501s-87 -85.834 -130 -144.501s-100.833 -142 -173.5 -250l62 -94c42.667 -64.667 76 -108.167 100 -130.5s50.667 -33.5 80 -33.5c52 0 99.667 40.333 143 121l49 -23c-24.667 -60 -52.334 -108.833 -83.001 -146.5
s-64.5 -66 -101.5 -85s-75.833 -28.5 -116.5 -28.5c-52 0 -103.5 20.333 -154.5 61s-97.167 95.667 -138.5 165c-70 -71.333 -145.833 -126.833 -227.5 -166.5s-157.834 -59.5 -228.501 -59.5zM1311 853.999h-207c46.667 -22.667 70 -61 70 -115
c0 -4 -0.833008 -8.66699 -2.5 -14s-2.5 -10 -2.5 -14c38.667 61.333 86 109 142 143zM756.002 1071c27.333 32 41.002 64.666 41.002 97.999c0 28.667 -10.167 57.334 -30.5 86.001s-45.5 52.667 -75.5 72s-58.333 29 -85 29c-17.333 0 -42.666 -7 -75.999 -21
c41.333 -2.66699 79.666 -18.5 114.999 -47.5s63.666 -61.667 84.999 -98s32 -63.5 32 -81.5c0 -6 -0.333008 -10.333 -1 -13s-1.33398 -5.66699 -2.00098 -9zM608.004 937.998c80.667 58.667 120.999 110.669 120.999 156.002c0 22.667 -10.333 51 -31 85
s-46.167 63.5 -76.5 88.5s-59.166 37.5 -86.499 37.5c-31.333 0 -59 -12.333 -83 -37s-36 -49.334 -36 -74.001c0 -18.667 4.83301 -37.334 14.5 -56.001s25.5 -40.5 47.5 -65.5s43 -47.167 63 -66.5zM1333 76c-36.667 -15.333 -69.999 -23.002 -99.999 -23.002
c-50.667 0 -96 14.833 -136 44.5s-74 63.834 -102 102.501l-159 228c-58.667 85.333 -113.167 158.333 -163.5 219l-173 202c-65 74 -109.5 129.833 -133.5 167.5s-36 73.5 -36 107.5c0 14 7.33301 39.333 22 76c-40.667 -50.667 -61 -95.667 -61 -135
c0 -32 12 -66.333 36 -103s68.333 -92.167 133 -166.5l172.5 -202c50.333 -60.333 102.166 -131.166 155.499 -212.499l104.5 -156.5c29 -43.667 57.5 -81.667 85.5 -114s58 -57.5 90 -75.5s66.333 -27 103 -27c56 0 110 22.667 162 68zM836.004 247.998l-71 106.502
l-88.5 127c-25.667 35 -58 76.667 -97 125s-78.5 93.166 -118.5 134.499c-65.333 -56 -112.5 -106.333 -141.5 -151s-43.5 -93.334 -43.5 -146.001c0 -53.333 14.5 -105 43.5 -155s67.5 -90.5 115.5 -121.5s98.333 -46.5 151 -46.5c92 0 175.333 42.333 250 127zM494.004 14
c-102 13.333 -184.5 51.999 -247.5 115.999s-94.5 143 -94.5 237c0 38 4.16699 68.5 12.5 91.5s23.833 57.167 46.5 102.5c-36.667 -38 -65 -75.5 -85 -112.5s-30 -80.833 -30 -131.5c0 -58.667 15.167 -111.667 45.5 -159s69.833 -84.166 118.5 -110.499
s98.667 -39.5 150 -39.5c23.333 0 51.333 2 84 6z" />
    <glyph glyph-name="quotesingle" unicode="'" horiz-adv-x="492" 
d="M119 791v64.998c38.667 18.667 71.167 43.834 97.5 75.501s39.5 65.834 39.5 102.501c0 28.667 -7.33301 54.834 -22 78.501s-34.667 48.167 -60 73.5c-30.667 32 -52 56.667 -64 74s-18 38.333 -18 63c0 30 12.333 56.667 37 80s54 35 88 35
c30 0 59.167 -10.833 87.5 -32.5s51.5 -52.334 69.5 -92.001s27 -83.5 27 -131.5c0 -87.333 -23.5 -164 -70.5 -230s-117.5 -119.667 -211.5 -161zM264 941.998c40 51.333 60 103.332 60 155.999c0 41.333 -9 73.333 -27 96c-54.667 64.667 -86.5 102.667 -95.5 114
s-13.5 22.333 -13.5 33c0 26 13 46.667 39 62h-22c-26 0 -45.833 -8 -59.5 -24s-20.5 -34 -20.5 -54c0 -12.667 3.66699 -25.834 11 -39.501s18.5 -28.5 33.5 -44.5l37.5 -39c54.667 -57.333 82 -110.666 82 -159.999c0 -21.333 -8.33301 -54.666 -25 -99.999z" />
    <glyph glyph-name="parenleft" unicode="(" horiz-adv-x="662" 
d="M612 -453l-36.998 -41.0029c-62.667 34.667 -123.334 82.334 -182.001 143.001s-111.5 132.5 -158.5 215.5s-84.5 175.167 -112.5 276.5s-42 205.333 -42 312c0 73.333 5.16699 143.5 15.5 210.5s25.666 133 45.999 198s44.166 124.5 71.499 178.5
c24 47.333 49.833 90.5 77.5 129.5s56 73.5 85 103.5s57.333 56.333 85 79s65.834 51.334 114.501 86.001l37 -39c-76 -69.333 -142.333 -185.166 -199 -347.499s-85 -349.833 -85 -562.5c0 -96.667 6.16699 -189.5 18.5 -278.5s30.333 -173.667 54 -254
s53.5 -155 89.5 -224s76.667 -130.833 122 -185.5zM508.002 1348c-65.333 -51.333 -122.333 -109.83 -171 -175.497s-90 -137.834 -124 -216.501s-59.167 -160 -75.5 -244s-24.5 -171 -24.5 -261c0 -85.333 8.66699 -167.666 26 -246.999s43.5 -156.833 78.5 -232.5
s76.833 -145.5 125.5 -209.5s103.667 -122.667 165 -176c-62 81.333 -116 161.166 -162 239.499s-85.167 171.666 -117.5 279.999s-48.5 226.166 -48.5 353.499c0 156 28.667 313.5 86 472.5s138 297.833 242 416.5z" />
    <glyph glyph-name="parenright" unicode=")" horiz-adv-x="662" 
d="M84 -494l-35 40.999c56 63.333 105.333 141.166 148 233.499s75.5 195.5 98.5 309.5s34.5 236.333 34.5 367c0 86 -3.66699 165.833 -11 239.5s-17.5 141.5 -30.5 203.5s-29.5 121.5 -49.5 178.5s-39.667 103.167 -59 138.5c-30 54.667 -73.667 116.667 -131 186l45 37
c118 -80 207.333 -163.333 268 -250c34 -46 64.833 -97 92.5 -153s51.167 -114.667 70.5 -176s33.666 -122.666 42.999 -183.999s14 -124.666 14 -189.999c0 -139.333 -21 -274 -63 -404s-100.667 -244.667 -176 -344s-161.666 -177 -258.999 -233zM156 1317
c40 -52.667 75.832 -121.335 107.499 -206.002s56 -182.5 73 -293.5s25.5 -232.5 25.5 -364.5c0 -119.333 -7.83301 -226.333 -23.5 -321s-40.334 -184.334 -74.001 -269.001s-77.5 -169.334 -131.5 -254.001c52 48.667 96.333 102.834 133 162.501
s66.834 124.334 90.501 194.001s41.5 146.667 53.5 231s18 178.5 18 282.5c0 134.667 -10.667 256.334 -32 365.001s-52.666 202.834 -93.999 282.501s-90 143.167 -146 190.5z" />
    <glyph glyph-name="asterisk" unicode="*" horiz-adv-x="961" 
d="M215 924c-64 0 -112.837 10.665 -146.504 31.998s-50.5 52.333 -50.5 93c0 30.667 10.667 56.334 32 77.001s48.333 31 81 31c36.667 0 69.334 -8.33301 98.001 -25s65.834 -43 111.501 -79s83.834 -61.333 114.501 -76c-0.666992 24.667 -5.33398 50.667 -14.001 78
s-20 58.666 -34 93.999s-23.833 63 -29.5 83s-8.5 42 -8.5 66c0 36 10.667 65.167 32 87.5s44.666 33.5 69.999 33.5c32 0 59.5 -11 82.5 -33s34.5 -52.667 34.5 -92c0 -23.333 -2.5 -45.666 -7.5 -66.999s-11.667 -43.666 -20 -66.999l-29 -82.5
c-11 -31.667 -20.167 -65.167 -27.5 -100.5c26.667 10.667 64.667 35 114 73s88.833 65.667 118.5 83s62.834 26 99.501 26c29.333 0 54.333 -10.333 75 -31s31 -45.667 31 -75c0 -40 -17 -70.833 -51 -92.5s-83.333 -32.5 -148 -32.5c-36 1.33301 -73.5 2.5 -112.5 3.5
s-75.167 -2.16699 -108.5 -9.5l132 -97c59.333 -42.667 99.666 -76.334 120.999 -101.001s32 -53 32 -85c0 -26.667 -10.333 -50.667 -31 -72s-45.334 -32 -74.001 -32c-43.333 0 -75.666 16.333 -96.999 49s-42.666 84.5 -63.999 155.5s-41.333 123.5 -60 157.5
c-13.333 -24.667 -28.166 -64 -44.499 -118s-30.833 -97.5 -43.5 -130.5s-29.5 -61 -50.5 -84s-47.833 -34.5 -80.5 -34.5c-29.333 0 -55 10.667 -77 32s-33 47 -33 77c0 36.667 12 67.834 36 93.501s63.333 57 118 94s97.334 68.833 128.001 95.5
c-14.667 4 -37.667 6 -69 6c-13.333 0 -37.333 -0.666992 -72 -2s-60.667 -2 -78 -2zM468.996 976.998h11.999c4 18 6 39 6 63c0 21.333 -4 59.666 -12 114.999s-12 97 -12 125c0 43.333 11.667 78 35 104h-23c-18.667 0 -35.667 -8 -51 -24s-23 -40.667 -23 -74
c0 -20.667 4.33301 -45.167 13 -73.5s16.834 -53.666 24.501 -75.999s14.667 -46.5 21 -72.5s9.5 -52.333 9.5 -79v-8zM515.995 955.998l-0.00390625 -10.001c28 4.66699 58.167 13.667 90.5 27s64.833 28 97.5 44s61.334 28.667 86.001 38s48.667 14 72 14
c14.667 0 30.334 -3.33301 47.001 -10c-2.66699 21.333 -10.834 37.5 -24.501 48.5s-31.5 16.5 -53.5 16.5c-33.333 0 -60.666 -6.66699 -81.999 -20s-57.166 -38.166 -107.499 -74.499s-92.166 -60.833 -125.499 -73.5zM505.991 912.997l-8.00098 -6
c15.333 -28 38.166 -58.667 68.499 -92l79 -85.5c22.333 -23.667 41.5 -48.167 57.5 -73.5s24 -51.333 24 -78l-2 -11c32.667 18 49 42 49 72s-12.667 56.5 -38 79.5s-66.166 55.5 -122.499 97.5s-92.166 74.333 -107.499 97zM462.99 906.997l-8 6.00098
c-24 -22 -47.333 -52.833 -70 -92.5s-41.5 -73.834 -56.5 -102.501s-32.5 -54.5 -52.5 -77.5s-45 -39.833 -75 -50.5c19.333 -16.667 38.333 -25 57 -25c36 0 62.5 15.167 79.5 45.5s36.5 79.5 58.5 147.5s44.333 117.667 67 149zM443.99 943.998l0.000976562 10.002
c-40 18 -93.333 33 -160 45s-115.334 22.667 -146.001 32s-55.667 28 -75 56c-8 -12 -12 -24 -12 -36c0 -26.667 13.333 -48.834 40 -66.501s64 -26.5 112 -26.5c16.667 0 36.5 0.833008 59.5 2.5s46.167 2.5 69.5 2.5c18 0 33.333 -1.16699 46 -3.5
s24.5 -4.83301 35.5 -7.5s21.167 -5.33398 30.5 -8.00098z" />
    <glyph glyph-name="plus" unicode="+" horiz-adv-x="1167" 
d="M40 744h481v480h131v-480h481v-132h-481v-476h-131v476h-481v132z" />
    <glyph glyph-name="comma" unicode="," horiz-adv-x="492" 
d="M98 -438l-0.00195312 54.999c94.667 54.667 142 122.334 142 203.001c0 29.333 -5.5 54.666 -16.5 75.999s-28.167 47.5 -51.5 78.5s-40.166 56.667 -50.499 77s-15.5 43.5 -15.5 69.5c0 30.667 11.333 57 34 79s49.667 33 81 33c34 0 63 -11.667 87 -35
s42.5 -54.5 55.5 -93.5s19.5 -79.167 19.5 -120.5c0 -57.333 -12.167 -114.166 -36.5 -170.499s-58.666 -107 -102.999 -152s-92.833 -78.167 -145.5 -99.5zM257.998 183.999c-20 10 -34.334 15 -43.001 15c-22 0 -40.167 -7.5 -54.5 -22.5s-21.5 -34.167 -21.5 -57.5
c0 -24.667 4.33301 -44.334 13 -59.001s25.167 -38.167 49.5 -70.5s42.166 -60.166 53.499 -83.499s17 -52 17 -86c0 -28.667 -10.667 -65 -32 -109c51.333 56 77 113.333 77 172c0 28.667 -5.16699 54 -15.5 76s-22.666 41.833 -36.999 59.5s-28.166 36.167 -41.499 55.5
s-20 37 -20 53c0 15.333 4.5 27 13.5 35s22.833 15.333 41.5 22z" />
    <glyph glyph-name="hyphen" unicode="-" horiz-adv-x="768" 
d="M106 535h556v-193h-556v193zM629 377v63h-490v-63h490z" />
    <glyph glyph-name="period" unicode="." horiz-adv-x="492" 
d="M252 227c34.667 0 64.1689 -12.502 88.502 -37.502s36.5 -54.833 36.5 -89.5c0 -23.333 -5.83301 -44.666 -17.5 -63.999s-27 -34.666 -46 -45.999s-39.5 -17 -61.5 -17c-34.667 0 -63.834 12.5 -87.501 37.5s-35.5 54.833 -35.5 89.5c0 35.333 11.667 65.333 35 90
s52.666 37 87.999 37zM272.002 15.998c-15.333 15.333 -26.333 28.832 -33 40.499s-10 27.5 -10 47.5c0 22.667 3.33301 39.834 10 51.501s17.667 23.167 33 34.5c-5.33301 2 -13.333 3 -24 3c-22 0 -41.833 -8.83301 -59.5 -26.5s-26.5 -39.167 -26.5 -64.5
c0 -24 8.66699 -44.667 26 -62s36.666 -26 57.999 -26c10.667 0 19.334 0.666992 26.001 2z" />
    <glyph glyph-name="slash" unicode="/" horiz-adv-x="1087" 
d="M117 -37l717 1462h137l-717 -1462h-137z" />
    <glyph glyph-name="zero" unicode="0" horiz-adv-x="1044" 
d="M51 694c0 154 19.168 286.83 57.501 398.497s93.5 197.167 165.5 256.5s155.333 89 250 89c75.333 0 142.166 -16.667 200.499 -50s108.333 -82.166 150 -146.499s73.167 -141.666 94.5 -231.999s32 -192.833 32 -307.5c0 -149.333 -19.5 -279.166 -58.5 -389.499
s-94.333 -194.5 -166 -252.5s-155.834 -87 -252.501 -87c-72 0 -137.5 17 -196.5 51s-109.167 83 -150.5 147s-72.666 139.833 -93.999 227.5s-32 186.167 -32 295.5zM369.001 1368c-64.667 -34 -118 -81.6689 -160 -143.002s-73.333 -136 -94 -224s-31 -191 -31 -309
c0 -82.667 5.83301 -158.667 17.5 -228s29.5 -131.666 53.5 -186.999s53.5 -102.333 88.5 -141s76.833 -71.667 125.5 -99c-146 162.667 -219 381.667 -219 657c0 146.667 18 275.834 54 387.501s91 207.167 165 286.5zM309.001 716.995c0 -158 7 -287.165 21 -387.498
s37 -175.5 69 -225.5s74.333 -75 127 -75c53.333 0 96.5 25.167 129.5 75.5s57 125.666 72 225.999s22.5 227.166 22.5 380.499c0 230.667 -18 400.167 -54 508.5s-94.667 162.5 -176 162.5c-70.667 0 -123.5 -55.333 -158.5 -166s-52.5 -277 -52.5 -499zM637.001 1374
c37.333 -34 66.332 -76.501 86.999 -127.501s35.5 -118.333 44.5 -202s13.5 -192.834 13.5 -327.501c0 -128 -3.66699 -233.5 -11 -316.5s-20.333 -152.667 -39 -209s-44.334 -103.833 -77.001 -142.5c74.667 50.667 126.5 126.334 155.5 227.001s43.5 238.667 43.5 414
c0 98 -3.5 182 -10.5 252s-19.167 132.833 -36.5 188.5s-39.666 103.334 -66.999 143.001s-61.666 73.167 -102.999 100.5z" />
    <glyph glyph-name="one" unicode="1" horiz-adv-x="874" 
d="M557 1438l0.000976562 -1170c0 -45.333 1.33301 -79.166 4 -101.499s9 -41.166 19 -56.499s27 -27 51 -35s58 -14.667 102 -20v-55h-581v55c47.333 3.33301 83 10 107 20s41.5 26 52.5 48s16.5 52.667 16.5 92v29v831c0 52 -14.333 87.333 -43 106s-73 30.667 -133 36v73
c92.667 4.66699 165.167 19.167 217.5 43.5s97.166 59.166 134.499 104.499h53zM360.001 1047l-0.000976562 -785.001c0 -72 -5.66699 -119.667 -17 -143s-33.666 -44.666 -66.999 -63.999c64.667 2.66699 105.834 18 123.501 46s26.5 71.333 26.5 130v850
c0 54 -11.5 94.833 -34.5 122.5s-53.167 41.5 -90.5 41.5c-10 0 -21.5 -1.16699 -34.5 -3.5s-21.833 -3.83301 -26.5 -4.5c51.333 -11.333 84.166 -31.5 98.499 -60.5s21.5 -72.167 21.5 -129.5z" />
    <glyph glyph-name="two" unicode="2" horiz-adv-x="1044" 
d="M309 209l328 -0.00292969c54 0 98.333 3.16699 133 9.5s64.334 17.666 89.001 33.999s49 40.166 73 71.499h61l-131 -324h-780v43l234 265c72 82 135.333 160.5 190 235.5s99 151.833 133 230.5s51 156 51 232c0 56.667 -11 107.334 -33 152.001s-52 79.5 -90 104.5
s-80.333 37.5 -127 37.5c-59.333 0 -112 -19 -158 -57s-79.333 -93.333 -100 -166h-61c61.333 240.667 204.666 361 429.999 361c73.333 0 139 -15.167 197 -45.5s102.833 -71.166 134.5 -122.499s47.5 -106.666 47.5 -165.999c0 -84 -23.167 -168.167 -69.5 -252.5
s-106.5 -168.166 -180.5 -251.499s-197.667 -213.666 -371 -390.999zM186 73.9971l-31.999 -38.999h493c70.667 0 120.5 9 149.5 27s53.5 51.333 73.5 100c-30.667 -20.667 -59.834 -35.834 -87.501 -45.501s-71.5 -14.5 -131.5 -14.5h-377c-30 0 -49 -1.5 -57 -4.5
s-18.333 -10.833 -31 -23.5zM539.001 527.998c52 51.333 97.001 105 135.001 161s67 112.333 87 169s30 111.334 30 164.001c0 61.333 -12.167 118.666 -36.5 171.999s-58.166 95.333 -101.499 126s-92.333 46 -147 46c-44.667 0 -89.667 -12.333 -135 -37c14 4 33 6 57 6
c44.667 0 85.667 -8.66699 123 -26s68.666 -41 93.999 -71s44.666 -64.667 57.999 -104s20 -80 20 -122c0 -81.333 -15.667 -159.833 -47 -235.5s-77 -158.5 -137 -248.5z" />
    <glyph glyph-name="three" unicode="3" horiz-adv-x="1044" 
d="M909 461c0 -78.667 -21.832 -155.997 -65.499 -231.997s-104.5 -137.667 -182.5 -185s-165.333 -71 -262 -71c-55.333 0 -104.5 10.167 -147.5 30.5s-76.5 45.666 -100.5 75.999s-36 60.5 -36 90.5c0 26 10.167 49.5 30.5 70.5s44.166 31.5 71.499 31.5
c20 0 38.5 -5.33301 55.5 -16s30.5 -25.667 40.5 -45c25.333 -46.667 44.166 -79.834 56.499 -99.501s27.5 -36.667 45.5 -51s39.333 -21.5 64 -21.5c56 0 104.5 27.333 145.5 82s61.5 128.334 61.5 221.001c0 60.667 -11.667 115.667 -35 165s-56.333 91.5 -99 126.5
s-93.667 62.167 -153 81.5c16.667 11.333 32 22.833 46 34.5l43 37.5c14.667 13.333 30.667 29 48 47l37 38c21.333 21.333 39 50.166 53 86.499s21 72.5 21 108.5c0 60.667 -20.167 110 -60.5 148s-87.166 57 -140.499 57c-41.333 0 -84.333 -14 -129 -42
s-89.667 -69.333 -135 -124l-41 35c38.667 60.667 83 113.334 133 158.001s103.167 79 159.5 103s113.833 36 172.5 36c49.333 0 93.833 -11 133.5 -33s71 -51.833 94 -89.5s34.5 -78.834 34.5 -123.501c0 -34.667 -8.66699 -70.334 -26 -107.001s-42.833 -74 -76.5 -112
s-77.167 -78.333 -130.5 -121c84.667 -31.333 151.5 -83 200.5 -155s73.5 -150.667 73.5 -236zM338.001 1278l31.001 12.501c10.667 4.33301 23 8.16602 37 11.499s29 5 45 5c65.333 0 119.833 -23.5 163.5 -70.5s65.5 -104.167 65.5 -171.5
c0 -45.333 -14.333 -97.333 -43 -156c61.333 68.667 92 140.334 92 215.001c0 63.333 -20.833 116.166 -62.5 158.499s-94.5 63.5 -158.5 63.5c-33.333 0 -61.333 -5.33301 -84 -16s-51.334 -28 -86.001 -52zM489.002 745.004l-23.999 -22
c169.333 -82.667 254 -209.667 254 -381c0 -44 -4.33301 -82.333 -13 -115s-21.334 -66.667 -38.001 -102c36 38 63 77.833 81 119.5s27 89.167 27 142.5c0 56 -10.833 107.5 -32.5 154.5s-47.5 86.167 -77.5 117.5s-59.167 56 -87.5 74s-48.5 27 -60.5 27
c-9.33301 0 -19 -5 -29 -15zM281.003 203.004c-28 23.333 -50.002 34.999 -66.002 34.999s-31.333 -6.83301 -46 -20.5s-22 -31.5 -22 -53.5c0 -24.667 8.33301 -47 25 -67s43.334 -42 80.001 -66l-25 43.5c-5.33301 9 -9.66602 18.833 -12.999 29.5s-5 22.334 -5 35.001
c0 42.667 24 64 72 64z" />
    <glyph glyph-name="four" unicode="4" horiz-adv-x="1044" 
d="M721 473v-500h-229v500h-457v66l639 899h47v-869h297v-96h-297zM524 8h66v1215l-66 -93v-1122zM127 569h365v514z" />
    <glyph glyph-name="five" unicode="5" horiz-adv-x="1044" 
d="M893 1438l-0.00488281 -22.999c0 -66.667 -5.5 -120.334 -16.5 -161.001s-31 -71.5 -60 -92.5s-69.833 -31.5 -122.5 -31.5c-10 0 -37.667 1.5 -83 4.5s-90 4.5 -134 4.5c-56 0 -106.333 -3.66699 -151 -11l-21 -235c41.333 2.66699 68 4 80 4
c78.667 0 151.167 -10.833 217.5 -32.5s123.5 -53.167 171.5 -94.5s84.667 -89.5 110 -144.5s38 -116.833 38 -185.5c0 -84.667 -21.333 -163 -64 -235s-101.834 -128.667 -177.501 -170s-161.167 -62 -256.5 -62c-61.333 0 -115.666 9 -162.999 27
s-83.166 41.833 -107.499 71.5s-36.5 60.5 -36.5 92.5c0 26 9.5 48.5 28.5 67.5s41.5 28.5 67.5 28.5c18.667 0 37.834 -6 57.501 -18s33.834 -26.333 42.501 -43c33.333 -61.333 60.5 -103.333 81.5 -126s53.5 -34 97.5 -34c66.667 0 123.834 26.5 171.501 79.5
s71.5 119.167 71.5 198.5c0 102.667 -36.667 185.834 -110 249.501s-166.333 95.5 -279 95.5c-20.667 0 -42 -1.16699 -64 -3.5l-51 -5.5l43 697c53.333 9.33301 115 14 185 14c34.667 0 77.334 -0.666992 128.001 -2s83 -2 97 -2c44 0 75.667 1.5 95 4.5
s34.5 10.167 45.5 21.5s16.833 28.666 17.5 51.999h51zM325.995 1231v-64.0029c30 4.66699 66.667 7 110 7c38.667 0 82.5 -1.5 131.5 -4.5s83.833 -4.5 104.5 -4.5c54.667 0 92.5 7.83301 113.5 23.5s34.167 40.834 39.5 75.501c-46.667 -20.667 -99.667 -31 -159 -31
c-18 0.666992 -38 1.33398 -60 2.00098s-41.5 1.33398 -58.5 2.00098s-31.167 1.16699 -42.5 1.5s-28 0.5 -50 0.5c-59.333 0 -102.333 -2.66699 -129 -8zM294.995 753.998l0.000976562 -57.999h39c68.667 0 130.167 -9.83301 184.5 -29.5s99.666 -46.834 135.999 -81.501
s64.333 -74.834 84 -120.501s29.5 -93.167 29.5 -142.5c0 -76 -26 -151.333 -78 -226c83.333 85.333 125 177 125 275c0 70.667 -20.5 135.834 -61.5 195.501s-97 106.5 -168 140.5s-146.833 51 -227.5 51c-20.667 0 -41.667 -1.33301 -63 -4zM265.996 204.999
c-18.667 13.333 -37.667 19.998 -57 19.998c-18 0 -32.333 -6.16699 -43 -18.5s-16 -27.833 -16 -46.5c0 -58.667 48.333 -106 145 -142c-29.333 29.333 -50.333 53.333 -63 72s-19 36.334 -19 53.001c0 14.667 4.5 27.334 13.5 38.001s22.167 18.667 39.5 24z" />
    <glyph glyph-name="six" unicode="6" horiz-adv-x="1044" 
d="M834 1438l-0.000976562 -60.001c-81.333 -15.333 -155.666 -47.666 -222.999 -96.999s-123.833 -112.666 -169.5 -189.999s-79.5 -166 -101.5 -266c76 52 156.667 78 242 78c58.667 0 113.5 -10.833 164.5 -32.5s95.833 -52.334 134.5 -92.001s69.167 -87.5 91.5 -143.5
s33.5 -117.333 33.5 -184c0 -90.667 -20.167 -172.334 -60.5 -245.001s-95.833 -129.667 -166.5 -171s-149.334 -62 -236.001 -62c-92.667 0 -175.667 24.833 -249 74.5s-130.5 119.667 -171.5 210s-61.5 194.833 -61.5 313.5c0 113.333 13 213.833 39 301.5
s67.667 168.834 125 243.501c48.667 63.333 105.334 119 170.001 167s134 85.167 208 111.5s151 40.833 231 43.5zM663.999 1380c-80.667 -24.667 -151.999 -56.1689 -213.999 -94.502s-122.667 -94.833 -182 -169.5c-116 -148.667 -174 -324 -174 -526
c0 -191.333 50 -343.666 150 -456.999c31.333 -35.333 57.5 -59 78.5 -71s54.833 -27.333 101.5 -46c-59.333 42.667 -108.5 91.334 -147.5 146.001s-68.167 117.5 -87.5 188.5s-29 149.5 -29 235.5c0 114 20 222 60 324s97.667 193 173 273s165.666 145.667 270.999 197z
M307 470.997c0 -73.333 5.5 -137.001 16.5 -191.001s27.333 -100.333 49 -139s46.5 -67 74.5 -85s59.333 -27 94 -27c38.667 0 73.5 14.833 104.5 44.5s55.833 75.334 74.5 137.001s28 135.5 28 221.5c0 130 -20.833 228.667 -62.5 296s-99.5 101 -173.5 101
c-64.667 0 -115 -30.833 -151 -92.5s-54 -150.167 -54 -265.5zM567 851.996c51.333 -18.667 92.5 -44.833 123.5 -78.5s53.667 -79.167 68 -136.5s21.5 -129.666 21.5 -216.999c0 -66 -4.5 -122.333 -13.5 -169s-21.833 -86 -38.5 -118s-39.667 -62 -69 -90
c64 31.333 111.167 79.166 141.5 143.499s45.5 149.5 45.5 255.5c0 128 -23 225.333 -69 292s-116 106 -210 118z" />
    <glyph glyph-name="seven" unicode="7" horiz-adv-x="1044" 
d="M817 1135l-448.002 0.000976562c-54 0 -94.833 -4.33301 -122.5 -13s-50.5 -23.834 -68.5 -45.501s-37.667 -55.5 -59 -101.5h-58l166 463h56c6.66699 -36 22.667 -58.667 48 -68s72 -14 140 -14h510c-30.667 -64 -57.167 -122.5 -79.5 -175.5
s-45.666 -112.667 -69.999 -179l-55.5 -154.5l-55 -159l-121.5 -353c-34.333 -99.333 -61.5 -173 -81.5 -221s-39.833 -83.5 -59.5 -106.5s-42.167 -34.5 -67.5 -34.5c-19.333 0 -34.666 6.83301 -45.999 20.5s-17 29.5 -17 47.5c0 18.667 5.5 40 16.5 64l83.5 178l141 296
l116 255l82 187zM333.998 1169h400.998c30.667 0 52.334 0.833008 65.001 2.5s24 7 34 16s20.667 24.167 32 45.5h-491c-5.33301 0.666992 -10.666 1.16699 -15.999 1.5s-11 0.5 -17 0.5c-44.667 0 -79.167 -8 -103.5 -24s-45.833 -43.667 -64.5 -83
c50.667 27.333 104 41 160 41z" />
    <glyph glyph-name="eight" unicode="8" horiz-adv-x="1044" 
d="M123 1069c0 64.667 17.166 125.5 51.499 182.5s81.666 102.333 141.999 136s128.166 50.5 203.499 50.5c73.333 0 139.333 -15.5 198 -46.5s103.834 -72.167 135.501 -123.5s47.5 -105.333 47.5 -162c0 -47.333 -9.5 -88.833 -28.5 -124.5s-46.833 -68.334 -83.5 -98.001
s-80 -57.167 -130 -82.5c96.667 -62.667 172.834 -126.5 228.501 -191.5s83.5 -145.833 83.5 -242.5c0 -70.667 -20.167 -136.167 -60.5 -196.5s-95.5 -108 -165.5 -143s-147.667 -52.5 -233 -52.5c-81.333 0 -154.166 16.167 -218.499 48.5s-114 75.833 -149 130.5
s-52.5 112.667 -52.5 174c0 142 97.667 264 293 366c-88 62.667 -153.667 122.834 -197 180.501s-65 122.5 -65 194.5zM607.999 840c37.333 24.667 66.832 48.168 88.499 70.501s39 50.166 52 83.499s19.5 72.666 19.5 117.999c0 56.667 -11 105.334 -33 146.001
s-52.5 71.5 -91.5 92.5s-81.5 31.5 -127.5 31.5c-62.667 0 -116.5 -17 -161.5 -51s-67.5 -79.667 -67.5 -137c0 -34 7 -65.833 21 -95.5s34 -57.5 60 -83.5s55.833 -50.833 89.5 -74.5s83.834 -57.167 150.501 -100.5zM255.998 1303
c-66.667 -64.667 -99.999 -143.999 -99.999 -237.999c0 -78 27.667 -145.833 83 -203.5s138.5 -124.167 249.5 -199.5s193.5 -140.5 247.5 -195.5s81 -119.833 81 -194.5c0 -76 -36 -148.333 -108 -217c104.667 57.333 157 139.333 157 246c0 60 -19.833 118.5 -59.5 175.5
s-96.834 110.5 -171.501 160.5l-202.5 142.5c-53 38.333 -96.833 74.666 -131.5 108.999s-60.667 69.5 -78 105.5s-26 76 -26 120c0 54.667 19.667 117.667 59 189zM433.999 657.002c-61.333 -37.333 -108.998 -80.832 -142.998 -130.499s-51 -115.834 -51 -198.501
c0 -92 26.5 -164.5 79.5 -217.5s121.167 -79.5 204.5 -79.5c46 0 89 10 129 30s71.833 47.667 95.5 83s35.5 75.333 35.5 120c0 46 -9.83301 87 -29.5 123s-45.334 68.5 -77.001 97.5s-68.834 57.5 -111.501 85.5z" />
    <glyph glyph-name="nine" unicode="9" horiz-adv-x="1044" 
d="M209 -27l-0.00195312 55.9951c90.667 18.667 168.334 51.667 233.001 99s118 109.833 160 187.5s76.333 171.834 103 282.501c-39.333 -30 -79.166 -51.167 -119.499 -63.5s-87.5 -18.5 -141.5 -18.5c-74.667 0 -143 18.5 -205 55.5s-110.833 88.833 -146.5 155.5
s-53.5 143 -53.5 229c0 94.667 20.333 178.834 61 252.501s96.5 130.334 167.5 170.001s148.5 59.5 232.5 59.5c71.333 0 136.833 -15.167 196.5 -45.5s111.167 -73.666 154.5 -129.999s76.833 -122.166 100.5 -197.499s35.5 -159.333 35.5 -252
c0 -123.333 -21.667 -236.5 -65 -339.5s-102.333 -192.333 -177 -268s-158.667 -133.5 -252 -173.5s-188 -59.667 -284 -59zM445.998 93.9951c64 27.333 120.334 63.8301 169.001 109.497s89.667 101.167 123 166.5s58.666 140.666 75.999 225.999s26 179 26 281
c0 65.333 -4 124 -12 176s-20.667 98.667 -38 140s-39 76.333 -65 105s-57.333 51.334 -94 68.001c54 -53.333 91 -113.166 111 -179.499s30 -153.166 30 -260.499c0 -194.667 -27 -361.667 -81 -501s-135.667 -249.666 -245 -330.999zM294.999 970.992
c0 -126.667 20.501 -223.166 61.501 -289.499s96.833 -99.5 167.5 -99.5c67.333 0 120 31.667 158 95s57 155.666 57 276.999c0 90 -10.333 167.5 -31 232.5s-48.834 113.833 -84.501 146.5s-75.5 49 -119.5 49c-40 0 -75.833 -15.167 -107.5 -45.5
s-56.5 -76.5 -74.5 -138.5s-27 -137.667 -27 -227zM369 552.993c-156 94 -234 232.667 -234 416c0 162 69.667 299 209 411c-89.333 -36.667 -157 -92.667 -203 -168s-69 -160 -69 -254c0 -61.333 10.667 -119.5 32 -174.5s49.333 -99.833 84 -134.5
c42.667 -40.667 103 -72.667 181 -96z" />
    <glyph glyph-name="colon" unicode=":" horiz-adv-x="492" 
d="M252 227c34.667 0 64.1689 -12.502 88.502 -37.502s36.5 -54.833 36.5 -89.5c0 -23.333 -5.83301 -44.666 -17.5 -63.999s-27 -34.666 -46 -45.999s-39.5 -17 -61.5 -17c-34.667 0 -63.834 12.5 -87.501 37.5s-35.5 54.833 -35.5 89.5c0 35.333 11.667 65.333 35 90
s52.666 37 87.999 37zM272.002 15.998c-15.333 15.333 -26.333 28.832 -33 40.499s-10 27.5 -10 47.5c0 22.667 3.33301 39.834 10 51.501s17.667 23.167 33 34.5c-5.33301 2 -13.333 3 -24 3c-22 0 -41.833 -8.83301 -59.5 -26.5s-26.5 -39.167 -26.5 -64.5
c0 -24 8.66699 -44.667 26 -62s36.666 -26 57.999 -26c10.667 0 19.334 0.666992 26.001 2zM252.002 861.997c21.333 0 41.667 -5.16602 61 -15.499s34.833 -24.833 46.5 -43.5s17.5 -39.334 17.5 -62.001s-5.66699 -43.5 -17 -62.5s-26.666 -34.167 -45.999 -45.5
s-40 -17 -62 -17c-34.667 0 -63.834 12.167 -87.501 36.5s-35.5 53.833 -35.5 88.5c0 34 12 62.667 36 86s53 35 87 35zM272.003 652.998c-15.333 15.333 -26.335 28.833 -33.002 40.5s-10 26.834 -10 45.501c0 20 3.5 36 10.5 48s17.833 24 32.5 36
c-10.667 2.66699 -18.667 4 -24 4c-22 0 -41.833 -8.83301 -59.5 -26.5s-26.5 -38.834 -26.5 -63.501c0 -23.333 8.83301 -43.5 26.5 -60.5s36.834 -25.5 57.501 -25.5c10.667 0 19.334 0.666992 26.001 2z" />
    <glyph glyph-name="semicolon" unicode=";" horiz-adv-x="492" 
d="M98 -438l-0.00195312 54.999c94.667 54.667 142 122.334 142 203.001c0 29.333 -5.5 54.666 -16.5 75.999s-28.167 47.5 -51.5 78.5s-40.166 56.667 -50.499 77s-15.5 43.5 -15.5 69.5c0 30.667 11.333 57 34 79s49.667 33 81 33c34 0 63 -11.667 87 -35
s42.5 -54.5 55.5 -93.5s19.5 -79.167 19.5 -120.5c0 -57.333 -12.167 -114.166 -36.5 -170.499s-58.666 -107 -102.999 -152s-92.833 -78.167 -145.5 -99.5zM257.998 183.999c-20 10 -34.334 15 -43.001 15c-22 0 -40.167 -7.5 -54.5 -22.5s-21.5 -34.167 -21.5 -57.5
c0 -24.667 4.33301 -44.334 13 -59.001s25.167 -38.167 49.5 -70.5s42.166 -60.166 53.499 -83.499s17 -52 17 -86c0 -28.667 -10.667 -65 -32 -109c51.333 56 77 113.333 77 172c0 28.667 -5.16699 54 -15.5 76s-22.666 41.833 -36.999 59.5s-28.166 36.167 -41.499 55.5
s-20 37 -20 53c0 15.333 4.5 27 13.5 35s22.833 15.333 41.5 22zM249.997 861.999c22 0 42.6689 -5.16699 62.002 -15.5s34.666 -24.833 45.999 -43.5s17 -39.334 17 -62.001s-5.66699 -43.5 -17 -62.5s-26.5 -34.167 -45.5 -45.5s-39.833 -17 -62.5 -17
c-34 0 -63.333 12 -88 36s-37 53.667 -37 89c0 22.667 5.66699 43.334 17 62.001s26.666 33.167 45.999 43.5s40 15.5 62 15.5zM269.999 652.999c-15.333 15.333 -26.335 28.8311 -33.002 40.498s-10 26.834 -10 45.501c0 20 3.5 36 10.5 48s17.833 24 32.5 36
c-13.333 2.66699 -20.666 4 -21.999 4c-21.333 0 -40.666 -8.66699 -57.999 -26s-26 -38.666 -26 -63.999c0 -22.667 8.33301 -42.667 25 -60s35.667 -26 57 -26c9.33301 0 17.333 0.666992 24 2z" />
    <glyph glyph-name="less" unicode="&#x3c;" horiz-adv-x="1167" 
d="M1133 185l-1092 446v81l1092 451v-138l-845 -353l845 -347v-140z" />
    <glyph glyph-name="equal" unicode="=" horiz-adv-x="1167" 
d="M40 904h1094v-130h-1094v130zM40 577h1094v-130h-1094v130z" />
    <glyph glyph-name="greater" unicode="&#x3e;" horiz-adv-x="1167" 
d="M41 1163l1092 -445v-82l-1092 -451v139l845 352l-845 347v140z" />
    <glyph glyph-name="question" unicode="?" horiz-adv-x="662" 
d="M260 1446c43.333 0 86.834 -10.667 130.501 -32s83.834 -53.333 120.501 -96s65.167 -93.5 85.5 -152.5s30.5 -124.5 30.5 -196.5c0 -113.333 -30.333 -199 -91 -257s-149.334 -87 -266.001 -87v-263h-59v490c101.333 4.66699 165.333 12 192 22
c51.333 17.333 90.5 42.5 117.5 75.5s40.5 72.167 40.5 117.5c0 54 -18.333 98.5 -55 133.5s-80.334 52.5 -131.001 52.5c-15.333 0 -38.333 -1.66699 -69 -5s-50.667 -5 -60 -5c-36 0 -64.5 10.167 -85.5 30.5s-31.5 42.833 -31.5 67.5c0 28 11.833 52.5 35.5 73.5
s55.5 31.5 95.5 31.5zM270.001 817l-0.000976562 -67h9c93.333 0 168.333 23 225 69s86 111 88 195c-43.333 -125.333 -150.666 -191 -321.999 -197zM344 1284c-78 14.667 -117.002 40.001 -117.002 76.001c0 12.667 3.83301 22.167 11.5 28.5s21.167 13.833 40.5 22.5
c-4 0.666992 -7.66699 1.16699 -11 1.5s-8 0.5 -14 0.5c-24.667 0 -46.167 -6.66699 -64.5 -20s-27.5 -31.333 -27.5 -54c0 -19.333 8.83301 -34.333 26.5 -45s40.167 -16 67.5 -16c6.66699 0 17.334 0.666992 32.001 2s33.334 2.66602 56.001 3.99902zM243.998 231.001
c21.333 0 41.835 -5.83301 61.502 -17.5s35.167 -27.334 46.5 -47.001s17 -41.167 17 -64.5c0 -35.333 -12.167 -65.666 -36.5 -90.999s-53.833 -38 -88.5 -38s-63.834 12.5 -87.501 37.5s-35.5 55.5 -35.5 91.5s11.667 66.5 35 91.5s52.666 37.5 87.999 37.5zM260 195.001
c-5.33301 1.33301 -12 1.99902 -20 1.99902c-22 0 -41.833 -9.16699 -59.5 -27.5s-26.5 -40.166 -26.5 -65.499c0 -26 9.33301 -47.167 28 -63.5s44.667 -25.166 78 -26.499c-26 32.667 -39 62.667 -39 90c0 31.333 13 61.666 39 90.999z" />
    <glyph glyph-name="at" unicode="@" horiz-adv-x="1704" 
d="M950 163c-38.667 -54.667 -80.1621 -95.998 -124.495 -123.998s-85.5 -42 -123.5 -42c-80 0 -147.333 36.333 -202 109c-66 88 -99 201.333 -99 340c0 112 23.667 221.167 71 327.5s103.333 184.666 168 234.999s128 75.5 190 75.5c45.333 0 89.666 -15.333 132.999 -46
s80.666 -76.667 111.999 -138l27 155h148l-119 -671c-16 -92.667 -24 -144.334 -24 -155.001c0 -19.333 5.66699 -35.166 17 -47.499s24.666 -18.5 39.999 -18.5c29.333 0 71 23.333 125 70s99.333 114.5 136 203.5s55 183.167 55 282.5c0 118.667 -25.667 226 -77 322
s-122.166 171 -212.499 225s-188.5 81 -294.5 81c-126 0 -240 -34 -342 -102s-184.833 -169.167 -248.5 -303.5s-95.5 -287.833 -95.5 -460.5c0 -162.667 28.667 -301 86 -415s139.166 -200.667 245.499 -260s232.5 -89 378.5 -89c131.333 0 246.833 27.5 346.5 82.5
s175.5 128.167 227.5 219.5h148c-32.667 -80.667 -86.5 -157.834 -161.5 -231.501s-157.833 -128.5 -248.5 -164.5s-195 -54 -313 -54c-172.667 0 -319.334 34.667 -440.001 104s-215.834 171.5 -285.501 306.5s-104.5 297.5 -104.5 487.5c0 202 38.333 385 115 549
s173.5 284.5 290.5 361.5s253.5 115.5 409.5 115.5c130.667 0 248.167 -32 352.5 -96s188 -156.833 251 -278.5s94.5 -256.167 94.5 -403.5c0 -200 -58 -375.667 -174 -527c-98 -128 -204.667 -192 -320 -192c-54.667 0 -93.5 13.5 -116.5 40.5s-36.833 69.167 -41.5 126.5z
M553.005 434.002c0 -92 18.167 -163.166 54.5 -213.499s77.166 -75.5 122.499 -75.5c38.667 0 81.334 19.5 128.001 58.5s86.667 99.833 120 182.5s50 169.667 50 261c0 93.333 -18.667 164.666 -56 213.999s-82.333 74 -135 74c-40.667 0 -81.5 -17.333 -122.5 -52
s-78.167 -96.667 -111.5 -186s-50 -177 -50 -263z" />
    <glyph glyph-name="A" unicode="A" horiz-adv-x="1493" 
d="M999 246l-112.001 286h-473l-66 -170c-17.333 -43.333 -26 -88.333 -26 -135c0 -44.667 14.167 -84 42.5 -118s67.833 -52 118.5 -54v-55h-463v55c103.333 15.333 186.666 104.333 249.999 267l346 886c-18 31.333 -37 52.5 -57 63.5s-49.333 18.5 -88 22.5v49l240 82h92
l463 -1181c26.667 -66.667 53.334 -111.834 80.001 -135.501s67.334 -41.5 122.001 -53.5v-55h-594v55c51.333 5.33301 89.833 13.333 115.5 24s38.5 31.334 38.5 62.001c0 26.667 -9.66699 61.667 -29 105zM437.999 596h424l-213 539zM1090 283l-356.999 905.001
c-17.333 45.333 -35.333 77.5 -54 96.5s-44.334 28.5 -77.001 28.5c-19.333 0 -35 -1.33301 -47 -4c32 -12.667 56.167 -30.334 72.5 -53.001s31.833 -53 46.5 -91l354 -905c22 -53.333 33 -95 33 -125c0 -19.333 -3.66699 -33.333 -11 -42s-22 -21.334 -44 -38.001h22
c31.333 0 55.5 8.33301 72.5 25s25.5 36.334 25.5 59.001c0 32.667 -12 80.667 -36 144zM127 55.001l192 -0.000976562c-42 32.667 -63 73.667 -63 123c0 14 0.666992 25 2 33c-18 -33.333 -36.167 -61.666 -54.5 -84.999s-43.833 -47 -76.5 -71z" />
    <glyph glyph-name="B" unicode="B" horiz-adv-x="1430" 
d="M877 0l-816.001 -0.00195312v55h23c62 0 106.5 8.5 133.5 25.5s43.167 39.333 48.5 67s8 72.167 8 133.5v886c0 51.333 -4.16699 89.833 -12.5 115.5s-27.166 44.334 -56.499 56.001s-77.333 17.5 -144 17.5v55h783c69.333 0 133 -9.16699 191 -27.5
s107 -43.666 147 -75.999s71.167 -70.166 93.5 -113.499s33.5 -90.333 33.5 -141c0 -54.667 -14 -104.834 -42 -150.501s-70.667 -84 -128 -115s-127 -52.5 -209 -64.5c134.667 -18 238 -59.833 310 -125.5s108 -147.5 108 -245.5c0 -50.667 -11 -97.5 -33 -140.5
s-53.667 -80.333 -95 -112s-91.333 -56.167 -150 -73.5s-123 -26 -193 -26zM370.999 218.998v1004c0 45.333 -9 78.833 -27 100.5s-51.333 32.5 -100 32.5h-21c32 -9.33301 54 -25.166 66 -47.499s18 -58.5 18 -108.5v-987c0 -50.667 -6.5 -86.667 -19.5 -108
s-34.5 -38 -64.5 -50h29c52 0 84.833 15.5 98.5 46.5s20.5 70.167 20.5 117.5zM523.999 753.997l186.999 -0.00195312c90 0 156 10.667 198 32c38.667 20 69.834 53.833 93.501 101.5s35.5 101.5 35.5 161.5c0 48 -7.5 92.833 -22.5 134.5s-36.167 75.834 -63.5 102.501
c-28.667 30 -60.167 49.167 -94.5 57.5s-80.5 12.5 -138.5 12.5c-76 0 -127.5 -11.667 -154.5 -35s-40.5 -63.666 -40.5 -120.999v-446zM523.998 697.995v-486.997c0 -34 4 -60.833 12 -80.5s21.5 -35.334 40.5 -47.001s42.5 -19.334 70.5 -23.001s66.333 -5.5 115 -5.5
c68.667 0 125.5 12.167 170.5 36.5s78.667 59.666 101 105.999s33.5 102.833 33.5 169.5c0 67.333 -12.667 125.833 -38 175.5s-61.5 88 -108.5 115s-103.167 40.5 -168.5 40.5h-228zM894.998 695.998c66.667 -25.333 117.5 -64.666 152.5 -117.999
s52.5 -123.666 52.5 -210.999c0 -166.667 -67 -273.334 -201 -320.001c86 10 151.167 43.5 195.5 100.5s66.5 134.833 66.5 233.5c0 91.333 -23.5 165.166 -70.5 221.499s-112.167 87.5 -195.5 93.5zM906.998 753.998c152 39.333 228 139.666 228 300.999
c0 52.667 -8.66699 100.834 -26 144.501s-43.5 79.5 -78.5 107.5s-78.167 44.333 -129.5 49c54.667 -22.667 96.667 -61.167 126 -115.5s44 -119.833 44 -196.5c0 -140 -54.667 -236.667 -164 -290z" />
    <glyph glyph-name="C" unicode="C" horiz-adv-x="1493" 
d="M1315 1430l81.9961 -0.000976562v-443h-62c-31.333 65.333 -65.166 122.833 -101.499 172.5s-74.833 91 -115.5 124s-83.334 57.667 -128.001 74s-92.667 24.5 -144 24.5c-69.333 0 -132.333 -15.5 -189 -46.5s-105 -75.333 -145 -133s-71.167 -127.834 -93.5 -210.501
s-33.5 -171 -33.5 -265c0 -131.333 22 -248 66 -350s105.5 -181.5 184.5 -238.5s168.833 -85.5 269.5 -85.5c62 0 121.833 10.167 179.5 30.5s112.834 51.333 165.501 93s101.667 93.5 147 155.5l59 -33c-75.333 -108.667 -165.666 -190.5 -270.999 -245.5
s-226.666 -82.5 -363.999 -82.5c-106.667 0 -205 18.667 -295 56s-167.667 89.5 -233 156.5s-115.5 144.833 -150.5 233.5s-52.5 182.334 -52.5 281.001c0 106.667 19 205.834 57 297.501s90.5 170.5 157.5 236.5s144.667 116.833 233 152.5s182.166 53.5 281.499 53.5
c37.333 0 72.166 -2.83301 104.499 -8.5s70.833 -14.5 115.5 -26.5s74.834 -19.833 90.501 -23.5s33.834 -5.5 54.501 -5.5c52.667 0 96.334 18.667 131.001 56zM1276 1178l-5.99902 169.999c-31.333 -14 -64.333 -21 -99 -21c-16.667 0 -32.334 1.33301 -47.001 4
c34 -26 62.333 -51.167 85 -75.5s45 -50.166 67 -77.499zM615.997 1386c-103.333 -39.333 -188.001 -86.3311 -254.001 -140.998c-38 -32 -71.667 -68 -101 -108s-54.166 -82.667 -74.499 -128s-36 -94.166 -47 -146.499s-16.5 -103.5 -16.5 -153.5
c0 -120 24.667 -230.833 74 -332.5s123 -186 221 -253s214.667 -108.167 350 -123.5c-88.667 23.333 -169.5 57.666 -242.5 102.999s-135 99.666 -186 162.999s-89.333 132.166 -115 206.499s-38.5 151.833 -38.5 232.5c0 66.667 11 136.667 33 210s52.667 138.333 92 195
c45.333 64.667 91.5 116.667 138.5 156s102.5 79.333 166.5 120z" />
    <glyph glyph-name="D" unicode="D" horiz-adv-x="1749" 
d="M897 0l-792.999 0.000976562v55c56 2 98 7.16699 126 15.5s47.833 23.833 59.5 46.5s17.5 56 17.5 100v1006c0 49.333 -16 82.666 -48 99.999s-83.667 28.333 -155 33v55h826c107.333 0 206.166 -17.667 296.499 -53s168 -85.166 233 -149.499
s115.167 -140.5 150.5 -228.5s53 -182.667 53 -284c0 -99.333 -18.167 -191.5 -54.5 -276.5s-88.5 -158.833 -156.5 -221.5s-149.5 -111.334 -244.5 -146.001s-198.5 -52 -310.5 -52zM406.001 211.001v924.003c0 79.333 -7.33301 135.166 -22 167.499
s-52.667 48.833 -114 49.5c28.667 -14.667 47.5 -32.834 56.5 -54.501s13.5 -54.834 13.5 -99.501v-962c0 -41.333 -2.33301 -73.666 -7 -96.999s-11.667 -41 -21 -53s-23.333 -22.333 -42 -31c50.667 0 86 12.167 106 36.5s30 64.166 30 119.499zM559.001 1067
l-0.00195312 -807.002c0 -58 4 -100.167 12 -126.5s27 -46 57 -59s78.667 -19.5 146 -19.5c72.667 0 137.667 7.5 195 22.5s112 41.167 164 78.5c61.333 44 109.333 91.5 144 142.5s59.834 109 75.501 174s23.5 137.5 23.5 217.5c0 238 -69.667 416.333 -209 535
c-55.333 47.333 -116.666 81 -183.999 101s-146.666 30 -237.999 30c-62.667 0 -106.834 -9.16699 -132.501 -27.5s-41 -44.666 -46 -78.999s-7.5 -95.166 -7.5 -182.499zM1026 55.002c85.333 8.66699 162 38 230 88s121.833 121 161.5 213s59.5 202 59.5 330
c0 92 -9.5 176 -28.5 252s-46.833 142.5 -83.5 199.5s-81.334 102.5 -134.001 136.5c-30.667 20.667 -62.667 36.334 -96 47.001s-69.666 19.667 -108.999 27c255.333 -100.667 383 -323.334 383 -668.001c0 -103.333 -13.5 -195 -40.5 -275s-69.167 -149.167 -126.5 -207.5
s-129.333 -105.833 -216 -142.5z" />
    <glyph glyph-name="E" unicode="E" horiz-adv-x="1430" 
d="M518 698l0.00292969 -440.002c0 -48.667 3.5 -86.5 10.5 -113.5s19.833 -47 38.5 -60s45.5 -21.167 80.5 -24.5s82.833 -5 143.5 -5c73.333 0 139.166 11.167 197.499 33.5s113.333 55.333 165 99s108.167 101.834 169.5 174.501h80l-125 -362h-1231v55
c59.333 1.33301 104.5 6.5 135.5 15.5s53 24 66 45s19.5 50.833 19.5 89.5v989c0 46.667 -6 80.667 -18 102s-32.333 35.833 -61 43.5s-76 13.167 -142 16.5v55h1182l121 -319h-72c-38.667 48.667 -85.834 92.834 -141.501 132.501s-118 71.5 -187 95.5
s-141.833 36 -218.5 36c-60.667 0 -106.334 -6.5 -137.001 -19.5s-51 -31.167 -61 -54.5s-15 -54 -15 -92v-436h201c175.333 0 264 80.333 266 241h70v-530h-62c-8 81.333 -30.833 140.5 -68.5 177.5s-95.167 55.5 -172.5 55.5h-234zM1178 54.998l69 174
c-39.333 -42.667 -75 -74.5 -107 -95.5s-77.333 -47.167 -136 -78.5h174zM973.003 632.998l0.000976562 196.001c-26 -44.667 -73.333 -77.334 -142 -98.001c36.667 -10 65.667 -22 87 -36s39.666 -34.667 54.999 -62zM1135 1356h-181c50 -16.667 94.333 -36.667 133 -60
s79.667 -51.333 123 -84zM301.004 1186v-966.998c0 -48.667 -5.66699 -84.334 -17 -107.001s-28.333 -41.667 -51 -57c55.333 0.666992 91.166 15.167 107.499 43.5s24.5 74.166 24.5 137.499v968c0 56.667 -9.66699 94.167 -29 112.5s-53.666 28.166 -102.999 29.499
c24.667 -13.333 42.167 -31.166 52.5 -53.499s15.5 -57.833 15.5 -106.5z" />
    <glyph glyph-name="F" unicode="F" horiz-adv-x="1386" 
d="M66 1411h1165l123 -324h-74c-40 46 -84.667 87.5 -134 124.5s-98 66.833 -146 89.5s-93.333 37.667 -136 45c-38.667 6.66699 -78.334 10 -119.001 10c-67.333 0 -115.166 -6.5 -143.499 -19.5s-46.166 -36 -53.499 -69s-11 -88.833 -11 -167.5v-344h182
c92 0 161.5 20.5 208.5 61.5s71.5 103.833 73.5 188.5h72v-535h-72c-6 67.333 -18 116.833 -36 148.5s-46.5 53 -85.5 64s-95.167 16.5 -168.5 16.5h-174v-489c0 -58 16.167 -98.5 48.5 -121.5s89.166 -34.5 170.499 -34.5h26v-55h-710v55
c65.333 2 112.666 8.66699 141.999 20s48.833 30.5 58.5 57.5s14.5 68.167 14.5 123.5v874v48c0 64 -11.833 110 -35.5 138s-76.834 42 -159.501 42c-4.66699 0 -9 -0.166992 -13 -0.5s-8.33301 -0.833008 -13 -1.5v55zM1231 1190l-98 165.999h-187
c41.333 -13.333 78 -28.166 110 -44.499s59.5 -32.833 82.5 -49.5s53.833 -40.667 92.5 -72zM993.002 630.999v211.001c-14 -27.333 -31.167 -48.333 -51.5 -63s-50.833 -29.334 -91.5 -44.001c40 -10 71.167 -22.833 93.5 -38.5s38.833 -37.5 49.5 -65.5zM383.002 184
l0.000976562 942c0 68.667 -2.16699 118.334 -6.5 149.001s-16.5 53 -36.5 67s-53.333 18.667 -100 14c35.333 -12.667 57.333 -30.667 66 -54s13 -68.333 13 -135v-936c0 -41.333 -1.5 -72 -4.5 -92s-9.16699 -35.833 -18.5 -47.5s-25.333 -23.834 -48 -36.501
c49.333 -0.666992 84.166 8.83301 104.499 28.5s30.5 53.167 30.5 100.5z" />
    <glyph glyph-name="G" unicode="G" horiz-adv-x="1622" 
d="M1378 1430l17.001 -441.001h-54c-30.667 62.667 -65.334 118.667 -104.001 168s-78.667 89.833 -120 121.5s-84.666 55.167 -129.999 70.5s-92.333 23 -141 23c-92 0 -174 -28.333 -246 -85s-127.833 -135.334 -167.5 -236.001s-59.5 -216 -59.5 -346
c0 -129.333 21.833 -244.666 65.5 -345.999s102.667 -180 177 -236s155.166 -84 242.499 -84c51.333 0 99.166 10 143.499 30s77.833 46 100.5 78c18 24.667 29.667 51.334 35 80.001s8 64.334 8 107.001c0 67.333 -3.5 114.5 -10.5 141.5s-23.833 46 -50.5 57
s-72.667 19.167 -138 24.5v57h649v-57c-66 -5.33301 -111.833 -13.166 -137.5 -23.499s-42.834 -29 -51.501 -56s-13 -72.833 -13 -137.5v-223c-55.333 -28.667 -114.833 -53.834 -178.5 -75.501s-128 -38.5 -193 -50.5s-129.167 -18 -192.5 -18
c-116.667 0 -222 18.667 -316 56s-173 89.666 -237 156.999s-112.333 145 -145 233s-49 180.333 -49 277c0 94.667 16.167 187 48.5 277s78.833 169.833 139.5 239.5s133.667 124.667 219 165s179 60.5 281 60.5c68.667 0 147.834 -9.66699 237.501 -29
s145.834 -29 168.501 -29c62 0 105 16.667 129 50h73zM1282 1161l-14 181.999c-30 -12 -54.667 -18 -74 -18c-14.667 0 -28 0.833008 -40 2.5s-25.333 4.33398 -40 8.00098s-25 6.16699 -31 7.5c68 -41.333 134.333 -102 199 -182zM1178 405.998v-131.998
c0 -40.667 -10.667 -80.834 -32 -120.501s-56 -72.5 -104 -98.5c52.667 11.333 93.5 27.5 122.5 48.5s49.667 48.167 62 81.5s18.5 76.666 18.5 129.999c0 66 -2.5 113.5 -7.5 142.5s-17.667 51.667 -38 68s-52.833 26.833 -97.5 31.5c24.667 -18 43.5 -37.5 56.5 -58.5
s19.5 -51.833 19.5 -92.5zM688.001 8c-66 29.333 -122 58.167 -168 86.5s-93 67.833 -141 118.5c-63.333 68 -112.333 145.167 -147 231.5s-52 172.166 -52 257.499c0 99.333 22.167 199.333 66.5 300s104.833 187.334 181.5 260.001c38 35.333 73.833 62.5 107.5 81.5
s73.5 38.833 119.5 59.5c-48 -9.33301 -86 -19.666 -114 -30.999c-58 -22.667 -112.5 -55.834 -163.5 -99.501s-96.833 -96.667 -137.5 -159s-71.667 -128.333 -93 -198s-32 -141.5 -32 -215.5c0 -93.333 17.5 -185.5 52.5 -276.5s83.5 -167.833 145.5 -230.5
c38 -37.333 76.667 -67.5 116 -90.5s77.833 -41 115.5 -54s85.5 -26.5 143.5 -40.5z" />
    <glyph glyph-name="H" unicode="H" horiz-adv-x="1749" 
d="M1022 0l0.000976562 55.002c66.667 3.33301 113.667 10 141 20s45.5 27.667 54.5 53s13.5 67.333 13.5 126v436h-711v-414c0 -49.333 1.83301 -86.5 5.5 -111.5s12 -45 25 -60s32.333 -25.833 58 -32.5s65.167 -12.334 118.5 -17.001v-55h-668v55
c48 1.33301 84.833 4.5 110.5 9.5s46 14.5 61 28.5s25.333 33.667 31 59s8.5 60.666 8.5 105.999v938c0 64 -14.833 105.833 -44.5 125.5s-85.167 31.167 -166.5 34.5v55h668v-55c-66 -0.666992 -113.333 -7.66699 -142 -21s-46.667 -34.666 -54 -63.999
s-11 -76.333 -11 -141v-366h711v420c0 49.333 -5.66699 85.166 -17 107.499s-30.666 37.5 -57.999 45.5s-72 14.333 -134 19v55h668v-55c-66.667 -2 -113.834 -8.33301 -141.501 -19s-45.834 -30.667 -54.501 -60s-13 -78.333 -13 -147v-872
c0 -54.667 4.16699 -96 12.5 -124s27 -48.5 56 -61.5s75.833 -18.833 140.5 -17.5v-55h-668zM1264 1202l-0.000976562 -990.998c0 -49.333 -5.66699 -83.833 -17 -103.5s-29.666 -37.167 -54.999 -52.5h33c36 0 62 10.333 78 31s24 53.334 24 98.001v992
c0 61.333 -6 106.666 -18 135.999s-41.333 44 -88 44h-29c28 -12.667 47 -30.334 57 -53.001s15 -56.334 15 -101.001zM303 1188l0.000976562 -954.999c0 -58 -6.66699 -98.833 -20 -122.5s-30 -42.167 -50 -55.5h29c38.667 0 65.834 15.167 81.501 45.5
s23.5 76.166 23.5 137.499v897c0 64 -2.33301 110.5 -7 139.5s-16.334 50.5 -35.001 64.5s-49.334 19.667 -92.001 17c25.333 -13.333 43.333 -31.5 54 -54.5s16 -60.833 16 -113.5z" />
    <glyph glyph-name="I" unicode="I" horiz-adv-x="831" 
d="M84 1411l666.002 -0.00195312v-55c-62.667 -1.33301 -111.167 -9.5 -145.5 -24.5s-52.833 -45.167 -55.5 -90.5c-1.33301 -28 -2.66602 -50.167 -3.99902 -66.5s-2 -23.5 -2 -21.5v-922c0 -39.333 4.16699 -70.666 12.5 -93.999s20.166 -40 35.499 -50
s33 -16.833 53 -20.5s55.333 -7.5 106 -11.5v-55h-666v55c59.333 0.666992 104.166 6.83398 134.499 18.501s50 30.334 59 56.001s13.5 66.5 13.5 122.5v893c0 53.333 -2.5 92.833 -7.5 118.5s-14.5 44.167 -28.5 55.5s-32.833 19.166 -56.5 23.499
s-61.834 8.83301 -114.501 13.5v55zM324.002 1174v-995.999c0 -34 -6 -59 -18 -75s-32.667 -32 -62 -48c43.333 1.33301 78.333 8.5 105 21.5s40 41.5 40 85.5v1061c0 45.333 -9.33301 79.333 -28 102s-55.667 33 -111 31c50.667 -26.667 76 -77.334 76 -152.001
c0 -5.33301 -0.166992 -10.333 -0.5 -15s-0.833008 -9.66699 -1.5 -15z" />
    <glyph glyph-name="J" unicode="J" horiz-adv-x="854" 
d="M141 1356l0.000976562 54.999h660v-55c-58 -2.66699 -99 -7.16699 -123 -13.5s-42.667 -22.666 -56 -48.999s-20 -69.833 -20 -130.5v-1257c0 -79.333 -14.333 -149 -43 -209s-69.667 -106.5 -123 -139.5s-114.666 -49.5 -183.999 -49.5
c-65.333 0 -118.833 18.167 -160.5 54.5s-62.5 79.166 -62.5 128.499c0 30 9 56.833 27 80.5s42.333 35.5 73 35.5c31.333 0 57.5 -12.5 78.5 -37.5s32.5 -57.5 34.5 -97.5c1.33301 -33.333 4.66602 -59.666 9.99902 -78.999s17.666 -29 36.999 -29
c40.667 0 61 48.333 61 145v1424c0 54 -2.83301 95 -8.5 123s-15.667 48.333 -30 61s-33.833 21.5 -58.5 26.5s-62 9.16699 -112 12.5zM449.001 -227.001l0.000976562 1378c0 78.667 -6.5 132.5 -19.5 161.5s-44.833 43.5 -95.5 43.5h-21
c27.333 -12.667 45.833 -30.167 55.5 -52.5s14.5 -54.166 14.5 -95.499v-1493c0 -56.667 -11 -107 -33 -151c41.333 18 68.166 42.667 80.499 74s18.5 76.333 18.5 135zM201.002 -291.002c-16.667 42.667 -40 63.999 -70 63.999c-20 0 -36.667 -8.33301 -50 -25
s-20 -36.334 -20 -59.001c0 -30 12 -58.167 36 -84.5s58.667 -46.166 104 -59.499c-31.333 32.667 -52.5 56.5 -63.5 71.5s-16.5 34.167 -16.5 57.5c0 22.667 8.83301 37.334 26.5 44.001s35.5 3.66699 53.5 -9z" />
    <glyph glyph-name="K" unicode="K" horiz-adv-x="1642" 
d="M909 1356v55.002h598v-55c-44.667 -6 -90.167 -19.333 -136.5 -40s-92.166 -47.167 -137.499 -79.5s-96.666 -73.166 -153.999 -122.499l-241 -213l530 -663c39.333 -49.333 70.666 -85.333 93.999 -108s47.166 -39.834 71.499 -51.501s52.5 -19.5 84.5 -23.5v-55h-672
v55c106.667 0 160 24 160 72c0 16.667 -5.33301 33.834 -16 51.501s-25 37.5 -43 59.5l-396 495l-125 -112v-383c0 -54.667 8.16699 -96.334 24.5 -125.001s45.833 -45.334 88.5 -50.001c22 -1.33301 40.167 -2.83301 54.5 -4.5s26.833 -2.83398 37.5 -3.50098v-55h-682v55
h31c58.667 0 102 7 130 21s46 34.167 54 60.5s12 61.5 12 105.5v940c0 44.667 -5 78.834 -15 102.501s-31.167 41.5 -63.5 53.5s-81.833 18 -148.5 18v55h682v-55h-14c-78 0 -129.333 -12.333 -154 -37s-37 -66.334 -37 -125.001v-498l406 363
c45.333 40.667 79.5 76.5 102.5 107.5s34.5 60.5 34.5 88.5c0 30 -10.5 54.333 -31.5 73s-50.833 28 -89.5 28h-39zM1290 1356l-235 0.000976562c31.333 -26 47 -54.667 47 -86c0 -20 -5 -40.667 -15 -62c45.333 41.333 81 72.166 107 92.499s58 38.833 96 55.5z
M1128 289.003l-405.002 508.002l-45 -41l377 -480c28.667 -34.667 49.834 -63.334 63.501 -86.001s20.5 -45 20.5 -67c0 -28.667 -16.333 -51.334 -49 -68.001h26c26.667 0 48.334 8 65.001 24s25 34.667 25 56c0 38 -26 89.333 -78 154zM372.998 229.005
l0.000976562 945.002c0 73.333 -8 122.166 -24 146.499s-54.667 36.166 -116 35.499c32.667 -14.667 53.5 -32.667 62.5 -54s13.5 -69.666 13.5 -144.999v-944c0 -50 -5.5 -85.333 -16.5 -106s-33.5 -38 -67.5 -52h25c40.667 0 69.667 6.5 87 19.5s27.666 30.667 30.999 53
s5 56.166 5 101.499z" />
    <glyph glyph-name="L" unicode="L" horiz-adv-x="1430" 
d="M61 1356v54.998h695v-55h-31c-52 0 -91.833 -4.66699 -119.5 -14s-47.167 -26.5 -58.5 -51.5s-17 -60.5 -17 -106.5v-979c0 -38 6.5 -67.5 19.5 -88.5s36.5 -36.5 70.5 -46.5s82 -15 144 -15c52.667 0 101 4.33301 145 13s87.667 24 131 46s88 53.333 134 94
s92.333 91.334 139 152.001h92l-133 -360h-1211v55h13c60 0 104.333 5.5 133 16.5s48.167 28.333 58.5 52s15.5 56.834 15.5 99.501v946c0 50 -4.5 87.667 -13.5 113s-29.333 44 -61 56s-80.167 18 -145.5 18zM313 1202l-0.00292969 -1024c0 -32.667 -5.83301 -58 -17.5 -76
s-29.5 -33.667 -53.5 -47c2.66699 0 8.33398 -0.666992 17.001 -2s14.334 -2 17.001 -2c67.333 0 101 48.667 101 146v960c0 67.333 -5.16699 117.333 -15.5 150s-40.166 49 -89.499 49h-30c27.333 -16 46 -33.333 56 -52s15 -52.667 15 -102zM990.997 54.998
l183 0.000976562l86 197c-38 -45.333 -78.5 -83.833 -121.5 -115.5s-92.167 -58.834 -147.5 -81.501z" />
    <glyph glyph-name="M" unicode="M" horiz-adv-x="1898" 
d="M954 342l436.999 1069h432v-55c-67.333 -0.666992 -114.666 -9.33398 -141.999 -26.001s-43.333 -40.667 -48 -72s-7 -89 -7 -173v-864c0 -44 5.83301 -77.333 17.5 -100s30.5 -38.5 56.5 -47.5s67 -15.167 123 -18.5v-55h-645v55c64 0.666992 110.333 8.66699 139 24
s45.667 35.833 51 61.5s8 68.167 8 127.5v965l-497 -1233h-58l-491 1194v-819c0 -92 17.5 -163.833 52.5 -215.5s93.167 -86.5 174.5 -104.5v-55h-506v55c71.333 7.33301 126.333 35.166 165 83.499s58 116.166 58 203.499v928c-27.333 30 -60 52.333 -98 67
s-79.667 21 -125 19v55h457zM1473 231.003v965.001c0 78.667 6 132 18 160c-26.667 -2 -45.667 -9.5 -57 -22.5s-18.333 -31 -21 -54s-4 -59.833 -4 -110.5v-964c0 -48 -4.83301 -80.833 -14.5 -98.5s-29.5 -34.834 -59.5 -51.501h35c46 0 74.667 13.167 86 39.5
s17 71.833 17 136.5zM243.999 1356l-37 -0.000976562c41.333 -16 73.833 -38.167 97.5 -66.5s47.834 -72.5 72.501 -132.5l463 -1102c14.667 26.667 22 50 22 70c0 18.667 -7.33301 45.334 -22 80.001l-398 966c-24.667 63.333 -50.834 110 -78.501 140s-67.5 45 -119.5 45z
M165.999 55.0029h211.001c-24 12.667 -43.5 30.167 -58.5 52.5s-26.167 48.5 -33.5 78.5c-9.33301 -27.333 -23.833 -51.5 -43.5 -72.5s-44.834 -40.5 -75.501 -58.5z" />
    <glyph glyph-name="N" unicode="N" horiz-adv-x="1642" 
d="M1073 1356l0.00292969 55.002h535v-55c-44.667 -1.33301 -83.834 -11.333 -117.501 -30s-60.167 -45.834 -79.5 -81.501s-29 -78.5 -29 -128.5l19 -1147h-62l-1022 1194l15 -803c1.33301 -50 5.33301 -92.167 12 -126.5s18.667 -64.166 36 -89.499
s42.166 -45.333 74.499 -60s74.166 -24.334 125.499 -29.001v-55h-531v55c69.333 5.33301 120.833 24 154.5 56s54.5 71.833 62.5 119.5s10.667 107.5 8 179.5l-14 819c-38 41.333 -75 72.833 -111 94.5s-73.333 32.5 -112 32.5h-12v55h413l901 -1051l-14 703
c0 54 -5.5 99.833 -16.5 137.5s-29.5 68.167 -55.5 91.5c-18.667 18.667 -45.5 34.167 -80.5 46.5s-68.167 18.166 -99.5 17.499zM1423 1356h-219c33.333 -11.333 60.5 -27 81.5 -47s38.833 -47.333 53.5 -82c15.333 59.333 43.333 102.333 84 129zM1266 211.002l-901 1051
c-18.667 24 -40.834 45.667 -66.501 65s-61.834 29 -108.501 29h-45c37.333 -13.333 66.333 -29.5 87 -48.5s49.667 -50.833 87 -95.5l1027 -1196c-0.666992 19.333 -1.5 38.166 -2.5 56.499s-3.16699 32 -6.5 41s-9.66602 20.167 -18.999 33.5
s-26.666 34.666 -51.999 63.999zM172.003 55.0039h210.999c-29.333 22.667 -50.166 43.667 -62.499 63s-22.833 46.333 -31.5 81c-8.66699 -31.333 -22 -58.5 -40 -81.5s-43.667 -43.833 -77 -62.5z" />
    <glyph glyph-name="O" unicode="O" horiz-adv-x="1665" 
d="M88 711c0 60 5.66406 117 16.9971 171s28 105.333 50 154s49.667 94.334 83 137.001s70 80.334 110 113.001c43.333 35.333 90 64.333 140 87s104.167 39.167 162.5 49.5s120.833 15.5 187.5 15.5c112 0 214.333 -19 307 -57s171.5 -90.667 236.5 -158
s114.833 -144.833 149.5 -232.5s52 -180.167 52 -277.5c0 -104.667 -19.167 -202.167 -57.5 -292.5s-92.666 -169 -162.999 -236s-152.833 -119 -247.5 -156s-196.667 -55.5 -306 -55.5c-102.667 0 -198.667 18.167 -288 54.5s-166.166 87.166 -230.499 152.499
s-114.166 143.666 -149.499 234.999s-53 190 -53 296zM364.997 817c0 -116 11.999 -222.668 35.999 -320.001s58.333 -181.166 103 -251.499s97.5 -124 158.5 -161s126.833 -55.5 197.5 -55.5c60 0 116.833 12.833 170.5 38.5s100.834 64.167 141.501 115.5
s72.167 114.833 94.5 190.5s33.5 163.5 33.5 263.5c0 109.333 -12.833 210.5 -38.5 303.5s-61.334 172 -107.001 237s-99.5 115.333 -161.5 151s-128.667 53.5 -200 53.5c-61.333 0 -118.666 -13.333 -171.999 -40s-98.833 -64.834 -136.5 -114.501s-67 -109.167 -88 -178.5
s-31.5 -146.666 -31.5 -231.999zM458.996 1327c-110.667 -68 -194.667 -154.833 -252 -260.5s-86 -224.834 -86 -357.501c0 -110 18.667 -210.5 56 -301.5s92.333 -169 165 -234s162.667 -115.167 270 -150.5c-130.667 66.667 -234.667 158.334 -312 275.001
s-116 259.667 -116 429c0 84.667 10.167 161 30.5 229s51 132.167 92 192.5s91.833 119.833 152.5 178.5zM980.996 1368c75.333 -40 139.499 -95.1641 192.499 -165.497s92.833 -154.5 119.5 -252.5s40 -205.667 40 -323c0 -111.333 -15.167 -207.833 -45.5 -289.5
s-73.166 -153.834 -128.499 -216.501c55.333 41.333 100.5 88.166 135.5 140.499s60.833 111.666 77.5 177.999s25 141.166 25 224.499c0 119.333 -16.5 229 -49.5 329s-81 182.833 -144 248.5s-137.167 107.834 -222.5 126.501z" />
    <glyph glyph-name="P" unicode="P" horiz-adv-x="1409" 
d="M532 641l0.000976562 -424.002c0 -40 5.83301 -70.833 17.5 -92.5s27.5 -37 47.5 -46s48.333 -14.833 85 -17.5s70.667 -4.66699 102 -6v-55h-727v55c54 1.33301 94.5 4.33301 121.5 9s48.333 13.667 64 27s26.334 30.5 32.001 51.5s8.5 49.833 8.5 86.5v881
c0 73.333 -3.16699 125.333 -9.5 156s-25.333 53.334 -57 68.001s-84.834 22 -159.501 22v55h688c30.667 0 104 -5.33301 220 -16c37.333 -3.33301 77.166 -14.333 119.499 -33s82 -44.167 119 -76.5s66.833 -70.666 89.5 -114.999s34 -92.5 34 -144.5
c0 -58 -11.5 -110.333 -34.5 -157s-58.333 -87 -106 -121s-107.667 -60.333 -180 -79s-156.5 -28 -252.5 -28h-222zM315.001 1122l0.000976562 -940c0 -63.333 -24.333 -105.666 -73 -126.999h26c74 0 111 35 111 105v915c0 82 -0.5 135.667 -1.5 161s-5.33301 47 -13 65
s-21.334 31.167 -41.001 39.5s-49.834 14.166 -90.501 17.499c26.667 -12.667 45.334 -27 56.001 -43s17.667 -38.667 21 -68s5 -71 5 -125zM532.002 695.998l139.999 0.00195312c84.667 0 155 10.167 211 30.5s99 54.666 129 102.999s45 113.166 45 194.499
c0 122 -41 213.333 -123 274c-32.667 24 -65.667 39.667 -99 47s-74.666 11 -123.999 11c-56.667 0 -97.5 -8 -122.5 -24s-40.667 -40 -47 -72s-9.5 -79.333 -9.5 -142v-422zM915.001 707c80 12 139.667 43.665 179 94.998s59 124 59 218c0 99.333 -20 173.833 -60 223.5
s-100 82.834 -180 99.501c38 -19.333 70.333 -44.666 97 -75.999s46.667 -68 60 -110s20 -87.667 20 -137c0 -158.667 -58.333 -263 -175 -313z" />
    <glyph glyph-name="Q" unicode="Q" horiz-adv-x="1665" 
d="M1391 -393l-21.001 -0.00390625c-81.333 0 -160.833 14.833 -238.5 44.5s-153.667 72.5 -228 128.5s-148.166 124 -221.499 204c-112 16 -213 56.167 -303 120.5s-161 149.333 -213 255s-78 222.834 -78 351.501c0 60 5.66699 117 17 171s28 105.333 50 154
s49.667 94.334 83 137.001s70 80.334 110 113.001c43.333 35.333 90 64.333 140 87s104.167 39.167 162.5 49.5s120.833 15.5 187.5 15.5c112 0 214.333 -19 307 -57s171.5 -90.667 236.5 -158s114.833 -144.833 149.5 -232.5s52 -180.167 52 -277.5
c0 -113.333 -22.833 -219.333 -68.5 -318s-113 -183.167 -202 -253.5s-194.833 -120.166 -317.5 -149.499c73.333 -48.667 139 -85.167 197 -109.5s116.667 -36.5 176 -36.5c42 0 75.333 5.16699 100 15.5s57 28.5 97 54.5l39 -25zM1397 -297.004l-36.999 0.00195312
c-52.667 0 -110.334 10.5 -173.001 31.5s-125.5 52 -188.5 93s-120.167 89.5 -171.5 145.5h-6c-28.667 0 -57.334 1.33301 -86.001 4c60.667 -66.667 124.834 -124.834 192.501 -174.501s134.5 -87.834 200.5 -114.501s128.333 -40 187 -40c21.333 0 36.5 3.5 45.5 10.5
s21.167 21.833 36.5 44.5zM365 816.998c0 -116 11.999 -222.668 35.999 -320.001s58.333 -181.166 103 -251.499s97.5 -124 158.5 -161s126.833 -55.5 197.5 -55.5c60 0 116.833 12.833 170.5 38.5s100.834 64.167 141.501 115.5s72.167 114.833 94.5 190.5
s33.5 163.5 33.5 263.5c0 109.333 -12.833 210.5 -38.5 303.5s-61.334 172 -107.001 237s-99.5 115.333 -161.5 151s-128.667 53.5 -200 53.5c-61.333 0 -118.666 -13.333 -171.999 -40s-98.833 -64.834 -136.5 -114.501s-67 -109.167 -88 -178.5
s-31.5 -146.666 -31.5 -231.999zM458.999 1327c-110.667 -68 -194.667 -154.832 -252 -260.499s-86 -224.834 -86 -357.501c0 -110 18.667 -210.5 56 -301.5s92.333 -169 165 -234s162.667 -115.167 270 -150.5c-285.333 150 -428 384.667 -428 704
c0 84.667 10.167 161 30.5 229s51 132.167 92 192.5s91.833 119.833 152.5 178.5zM980.999 1368c75.333 -40 139.499 -95.1641 192.499 -165.497s92.833 -154.5 119.5 -252.5s40 -205.667 40 -323c0 -111.333 -15.167 -207.833 -45.5 -289.5
s-73.166 -153.834 -128.499 -216.501c55.333 41.333 100.5 88.166 135.5 140.499s60.833 111.666 77.5 177.999s25 141.166 25 224.499c0 119.333 -16.5 229 -49.5 329s-81 182.833 -144 248.5s-137.167 107.834 -222.5 126.501z" />
    <glyph glyph-name="R" unicode="R" horiz-adv-x="1579" 
d="M750 0l-693 -0.00292969v55c64.667 1.33301 112.667 6.5 144 15.5s52.833 25.167 64.5 48.5s17.5 60 17.5 110v934c0 53.333 -5 93 -15 119s-30.5 44.333 -61.5 55s-80.833 17 -149.5 19v55h789c99.333 0 186.166 -17.167 260.499 -51.5s130.333 -80 168 -137
s56.5 -118.5 56.5 -184.5c0 -43.333 -8.66699 -85.5 -26 -126.5s-42.333 -78.167 -75 -111.5s-72.167 -61.833 -118.5 -85.5s-100.166 -40.5 -161.499 -50.5c46 -46 102.667 -111 170 -195l99 -117l20 -22.5l31 -34.5l81 -95.5c22 -25 43.833 -47.5 65.5 -67.5
s42.834 -36.167 63.501 -48.5s42.667 -21.833 66 -28.5v-55h-188c-42.667 0 -83 9.5 -121 28.5s-74.5 45.833 -109.5 80.5s-74.833 80.334 -119.5 137.001l-140 178c-64.667 84 -112.834 142.167 -144.501 174.5s-59.167 48.5 -82.5 48.5h-111v-424
c0 -42 5.33301 -75 16 -99s34 -41.333 70 -52c19.333 -5.33301 43 -9.66602 71 -12.999s49 -4.66602 63 -3.99902v-55zM315 1171v-986.999c0 -62.667 -23 -105.667 -69 -129c87.333 2 131 35.667 131 101v1009c0 51.333 -2.83301 90.166 -8.5 116.499
s-18.667 45.833 -39 58.5s-51.5 18 -93.5 16c34.667 -15.333 56.5 -35.5 65.5 -60.5s13.5 -66.5 13.5 -124.5zM530 1153v-451h162c54.667 0 108.667 8.83301 162 26.5s93.666 39.834 120.999 66.501c54.667 51.333 82 129.666 82 234.999
c0 124.667 -42.333 216.334 -127 275.001c-30 20.667 -61.333 34.334 -94 41.001s-74.334 10 -125.001 10c-51.333 0 -90.166 -6.83301 -116.499 -20.5s-43.666 -34.334 -51.999 -62.001s-12.5 -67.834 -12.5 -120.501zM791 646.998l-81.999 -0.000976562
c24 -18 51.833 -45 83.5 -81s71.5 -84.667 119.5 -146l145 -187c44.667 -56.667 86 -100.167 124 -130.5s71.667 -49.833 101 -58.5s60.666 -13.667 93.999 -15c-41.333 20 -81 47.5 -119 82.5s-78.833 79.333 -122.5 133l-135 169.5
c-46.333 59.333 -94.166 115.333 -143.499 168c-6.66699 9.33301 -14.834 19.833 -24.501 31.5s-23.167 22.834 -40.5 33.501zM879.001 706.997c89.333 11.333 158.001 44.668 206.001 100.001s72 130.333 72 225c0 92 -21.333 165.167 -64 219.5
s-103.334 87.166 -182.001 98.499c60 -30.667 104.833 -71.834 134.5 -123.501s44.5 -120.5 44.5 -206.5c0 -90.667 -17.5 -158.667 -52.5 -204s-87.833 -81.666 -158.5 -108.999z" />
    <glyph glyph-name="S" unicode="S" horiz-adv-x="1237" 
d="M131 508h66.001c36.667 -105.333 80.834 -193.833 132.501 -265.5s108 -124.834 169 -159.501s124.833 -52 191.5 -52c83.333 0 154.666 26 213.999 78s89 118.667 89 200c0 76 -19.667 135.167 -59 177.5s-86.333 72 -141 89s-126.667 32.833 -216 47.5
s-152.666 28.334 -189.999 41.001c-58 20 -107.333 47.5 -148 82.5s-71.5 77 -92.5 126s-31.5 101.5 -31.5 157.5c0 53.333 9.33301 104.666 28 153.999s45 93 79 131s75.5 68 124.5 90s103.5 33 163.5 33c43.333 0 96.5 -6.16699 159.5 -18.5s108.833 -18.5 137.5 -18.5
c36 0 70 8 102 24h76l43 -411h-70c-65.333 122.667 -133.833 216.167 -205.5 280.5s-155.834 96.5 -252.501 96.5c-48 0 -92.667 -11.167 -134 -33.5s-74.5 -53.166 -99.5 -92.499s-37.5 -82.666 -37.5 -129.999c0 -66.667 22.667 -117.667 68 -153s112.5 -62 201.5 -80
s168.667 -33.333 239 -46s126.166 -29 167.499 -49c76 -37.333 135 -89 177 -155s63 -140.667 63 -224c0 -80 -19.333 -154.667 -58 -224s-93 -124.833 -163 -166.5s-148 -62.5 -234 -62.5c-48.667 0 -85.334 3.66699 -110.001 11s-67 21.666 -127 42.999s-106 32 -138 32
c-53.333 0 -95.666 -20.333 -126.999 -61h-57v508zM918.001 1155l-33 190.999c-22 -7.33301 -44 -11 -66 -11c-24 0 -50 3.66699 -78 11c26.667 -17.333 50 -36.666 70 -57.999s41 -47 63 -77s36.667 -48.667 44 -56zM164.001 321.999l0.000976562 -266.998
c19.333 25.333 37.166 41.666 53.499 48.999s41.5 10.333 75.5 9c-22 26 -37.833 45.167 -47.5 57.5s-21.667 30.666 -36 54.999s-29.5 56.5 -45.5 96.5zM164.002 1147c-11.333 -50.667 -16.999 -91.667 -16.999 -123c0 -35.333 6 -70.833 18 -106.5
s29.667 -69.334 53 -101.001s49.666 -57.5 78.999 -77.5c39.333 -26.667 82.666 -45.5 129.999 -56.5s116.5 -24 207.5 -39s153.833 -29.5 188.5 -43.5c64 -23.333 113.833 -59 149.5 -107s53.5 -104.333 53.5 -169c0 -48 -13.667 -98.667 -41 -152
c54.667 56.667 82 123 82 199c0 78.667 -20.167 140.5 -60.5 185.5s-90.333 78.333 -150 100s-141.167 41.667 -244.5 60s-156.333 27.833 -159 28.5c-94.667 24.667 -166.5 67.334 -215.5 128.001s-73.5 130.667 -73.5 210c0 14.667 -0.166992 27 -0.5 37
s-0.166016 19 0.500977 27z" />
    <glyph glyph-name="T" unicode="T" horiz-adv-x="1493" 
d="M111 1411h1271l72 -330h-72c-51.333 86 -105 149 -161 189s-108.833 64 -158.5 72s-114.5 12.667 -194.5 14v-1137c0 -44 7 -77.5 21 -100.5s37 -38.833 69 -47.5s76.667 -14 134 -16v-55h-701v55c58 1.33301 102.5 5.83301 133.5 13.5s54.333 23.667 70 48
s23.5 62.5 23.5 114.5v1125c-72 -0.666992 -134.667 -7.83398 -188 -21.501s-98 -32.167 -134 -55.5s-65.833 -48.166 -89.5 -74.499s-58.5 -67.5 -104.5 -123.5h-61zM1341 1196l-45 160h-188c50.667 -16 93 -36.667 127 -62s69.333 -58 106 -98zM715 254v983.001
c0 38.667 -4.5 67.667 -13.5 87s-25.833 30 -50.5 32v-1137c0 -41.333 -5 -74.333 -15 -99s-28.667 -46.334 -56 -65.001h22c48.667 0 79.667 15.333 93 46s20 81.667 20 153zM297 1356l-161.999 -0.000976562l-39 -170c34 44.667 63.667 77.834 89 99.501
s62.666 45.167 111.999 70.5z" />
    <glyph glyph-name="U" unicode="U" horiz-adv-x="1665" 
d="M274 430l-0.000976562 761.999c0 50 -7.5 85.833 -22.5 107.5s-36.333 35.167 -64 40.5s-73.167 10.666 -136.5 15.999v55h678v-55c-53.333 -3.33301 -93.333 -8.16602 -120 -14.499s-47.167 -19.833 -61.5 -40.5s-21.5 -53.667 -21.5 -99v-794
c0 -73.333 16.5 -136.833 49.5 -190.5s79.833 -94.167 140.5 -121.5s131.334 -41 212.001 -41c84.667 0 158.834 15.667 222.501 47s113.5 78.666 149.5 141.999s54 139.666 54 228.999v461c0 104 -7.66699 185.667 -23 245s-41 102.833 -77 130.5s-86.667 43.167 -152 46.5
v55h514v-55c-58.667 -8 -102.834 -28.667 -132.501 -62s-49.5 -77.166 -59.5 -131.499s-15 -121.5 -15 -201.5v-517c0 -71.333 -13.167 -136.166 -39.5 -194.499s-64.5 -108.333 -114.5 -150s-110.167 -73.167 -180.5 -94.5s-150.5 -32 -240.5 -32
c-214.667 0 -373.334 60.333 -476.001 181c-31.333 38.667 -53.166 79.334 -65.499 122.001s-18.5 94 -18.5 154zM372.999 423.999l-0.000976562 798.999c0 98.667 -47.333 143 -142 133c50.667 -20 76 -68 76 -144v-798c0 -114 33.333 -203.167 100 -267.5
s166.667 -111.166 300 -140.499c-51.333 22 -95 43.5 -131 64.5s-69.667 47.167 -101 78.5s-56.166 70 -74.499 116s-27.5 99 -27.5 159zM1442 1356h-205c61.333 -28 100.333 -80.667 117 -158c8 38 18.5 69.667 31.5 95s31.833 46.333 56.5 63z" />
    <glyph glyph-name="V" unicode="V" horiz-adv-x="1516" 
d="M1022 1411l461.001 0.000976562v-55c-52 -2.66699 -100.667 -32.167 -146 -88.5s-90.333 -140.833 -135 -253.5l-414 -1041h-55l-510 1215c-29.333 74 -54 119.833 -74 137.5s-59.333 27.834 -118 30.501v55h602v-55h-17c-44.667 0 -79 -8 -103 -24s-36 -38 -36 -66
c0 2 2.16699 -9.33301 6.5 -34s9.16602 -43.334 14.499 -56.001l364 -871l262 658c37.333 91.333 56 165.666 56 222.999c0 54 -13.833 95.833 -41.5 125.5s-66.5 44.5 -116.5 44.5v55zM1321 1356l-197 0.000976562c53.333 -30.667 82 -83.334 86 -158.001
c29.333 71.333 66.333 124 111 158zM254.001 1202l490.999 -1175c19.333 36 29 61.667 29 77c0 16 -9.66699 44.667 -29 86l-419 1004c-18 43.333 -33.667 76.333 -47 99s-30.333 39.5 -51 50.5s-49.667 17.833 -87 20.5c24.667 -9.33301 44.334 -25.333 59.001 -48
s32.667 -60.667 54 -114z" />
    <glyph glyph-name="W" unicode="W" horiz-adv-x="2134" 
d="M1657 1411l450.003 -0.00195312v-55c-48.667 -22 -91.5 -59 -128.5 -111s-72.5 -126.333 -106.5 -223l-365 -1049h-57l-385 1100l-383 -1100h-53l-381 1100c-34 98 -57.833 162.333 -71.5 193s-31.334 53.334 -53.001 68.001s-53.834 22 -96.501 22v55h589v-55
c-4 0.666992 -7.5 1.16699 -10.5 1.5s-7.5 0.5 -13.5 0.5c-90 0 -135 -27.333 -135 -82c0 -28.667 10.667 -75.667 32 -141l269 -775l276 791c-16 53.333 -32 93.833 -48 121.5s-32.333 47.167 -49 58.5s-30.834 17.833 -42.501 19.5s-36.167 3.5 -73.5 5.5v55h606v-55
c-48 -1.33301 -85.833 -6.66602 -113.5 -15.999s-41.5 -29.333 -41.5 -60c0 -32 15.667 -91.333 47 -178l260 -742l213 613c13.333 36 24.5 71 33.5 105s13.5 65 13.5 93c0 60 -15 104.5 -45 133.5s-75.667 46.167 -137 51.5v55zM1978 1356h-198
c32 -20 54.167 -42.5 66.5 -67.5s19.5 -55.833 21.5 -92.5c14 34 29.667 64.333 47 91s38.333 49.667 63 69zM1067 1167l397.002 -1132c19.333 40 29 72 29 96c0 15.333 -6.66699 42 -20 80l-347 985c-18 49.333 -31.833 83 -41.5 101s-23.834 32.167 -42.501 42.5
s-46.667 15.833 -84 16.5c39.333 -32 75.666 -95 108.999 -189zM254.005 1151l388.999 -1122l12.5 26.5c3.66699 7.66699 7.33398 17.334 11.001 29.001s5.5 21.834 5.5 30.501c0 24.667 -5.66699 51.334 -17 80.001l-331 956c-23.333 67.333 -41.5 114 -54.5 140
s-29 44 -48 54s-45.833 13.667 -80.5 11c24 -16 43.667 -39.167 59 -69.5s33.333 -75.5 54 -135.5z" />
    <glyph glyph-name="X" unicode="X" horiz-adv-x="1642" 
d="M991 1411l553 0.000976562v-55c-68 -4.66699 -133.5 -31 -196.5 -79s-138.167 -124 -225.5 -228l-217 -261l357 -466c60 -79.333 101.5 -132.5 124.5 -159.5s53 -51.5 90 -73.5s80.167 -33.333 129.5 -34v-55h-721v55h24c48.667 0 84.834 8 108.501 24
s35.5 34.667 35.5 56c0 25.333 -10.167 54.166 -30.5 86.499s-48.5 71.833 -84.5 118.5l-193 254l-192 -227c-36.667 -43.333 -63.167 -80 -79.5 -110s-24.5 -59 -24.5 -87c0 -37.333 13.667 -65 41 -83s66.666 -28.667 117.999 -32v-55h-559v55h12
c30.667 0 67.667 10.833 111 32.5s92.666 56.5 147.999 104.5s111 106.333 167 175l226 272l-367 481c-52.667 70 -92.667 120.333 -120 151s-54.666 52.334 -81.999 65.001s-62.333 19.334 -105 20.001v55h686v-55h-72c-27.333 0 -50.5 -5.83301 -69.5 -17.5
s-28.5 -27.834 -28.5 -48.501c0 -16.667 4.33301 -32.834 13 -48.501s24 -38.167 46 -67.5l256 -340l185 223c64 76.667 96 139.334 96 188.001c0 29.333 -13.667 54.666 -41 75.999s-67 33 -119 35v55zM1337 1356h-215.001c41.333 -24.667 62 -59.667 62 -105
c0 -12 -0.666992 -22 -2 -30c38.667 58 90.334 103 155.001 135zM1026 385.001l-641 844c-30.667 39.333 -53.834 66.5 -69.501 81.5s-35 26.5 -58 34.5s-53.5 12.333 -91.5 13c24.667 -9.33301 50.5 -27.5 77.5 -54.5s60.5 -66.833 100.5 -119.5l672 -895
c46 -62.667 69 -113.334 69 -152.001c0 -27.333 -17.667 -54.666 -53 -81.999c40 -0.666992 70.5 7 91.5 23s31.5 37.667 31.5 65c0 28.667 -10.167 61.5 -30.5 98.5s-53.166 84.833 -98.499 143.5zM183.999 55.001l244 -0.000976562c-38 22 -57 52.667 -57 92
c0 20.667 5.33301 43.334 16 68.001l-57 -59c-12 -12 -30.833 -27.167 -56.5 -45.5s-55.5 -36.833 -89.5 -55.5z" />
    <glyph glyph-name="Y" unicode="Y" horiz-adv-x="1493" 
d="M1020 1356v55h446v-55c-29.333 -4 -59.166 -16.833 -89.499 -38.5s-61.5 -53.167 -93.5 -94.5s-65 -91.333 -99 -150l-295 -506v-360c0 -64 15.667 -104 47 -120s86.666 -26.667 165.999 -32v-55h-674v55h18c58 0 101.167 7.5 129.5 22.5s46 34.167 53 57.5
s10.5 54 10.5 92v291l-426 715c-24.667 42.667 -48 74.334 -70 95.001s-60 30 -114 28v55h659v-55c-60 -1.33301 -106.333 -6.33301 -139 -15s-49 -31 -49 -67c0 -28 23.667 -81.333 71 -160l289 -481l193 325c35.333 59.333 61.5 110.166 78.5 152.499
s25.5 81.833 25.5 118.5c0 33.333 -11.833 62.833 -35.5 88.5s-54.167 38.5 -91.5 38.5h-10zM1190 1235l0.000976562 -23.001c16.667 36 33.167 63 49.5 81s38.166 39 65.499 63h-175c40 -25.333 60 -65.666 60 -120.999zM735.001 544.999l-415.999 700
c-26.667 46 -48.334 76 -65.001 90s-40 21 -70 21h-30c17.333 -7.33301 32 -19 44 -35s28 -41.333 48 -76l426 -715v-346c0 -38 -6.5 -65 -19.5 -81s-37.167 -32 -72.5 -48h43c42 0 71.167 10.333 87.5 31s24.5 52 24.5 94v365z" />
    <glyph glyph-name="Z" unicode="Z" horiz-adv-x="1366" 
d="M1237 489l80.001 -0.000976562l-80 -489h-1165v41l917 1315h-321c-66 0 -128.667 -12.167 -188 -36.5s-109.5 -53.666 -150.5 -87.999s-70.833 -65.833 -89.5 -94.5c-36.667 -57.333 -61.334 -97 -74.001 -119h-70l70 393h1139v-39l-922 -1317h309
c65.333 0 120.5 5.16699 165.5 15.5s95.833 39.5 152.5 87.5c30 24.667 59.5 55.167 88.5 91.5s56 76.333 81 120s44.167 83.5 57.5 119.5zM907.001 54.999h195l78 256c-40 -62 -79.5 -112.667 -118.5 -152s-90.5 -74 -154.5 -104zM1030 1356l-909 -1301
c34.667 -1.33301 59.5 2.83398 74.5 12.501s40.5 40.5 76.5 92.5l752 1075c30 43.333 45 71.333 45 84c0 20 -13 32.333 -39 37zM362.001 1356l-169 -0.000976562l-33 -170c28.667 41.333 58.5 74.333 89.5 99s68.5 48.334 112.5 71.001z" />
    <glyph glyph-name="bracketleft" unicode="[" horiz-adv-x="662" 
d="M158 1411h458.002v-55h-110c-32.667 0 -57.5 -3.33301 -74.5 -10s-28.667 -17.167 -35 -31.5s-9.5 -33.5 -9.5 -57.5v-1566c0 -22.667 2.16699 -41.5 6.5 -56.5s13.666 -26.833 27.999 -35.5s36.166 -13 65.499 -13h129v-55h-458v1880zM190.002 1356l0.000976562 -1770
c27.333 7.33301 45.166 20.333 53.499 39s12.5 51.667 12.5 99v1404v72v55c0 54.667 -22 88.334 -66 101.001z" />
    <glyph glyph-name="backslash" unicode="\" horiz-adv-x="569" 
d="M2 1387h126l447 -1418h-129z" />
    <glyph glyph-name="bracketright" unicode="]" horiz-adv-x="662" 
d="M504 1411v-1882h-459v55h119c49.333 0 80 9 92 27s18 44.667 18 80v1558c0 36.667 -6.16699 63.667 -18.5 81s-42.833 26 -91.5 26h-119v55h459zM307 1225v-1508c0 -37.333 -2.5 -64.5 -7.5 -81.5s-17.5 -34.167 -37.5 -51.5c40.667 2 69.334 11.333 86.001 28
s25 48.334 25 95.001v1493c0 40.667 -2.33301 71.334 -7 92.001s-15 36.334 -31 47.001s-40.333 16.334 -73 17.001c19.333 -16.667 31.666 -33.834 36.999 -51.501s8 -44.167 8 -79.5z" />
    <glyph glyph-name="asciicircum" unicode="^" horiz-adv-x="1190" 
d="M147 666l411 718h82l404 -718h-159l-295 512l-290 -512h-153z" />
    <glyph glyph-name="underscore" unicode="_" 
d="M-12 -434v127h1048v-127h-1048z" />
    <glyph glyph-name="grave" unicode="`" horiz-adv-x="682" 
d="M559 1026h-65l-365 309h305zM473 1083l-94 197h-139z" />
    <glyph glyph-name="a" unicode="a" horiz-adv-x="918" 
d="M291 774c0 -2.66699 4.33496 -12.3281 13.002 -28.9951s13 -32.334 13 -47.001c0 -28.667 -11.833 -54.167 -35.5 -76.5s-53.167 -33.5 -88.5 -33.5c-34 0 -61 8.83301 -81 26.5s-30 38.167 -30 61.5c0 34.667 16.833 68.667 50.5 102s80 60.5 139 81.5
s124.167 31.5 195.5 31.5c52 0 100.5 -9 145.5 -27s80.833 -45.333 107.5 -82s40 -81 40 -133v-508c0 -40.667 11.667 -61 35 -61c14 0 31 11 51 33l37 -43c-32.667 -32.667 -62.834 -57.334 -90.501 -74.001s-60.5 -25 -98.5 -25c-44 0 -78.333 9.83301 -103 29.5
s-42 50.167 -52 91.5c-92 -79.333 -183 -119 -273 -119c-64 0 -114.833 16.667 -152.5 50s-56.5 75.666 -56.5 126.999c0 46 11.5 85.167 34.5 117.5s53.333 61 91 86s93.167 56.667 166.5 95s133.666 71.166 180.999 98.499v151c0 45.333 -10.333 79.666 -31 102.999
s-51.667 35 -93 35c-36 0 -64.167 -6.5 -84.5 -19.5s-30.5 -27.167 -30.5 -42.5zM563.002 633.006l-0.000976562 -394.999c0 -78 8.33301 -136.167 25 -174.5s49.334 -57.5 98.001 -57.5c22 0 39.667 2.66699 53 8c-40 6 -68.333 22 -85 48s-25 66.667 -25 122v459
c0 69.333 -9.83301 117.166 -29.5 143.499s-53.5 42.166 -101.5 47.499c26 -13.333 43.333 -32.666 52 -57.999s13 -73 13 -143zM530.001 158.007v321.001c-85.333 -48 -144.833 -91.333 -178.5 -130s-50.5 -85.334 -50.5 -140.001c0 -36.667 10 -65 30 -85
s43.333 -30 70 -30c42 0 85 21.333 129 64zM354.001 20.0078c-60.667 0 -109.167 12.334 -145.5 37.001s-54.5 60.334 -54.5 107.001c0 34 8.83301 66.167 26.5 96.5s44.167 64.166 79.5 101.499c-54 -31.333 -95.833 -63.333 -125.5 -96s-44.5 -71.334 -44.5 -116.001
c0 -40.667 17.833 -74.5 53.5 -101.5s74.5 -40.5 116.5 -40.5c40.667 0 72 4 94 12zM260.001 651.009c-24 -2 -42.335 2.66797 -55.002 14.001s-19 24.666 -19 39.999c0 20.667 5.66699 39.167 17 55.5s31 39.833 59 70.5c-47.333 -24 -83.666 -48 -108.999 -72
s-38 -51 -38 -81c0 -13.333 6.83301 -25.833 20.5 -37.5s29.834 -17.5 48.501 -17.5c32 0 57.333 9.33301 76 28z" />
    <glyph glyph-name="b" unicode="b" horiz-adv-x="1130" 
d="M12 1337l332.001 108.998h41v-647c55.333 30 104.5 52.833 147.5 68.5s91.5 23.5 145.5 23.5s104.833 -10.5 152.5 -31.5s88.667 -50.167 123 -87.5s61.166 -82.666 80.499 -135.999s29 -111.666 29 -174.999c0 -64.667 -10 -126.167 -30 -184.5
s-49.5 -110.5 -88.5 -156.5s-86 -82 -141 -108s-114.5 -39 -178.5 -39c-88 0 -185.667 31 -293 93l-152 -89h-26v1141c0 94.667 -47.333 154.667 -142 180v39zM254.001 251.998l-0.000976562 869.999c0 66 -8.33301 114.333 -25 145s-53.334 46 -110.001 46
c-19.333 0 -34.333 -1.33301 -45 -4c39.333 -17.333 67.833 -39 85.5 -65s26.5 -62.333 26.5 -109v-1094c22.667 20.667 38.834 39.834 48.501 57.501s15.334 37 17.001 58s2.5 52.833 2.5 95.5zM385 728.997l0.000976562 -389.002c0 -90.667 16 -163.5 48 -218.5
s79.333 -82.5 142 -82.5c47.333 0 89.333 16.167 126 48.5s65.5 79.5 86.5 141.5s31.5 136.667 31.5 224c0 74.667 -10.333 139.334 -31 194.001s-48.834 95.334 -84.501 122.001s-75.5 40 -119.5 40c-26 0 -59.833 -9 -101.5 -27s-74.167 -35.667 -97.5 -53z
M596.001 835.995c83.333 -8 146.833 -44.168 190.5 -108.501s65.5 -155.166 65.5 -272.499c0 -104.667 -13.333 -190.667 -40 -258s-68 -119.333 -124 -156c77.333 21.333 134.5 66.5 171.5 135.5s55.5 163.167 55.5 282.5c0 124.667 -27.167 220 -81.5 286
s-115.833 99 -184.5 99c-3.33301 0 -21 -2.66699 -53 -8z" />
    <glyph glyph-name="c" unicode="c" horiz-adv-x="918" 
d="M659 772c0 18 -9.33203 33.166 -27.999 45.499s-41.334 18.5 -68.001 18.5c-50 0 -95.333 -14.5 -136 -43.5s-72.5 -70.667 -95.5 -125s-34.5 -115.833 -34.5 -184.5c0 -63.333 13.5 -120.833 40.5 -172.5s63.333 -91.834 109 -120.501s95.5 -43 149.5 -43
c44.667 0 91.5 10.167 140.5 30.5s88.167 46.5 117.5 78.5l35 -47c-52.667 -76 -115.834 -134.333 -189.501 -175s-148.5 -61 -224.5 -61c-70.667 0 -138.167 19.333 -202.5 58s-115.666 91.167 -153.999 157.5s-57.5 138.833 -57.5 217.5c0 64 11.667 125 35 183
s56.833 109.833 100.5 155.5s95.5 81.5 155.5 107.5s126.333 39 199 39c58.667 0 112 -8.83301 160 -26.5s85.833 -42.167 113.5 -73.5s41.5 -65.666 41.5 -102.999c0 -32.667 -12 -59.667 -36 -81s-52.333 -32 -85 -32c-30 0 -54.833 10.5 -74.5 31.5
s-29.5 43.5 -29.5 67.5c0 4.66699 3 19.834 9 45.501s9 43.167 9 52.5zM674.001 673.999c0 -21.333 8.16797 -37.3359 24.501 -48.0029s34.166 -16 53.499 -16c6 0 22.333 2.66699 49 8c-41.333 8.66699 -62 30 -62 64c0 2.66699 1.5 10.334 4.5 23.001
s4.5 23.334 4.5 32.001c0 36.667 -26 64.667 -78 84c14.667 -20.667 22 -39.667 22 -57c0 -11.333 -3 -26.666 -9 -45.999s-9 -34 -9 -44zM393.002 828.996c-64 -24 -118.169 -57.002 -162.502 -99.002s-78.166 -90.833 -101.499 -146.5s-35 -112.167 -35 -169.5
c0 -78 18.667 -148 56 -210s86.5 -110.167 147.5 -144.5s122.833 -51.5 185.5 -51.5c91.333 0 177.333 30 258 90c-87.333 -28.667 -157.666 -43 -210.999 -43c-68 0 -130.333 15.333 -187 46s-101.667 73.334 -135 128.001s-50 115.667 -50 183
c0 78 20.167 152.833 60.5 224.5s98.5 135.834 174.5 192.501z" />
    <glyph glyph-name="d" unicode="d" horiz-adv-x="1130" 
d="M621 1325l309 102.002h41v-1247c0 -35.333 9.5 -59.166 28.5 -71.499s51.833 -18.5 98.5 -18.5v-53l-355 -64v117c-96.667 -78 -194.667 -117 -294 -117c-55.333 0 -107 11.667 -155 35s-89.333 56.166 -124 98.499s-61.167 91 -79.5 146s-27.5 112.833 -27.5 173.5
c0 87.333 20.833 166.666 62.5 237.999s98 127 169 167s150.167 60 237.5 60c62 0 132.333 -14.333 211 -43v246c0 54.667 -6.83301 94.667 -20.5 120s-47.5 48.666 -101.5 69.999v41zM700 1298l-34 0.000976562c50 -22 80.833 -45.833 92.5 -71.5
s17.5 -59.834 17.5 -102.501v-1101c22 9.33301 38.167 20.333 48.5 33s15.5 31.667 15.5 57v1009c0 60 -9 104.333 -27 133s-55.667 43 -113 43zM743 162.003v586.001c-23.333 28 -50.5 49.667 -81.5 65s-62.5 23 -94.5 23c-47.333 0 -91 -14.5 -131 -43.5
s-71.5 -72.667 -94.5 -131s-34.5 -130.833 -34.5 -217.5c0 -73.333 10.333 -136.833 31 -190.5s49.667 -94.334 87 -122.001s80 -41.5 128 -41.5c68.667 0 132 24 190 72zM428 844.004c-56 -12 -103.001 -30.667 -141.001 -56c-58 -36 -104.333 -87.667 -139 -155
s-52 -139 -52 -215c0 -73.333 15.167 -141.5 45.5 -204.5s73.166 -113 128.499 -150s117 -55.5 185 -55.5c46.667 0 88.334 7 125.001 21c-30.667 -2.66699 -50 -4 -58 -4c-44 0 -87.5 9 -130.5 27s-82.167 44.5 -117.5 79.5s-63.166 76.833 -83.499 125.5
s-30.5 101.667 -30.5 159c0 178 89.333 320.667 268 428z" />
    <glyph glyph-name="e" unicode="e" horiz-adv-x="918" 
d="M834 248l40.002 -31.0029c-30 -56 -65.667 -102 -107 -138s-86.833 -62.667 -136.5 -80s-101.5 -26 -155.5 -26c-73.333 0 -141.5 17.667 -204.5 53s-112.833 86.333 -149.5 153s-55 142.334 -55 227.001c0 66.667 11.167 129.334 33.5 188.001
s53.333 110.334 93 155.001s85.667 79.5 138 104.5s108.166 37.5 167.499 37.5c60 0 117.167 -12.5 171.5 -37.5s97.5 -59.5 129.5 -103.5c23.333 -32 40.166 -64.833 50.499 -98.5s18.5 -74.167 24.5 -121.5h-604c2.66699 -69.333 14.5 -128 35.5 -176
s48.333 -86.667 82 -116s69.5 -50.333 107.5 -63s74.333 -19 109 -19c84 0 160.667 30.667 230 92zM657.002 593.997l69.999 -0.000976562c-2 74.667 -17.333 129.834 -46 165.501s-76.667 59.5 -144 71.5c42.667 -19.333 73.334 -44.5 92.001 -75.5s28 -78.167 28 -141.5
v-20zM276.001 593.996l348.998 0.000976562v33c0 38.667 -7 73.167 -21 103.5s-33.167 53.666 -57.5 69.999s-52.166 24.5 -83.499 24.5c-50.667 0 -93.667 -22.5 -129 -67.5s-54.666 -99.5 -57.999 -163.5zM284.999 790.997c-124.667 -98.667 -187 -227.999 -187 -387.999
c0 -116 37.167 -210.833 111.5 -284.5s160.166 -110.5 257.499 -110.5c56.667 0 113.5 11.5 170.5 34.5s105.167 57.167 144.5 102.5c-40.667 -26 -82.167 -47.167 -124.5 -63.5s-92.833 -24.5 -151.5 -24.5c-99.333 0 -182.166 34.667 -248.499 104
s-99.5 159.666 -99.5 270.999c0 70.667 11 134 33 190s53.333 112.333 94 169z" />
    <glyph glyph-name="f" unicode="f" horiz-adv-x="598" 
d="M158 143l0.000976562 662.002h-142v69h142v136c0 87.333 15.5 163.166 46.5 227.499s75.5 113.833 133.5 148.5s125.667 52 203 52c46 0 85.833 -7 119.5 -21s58.667 -32.5 75 -55.5s24.5 -48.167 24.5 -75.5c0 -30.667 -10.833 -58.167 -32.5 -82.5
s-48.5 -36.5 -80.5 -36.5c-30 0 -54.833 11.5 -74.5 34.5s-29.5 47.833 -29.5 74.5c0.666992 6.66699 1.16699 12.5 1.5 17.5s0.5 12.167 0.5 21.5c0 20.667 -6.33301 37 -19 49s-28.334 18 -47.001 18c-28.667 0 -51.167 -13.833 -67.5 -41.5s-24.5 -67.5 -24.5 -119.5
v-347h186v-69h-186v-647c0 -26.667 3.66699 -47.5 11 -62.5s20.5 -25.5 39.5 -31.5s44.5 -9 76.5 -9h33v-55h-522v55c44 1.33301 77.167 8.16602 99.5 20.499s33.5 34.833 33.5 67.5zM190.001 1010v-860.001c0 -44 -17.667 -78.333 -53 -103c79.333 0 119 34.333 119 103
v858c0 78.667 8.5 145.167 25.5 199.5s43.167 107.166 78.5 158.499c-56.667 -39.333 -99.167 -87.666 -127.5 -144.999s-42.5 -127.666 -42.5 -210.999zM547.001 1378c17.333 -20 26.6689 -41 28.002 -63c1.33301 -12.667 2.66602 -26.167 3.99902 -40.5s4 -26.833 8 -37.5
s10.833 -19.167 20.5 -25.5s22.834 -9.5 39.501 -9.5c33.333 0 58.666 17.667 75.999 53c-16 -5.33301 -27 -8 -33 -8c-24.667 0 -43.667 13 -57 39c-18.667 38.667 -31.334 62.167 -38.001 70.5s-22.667 15.5 -48 21.5z" />
    <glyph glyph-name="g" unicode="g" horiz-adv-x="1044" 
d="M88 578c0 86.667 34 160.498 102 221.498s157.667 91.5 269 91.5c120.667 0 226.334 -38.333 317.001 -115c24.667 23.333 51.667 41.5 81 54.5s57.666 19.5 84.999 19.5c38 0 69.333 -10.333 94 -31s37 -46.667 37 -78c0 -21.333 -7.5 -40.333 -22.5 -57
s-34.167 -25 -57.5 -25c-14 0 -26.833 3.83301 -38.5 11.5s-24.334 19.334 -38.001 35.001s-25.167 27.334 -34.5 35.001s-20 11.5 -32 11.5c-10.667 0 -23.667 -5 -39 -15c44 -59.333 66 -118.666 66 -177.999c0 -53.333 -15.167 -103.666 -45.5 -150.999
s-71.166 -84.333 -122.499 -111c-33.333 -16.667 -65.5 -27.834 -96.5 -33.501s-65.167 -9.5 -102.5 -11.5c-76 -5.33301 -135.333 -15 -178 -29s-64 -40 -64 -78c0 -48.667 41.667 -73 125 -73c28 0.666992 53.167 1.16699 75.5 1.5s52.5 0.5 90.5 0.5
c130.667 0 228.5 -18.5 293.5 -55.5s97.5 -99.167 97.5 -186.5c0 -46.667 -10.333 -89.834 -31 -129.501s-52.167 -73.834 -94.5 -102.501s-97 -51.167 -164 -67.5s-144.5 -24.5 -232.5 -24.5c-128.667 0 -226.667 18.333 -294 55s-101 85.334 -101 146.001
c0 42.667 16.5 80.667 49.5 114s81.167 52 144.5 56c-86 38 -129 92.667 -129 164c0 46.667 20 90 60 130s96.667 73.667 170 101c-160 68.667 -240 170 -240 304zM541 845.998c44 -29.333 75.833 -64.668 95.5 -106.001s29.5 -95.333 29.5 -162
c0 -121.333 -33.667 -211 -101 -269c109.333 36.667 164 121.334 164 254.001c0 162 -62.667 256.333 -188 283zM633 583.996c0 78.667 -15 140.332 -45 184.999s-66.333 67 -109 67c-43.333 0 -79 -23.333 -107 -70s-42 -107.334 -42 -182.001
c0 -83.333 14.167 -149.666 42.5 -198.999s66.5 -74 114.5 -74c43.333 0 78.5 23.833 105.5 71.5s40.5 114.834 40.5 201.501zM406 859.994c-54.667 -6.66699 -104.002 -23.501 -148.002 -50.501s-77.833 -60.5 -101.5 -100.5s-35.5 -83 -35.5 -129
c0 -65.333 20.833 -123 62.5 -173s104.834 -86 189.501 -108c-61.333 36 -107.166 77.833 -137.499 125.5s-45.5 97.167 -45.5 148.5c0 55.333 18 108.333 54 159s90 93.334 162 128.001zM249.998 202.993c-39.333 -24.667 -68.999 -49.668 -88.999 -75.001s-30 -55 -30 -89
c0 -42.667 22.167 -78.167 66.5 -106.5s103.5 -42.833 177.5 -43.5c148.667 -1.33301 248.5 -3.5 299.5 -6.5s96.667 -15.333 137 -37s60.5 -57.5 60.5 -107.5c0 -4.66699 -1.33301 -15 -4 -31c18 32 27 60 27 84c0 50.667 -22.333 89.5 -67 116.5s-111 41.5 -199 43.5
c-63.333 1.33301 -126.333 2.83301 -189 4.5s-111.167 5.83398 -145.5 12.501s-60.333 18.667 -78 36s-26.5 42 -26.5 74c0 22 5.16699 42.5 15.5 61.5s25.166 40.167 44.499 63.5zM462.999 -444.008c77.333 0 144.168 7.33691 200.501 22.0039s99.833 36.167 130.5 64.5
s46 60.166 46 95.499c0 78 -89.667 117 -269 117c-80 0 -145.333 -4.33301 -196 -13s-89.667 -24.334 -117 -47.001s-41 -53.334 -41 -92.001c0 -44.667 21.667 -80.334 65 -107.001s103.666 -40 180.999 -40zM250.001 -444.004
c-78 41.333 -117.001 91.668 -117.001 151.001c0 34 12.333 62.333 37 85s61 45 109 67c-69.333 -6 -122.166 -22 -158.499 -48s-54.5 -59.333 -54.5 -100c0 -34.667 15.667 -65.834 47 -93.501s77 -48.167 137 -61.5zM1032 771.998
c-8 -12 -20.3311 -18.001 -36.998 -18.001c-12.667 0 -31.334 6.83301 -56.001 20.5s-45.334 20.5 -62.001 20.5c-6.66699 0 -13.167 -1.33301 -19.5 -4s-12.166 -5 -17.499 -7c5.33301 1.33301 12 2 20 2c17.333 0 40.666 -16.333 69.999 -49c22 -28.667 43 -43 63 -43
c15.333 0 27 5.33301 35 16s12 21.667 12 33c0 8.66699 -2.66699 18.334 -8 29.001z" />
    <glyph glyph-name="h" unicode="h" horiz-adv-x="1174" 
d="M1147 55l0.000976562 -54.998h-490v55c26 1.33301 45.833 3.16602 59.5 5.49902s25.834 7.16602 36.501 14.499s18.5 18.5 23.5 33.5s7.5 34.167 7.5 57.5v469c0 62 -14 107.5 -42 136.5s-61.667 43.5 -101 43.5c-66 0 -144.333 -41 -235 -123v-536
c0 -38.667 9.16699 -64.667 27.5 -78s54.166 -21 107.499 -23v-55h-494v55c44.667 1.33301 77 6.83301 97 16.5s30 32.834 30 69.501v975c0 91.333 -47 148.666 -141 171.999v41l332 105h41v-674c48 42 100 74.333 156 97s112.333 34 169 34
c58.667 0 109.167 -10.333 151.5 -31s75.166 -51.5 98.499 -92.5s35 -91.5 35 -151.5v-415c0 -40 1.16699 -68.333 3.5 -85s11.333 -31 27 -43s41.5 -18 77.5 -18h23zM817.001 674.002l-0.00195312 -520.001c0 -25.333 -3 -44.333 -9 -57s-16 -26 -30 -40
c42.667 0.666992 71.167 11 85.5 31s21.5 52 21.5 96v426c0 52 -3.66699 92.5 -11 121.5s-23.666 52.667 -48.999 71s-64.666 28.833 -117.999 31.5c73.333 -27.333 110 -80.666 110 -159.999zM206.999 1116l0.000976562 -948.003c0 -29.333 -1.83301 -51.166 -5.5 -65.499
s-11.5 -28.166 -23.5 -41.499h27c15.333 0 30.666 8.5 45.999 25.5s23 41.5 23 73.5v964c0 46.667 -6 82.334 -18 107.001c-10.667 21.333 -26.834 38.666 -48.501 51.999s-44.5 20 -68.5 20c-10.667 0 -29 -2.33301 -55 -7c48.667 -18 81.334 -41.167 98.001 -69.5
s25 -65.166 25 -110.499z" />
    <glyph glyph-name="i" unicode="i" horiz-adv-x="555" 
d="M397 891l-0.000976562 -722.998c0 -30.667 3.16699 -53.834 9.5 -69.501s18.333 -26.5 36 -32.5s44.834 -9.66699 81.501 -11v-55h-467v55c41.333 1.33301 70.166 9.66602 86.499 24.999s24.5 42.666 24.5 81.999v459c0 28.667 -9.66699 55.334 -29 80.001
s-46.666 43 -81.999 55v32l299 103h41zM200.999 618.002l-0.000976562 -475c0 -38.667 -13.667 -68 -41 -88c36.667 0 63.5 8.33301 80.5 25s25.5 44 25.5 82v469c0 42.667 -10.333 75.5 -31 98.5s-47.667 34.5 -81 34.5c-15.333 0 -27.666 -0.666992 -36.999 -2
c56 -29.333 84 -77.333 84 -144zM273.998 1378c25.333 0 48.999 -6.16895 70.999 -18.502s39.333 -29.166 52 -50.499s19 -44.666 19 -69.999s-6.33301 -48.833 -19 -70.5s-30 -38.834 -52 -51.501s-45.667 -19 -71 -19c-38 0 -70.667 14 -98 42s-41 61 -41 99
c0 24.667 6.16699 47.834 18.5 69.501s29.333 38.667 51 51s44.834 18.5 69.501 18.5zM290.997 1346c-39.333 0 -69.668 -9.33301 -91.001 -28s-32 -44.334 -32 -77.001c0 -31.333 10.333 -57.166 31 -77.499s51.334 -31.5 92.001 -33.5c-21.333 19.333 -37 36.5 -47 51.5
s-15 34.167 -15 57.5c0 43.333 20.667 79 62 107z" />
    <glyph glyph-name="j" unicode="j" horiz-adv-x="555" 
d="M174 -328l0.00195312 835.998c0 62 -1.83301 107.167 -5.5 135.5s-14.834 52.333 -33.501 72s-51.334 37.834 -98.001 54.501v39l328 82h36v-932c0 -56.667 -2.66699 -105 -8 -145s-18.333 -79.667 -39 -119c-28.667 -57.333 -71.667 -102.833 -129 -136.5
s-118.666 -50.5 -183.999 -50.5c-54.667 0 -98.334 12.833 -131.001 38.5s-49 58.167 -49 97.5c0 28.667 9.83301 52.834 29.5 72.501s41.167 29.5 64.5 29.5c22 0 43.167 -7.83301 63.5 -23.5s34.5 -35.167 42.5 -58.5l15.5 -44.5c5 -14.333 11 -25.5 18 -33.5
s15.833 -12 26.5 -12c35.333 0 53 32.667 53 98zM270.002 -158.002l-0.00195312 742.002c0 60 -7.5 107.333 -22.5 142s-50.5 52 -106.5 52c-16 0 -29 -0.666992 -39 -2c46.667 -18 75.834 -41.333 87.501 -70s17.5 -72.334 17.5 -131.001v-808
c0.666992 -10.667 1 -24.334 1 -41.001s-1.16699 -37.334 -3.5 -62.001s-6.16602 -47 -11.499 -67c34.667 22.667 56.167 53.334 64.5 92.001s12.5 89.667 12.5 153zM2 -303c-15.333 9.33301 -30.333 14 -45 14c-20 0 -35.5 -7.16699 -46.5 -21.5
s-16.5 -30.166 -16.5 -47.499c0 -26.667 11.167 -48.834 33.5 -66.501s54.833 -28.5 97.5 -32.5c-45.333 30 -68 63 -68 99c0 28 15 46.333 45 55zM276 1380c25.333 0 48.998 -6.33496 70.998 -19.002s39.333 -29.834 52 -51.501s19 -45.167 19 -70.5
s-6.33301 -48.666 -19 -69.999s-30 -38.166 -52 -50.499s-45.667 -18.5 -71 -18.5c-39.333 0 -72.666 13.333 -99.999 40s-41 59.667 -41 99c0 38.667 13.833 71.834 41.5 99.501s60.834 41.5 99.501 41.5zM290.998 1348h-14.998c-30.667 0 -56.334 -11.333 -77.001 -34
s-31 -47.667 -31 -75c0 -26 9.83301 -49.833 29.5 -71.5s43.167 -32.5 70.5 -32.5c4 0.666992 7.83301 1.16699 11.5 1.5s7.5 0.5 11.5 0.5c-18.667 12.667 -33.334 26 -44.001 40s-16 35.333 -16 64c0 44 20 79.667 60 107z" />
    <glyph glyph-name="k" unicode="k" horiz-adv-x="1067" 
d="M516 0l-463.002 -0.00195312v55h15c36.667 0 62.834 6 78.501 18s24.834 26.333 27.501 43s4 42.334 4 77.001v917c0 50 -8.5 89.833 -25.5 119.5s-50.167 51.834 -99.5 66.501v39l318 107h39v-1032c156.667 150.667 235 256.334 235 317.001c0 24 -9.16699 44 -27.5 60
s-46.833 26 -85.5 30v57h426v-57c-6.66699 -1.33301 -16 -3.66602 -28 -6.99902s-24.833 -7.5 -38.5 -12.5s-28.167 -12.333 -43.5 -22s-32.333 -23.834 -51 -42.501c-33.333 -34.667 -51.333 -53.667 -54 -57l-65 -84l166 -318
c34.667 -64.667 66.167 -114.334 94.5 -149.001s59.5 -58 93.5 -70v-55h-426v55c45.333 6 68 21.667 68 47c0 8 -2.33301 16.5 -7 25.5s-14 25.833 -28 50.5l-133 248l-96 -92v-193c0 -55.333 35.333 -84 106 -86v-55zM802.998 818.998h-176c34 -24.667 51 -54.667 51 -90
c0 -14 -4 -31 -12 -51c53.333 70 99 117 137 141zM722.998 232.998l-143 266.998l-48 -47l146 -281l13 -22c4 -6.66699 7.66699 -14 11 -22s5 -16 5 -24c0 -14.667 -9.66699 -31 -29 -49c28 0.666992 49.333 7.33398 64 20.001s22 29.334 22 50.001c0 20 -13.667 56 -41 108
zM278.998 163.996l-0.000976562 930c0 58 -3.5 102.167 -10.5 132.5s-23.167 53 -48.5 68s-66 21.167 -122 18.5c44.667 -19.333 74.667 -44 90 -74s23 -71 23 -123v-944c0 -32.667 -2.66699 -57.5 -8 -74.5s-17.666 -33.167 -36.999 -48.5c75.333 2 113 40.333 113 115z
" />
    <glyph glyph-name="l" unicode="l" horiz-adv-x="555" 
d="M172 156l0.000976562 947.999c0 50.667 -8 90.334 -24 119.001s-53 53.667 -111 75v39l325 107h39v-1251c0 -52 5.83301 -88 17.5 -108s41.5 -30 89.5 -30h27v-55h-498v55h24c39.333 0 67.666 8.33301 84.999 25s26 42 26 76zM270.001 196.999v901.001
c0 47.333 -2.16699 85.166 -6.5 113.499s-16.666 52 -36.999 71s-52.833 28.5 -97.5 28.5c-22 0 -39.667 -0.666992 -53 -2c61.333 -17.333 98.166 -43 110.499 -77s18.5 -78.667 18.5 -134v-936c0 -45.333 -13.667 -81 -41 -107c46.667 2 76 14.833 88 38.5
s18 58.167 18 103.5z" />
    <glyph glyph-name="m" unicode="m" horiz-adv-x="1792" 
d="M1022 686l0.00195312 -514.004c0 -36 5.66699 -64 17 -84s30.333 -30.333 57 -31c10.667 0 19.667 -0.166992 27 -0.5s15.333 -0.833008 24 -1.5v-55h-481v55c52.667 -2 87 5.66699 103 23s24 48 24 92v440c0 132.667 -46 199 -138 199c-34 0 -73.833 -11.667 -119.5 -35
s-85.5 -52.666 -119.5 -87.999v-534c0 -39.333 10.5 -65.333 31.5 -78s53.5 -19 97.5 -19v-55h-492v55h13c32.667 0 57.834 3.66699 75.501 11s29.167 19.5 34.5 36.5s8 39.5 8 67.5v408c0 48 -7.83301 84.333 -23.5 109s-49.5 47 -101.5 67v34l324 103h33v-137
c53.333 44.667 107.833 78.667 163.5 102s110.167 35 163.5 35c36 0 71.167 -5.66699 105.5 -17s65.166 -28.166 92.499 -50.499s48.333 -49.166 63 -80.499c56.667 48.667 113.167 85.5 169.5 110.5s115.166 37.5 176.499 37.5c56.667 0 106 -10.167 148 -30.5
s74.5 -52.166 97.5 -95.499s34.5 -96.333 34.5 -159v-454c0 -24.667 3.83301 -43.667 11.5 -57s20.667 -23.333 39 -30s43.833 -10 76.5 -10v-55h-485v55h24c37.333 0 64.166 7.83301 80.499 23.5s24.5 42.834 24.5 81.501v430c0 69.333 -9.5 123.166 -28.5 161.499
s-55.167 57.5 -108.5 57.5c-73.333 0 -154 -41 -242 -123zM891.002 200.996l-0.000976562 442c0 66 -15.333 114 -46 144s-74.667 42 -132 36c47.333 -14.667 77.833 -39.5 91.5 -74.5s20.5 -87.167 20.5 -156.5v-436c0 -28 -3.16699 -49.5 -9.5 -64.5
s-18.166 -29.167 -35.499 -42.5c50 3.33301 81 16.5 93 39.5s18 60.5 18 112.5zM1499 192.996v444.004c0 38.667 -4.5 71.5 -13.5 98.5s-27.167 48.5 -54.5 64.5s-67.333 23.667 -120 23c48.667 -16.667 81.334 -38.834 98.001 -66.501s25 -69.5 25 -125.5v-422
c0 -52 -2.33301 -87.833 -7 -107.5s-18.334 -37.834 -41.001 -54.501c32.667 -0.666992 57.5 5.66602 74.5 18.999s27.667 30.666 32 51.999s6.5 46.333 6.5 75zM285.001 186v423.998c0 49.333 -10.833 86.333 -32.5 111s-49.834 37 -84.501 37
c-7.33301 0 -23 -1.33301 -47 -4c40.667 -14 66.834 -36.167 78.501 -66.5s17.5 -74.5 17.5 -132.5v-340c0 -53.333 -2.16699 -89.666 -6.5 -108.999s-15.833 -36.333 -34.5 -51c48.667 0.666992 79 12.334 91 35.001s18 54.667 18 96z" />
    <glyph glyph-name="n" unicode="n" horiz-adv-x="1174" 
d="M403 891l-0.000976562 -133c56 43.333 107.833 76.333 155.5 99s104.5 34 170.5 34c188.667 0 283 -93.667 283 -281v-456c0 -43.333 10.333 -70.666 31 -81.999s52 -17 94 -17v-55h-482v55c42.667 0 73.834 6.83301 93.501 20.5s29.5 42.5 29.5 86.5v483
c0 35.333 -5.5 65.166 -16.5 89.499s-27.167 42.833 -48.5 55.5s-47.333 19 -78 19c-38 0 -75.167 -9.83301 -111.5 -29.5s-76.5 -49.5 -120.5 -89.5v-528c0 -30 5 -53 15 -69s23.5 -26 40.5 -30s41.5 -6.66699 73.5 -8v-55h-483v55c40.667 0 72 5.5 94 16.5
s33 36.167 33 75.5v443c0 44 -10 79.5 -30 106.5s-52.333 47.5 -97 61.5v33l316 100h38zM208.999 623l0.000976562 -459c0 -30 -2.16699 -51.667 -6.5 -65s-13.833 -28 -28.5 -44c65.333 6 98 42.333 98 109v477c0 33.333 -11.833 61.833 -35.5 85.5
s-51.167 35.5 -82.5 35.5c-3.33301 0 -9.33301 -0.666992 -18 -2s-14.334 -2 -17.001 -2c60 -27.333 90 -72.333 90 -135zM811 655v-492.998c0 -20.667 -0.5 -35.834 -1.5 -45.501s-3.66699 -19 -8 -28s-12.833 -20.167 -25.5 -33.5h19c34.667 0 57.667 12.833 69 38.5
s17 64.167 17 115.5v442c0 57.333 -12.667 101 -38 131s-70 46.333 -134 49c36 -14.667 62 -35.834 78 -63.501s24 -65.167 24 -112.5z" />
    <glyph glyph-name="o" unicode="o" 
d="M61 430c0 85.333 20.168 163.335 60.501 234.002s95.333 126.167 165 166.5s146.834 60.5 231.501 60.5c82.667 0 158.167 -19.667 226.5 -59s122.166 -93.666 161.499 -162.999s59 -146.333 59 -231c0 -64.667 -11.833 -125.834 -35.5 -183.501
s-56.334 -107.334 -98.001 -149.001s-89.5 -73.834 -143.5 -96.501s-112 -34 -174 -34c-83.333 0 -159.5 19 -228.5 57s-123.667 91.5 -164 160.5s-60.5 148.167 -60.5 237.5zM416.001 14.002c-86.667 52.667 -151.671 115.002 -195.004 187.002s-65 151 -65 237
c0 65.333 10.333 122.666 31 171.999s47.834 91.833 81.501 127.5s75.834 72.5 126.501 110.5c-67.333 -24 -123.666 -57.667 -168.999 -101s-78.666 -92.833 -99.999 -148.5s-32 -114.5 -32 -176.5c0 -45.333 7 -90 21 -134s34.5 -83.667 61.5 -119s60.5 -66.333 100.5 -93
s86.333 -47.334 139 -62.001zM308.997 487.004c0 -142 20.666 -253.501 61.999 -334.501s95 -121.5 161 -121.5c33.333 0 64.333 13.833 93 41.5s51.5 68.667 68.5 123s25.5 120.833 25.5 199.5c0 138.667 -18.5 246.834 -55.5 324.501s-88.167 116.5 -153.5 116.5
c-63.333 0 -112.666 -29.167 -147.999 -87.5s-53 -145.5 -53 -261.5zM661.996 66.0029c50 27.333 88.333 70.667 115 130s40 132 40 218c0 212 -65.333 350.333 -196 415c46.667 -46.667 80.167 -104 100.5 -172s30.5 -159.333 30.5 -274
c0 -72.667 -7.5 -133.5 -22.5 -182.5s-37.5 -93.833 -67.5 -134.5z" />
    <glyph glyph-name="p" unicode="p" horiz-adv-x="1130" 
d="M389 891l-0.000976562 -108.997c46.667 34.667 91.667 61.5 135 80.5s92 28.5 146 28.5c52 0 102.5 -11.333 151.5 -34s92 -54 129 -94s66.667 -88.333 89 -145s33.5 -116.667 33.5 -180c0 -88 -20.667 -167.333 -62 -238s-98.166 -125.834 -170.499 -165.501
s-153.166 -59.5 -242.499 -59.5c-70 0 -139.667 15 -209 45v-346c0 -26 2.66699 -46.833 8 -62.5s16.666 -27.167 33.999 -34.5s41.666 -11 72.999 -11h51v-55h-522v57c34 1.33301 59.333 3.66602 76 6.99902s29.334 11.333 38.001 24s13 31.667 13 57v946
c0 51.333 -10.167 90.166 -30.5 116.499s-54.5 47.5 -102.5 63.5v41l323 68h39zM257.999 -290.997l0.000976562 903.002c0 62 -12.333 107 -37 135s-65.667 39.667 -123 35c37.333 -20.667 62.5 -42.5 75.5 -65.5s19.5 -59.833 19.5 -110.5v-942
c0 -26.667 -3 -47.834 -9 -63.501s-17.333 -29.834 -34 -42.501c45.333 4 74.666 17 87.999 39s20 59.333 20 112zM389 709.005l-0.000976562 -590.001c63.333 -58.667 123.333 -88 180 -88c46 0 88 14 126 42s68.5 70.5 91.5 127.5s34.5 126.833 34.5 209.5
c0 80.667 -11 148.834 -33 204.501s-52.167 97.5 -90.5 125.5s-81.166 42 -128.499 42c-58 0 -118 -24.333 -180 -73zM548.999 813.004h23.999c84.667 0 152.667 -35.167 204 -105.5s77 -169.5 77 -297.5c0 -98.667 -12.667 -174.667 -38 -228s-60.333 -98.333 -105 -135
c46.667 17.333 85.334 42.666 116.001 75.999s53.834 75 69.501 125s23.5 106 23.5 168c0 74.667 -9.16699 139.834 -27.5 195.501s-41.5 99.5 -69.5 131.5s-57.833 55.5 -89.5 70.5s-61.834 22.5 -90.501 22.5s-60 -7.66699 -94 -23z" />
    <glyph glyph-name="q" unicode="q" horiz-adv-x="1130" 
d="M981 891v-1206c0 -26.667 2.5 -48.667 7.5 -66s13.167 -29.833 24.5 -37.5s25.333 -12.5 42 -14.5s36.334 -3 59.001 -3v-56h-493v56c52.667 0 87.667 7.33301 105 22s26 44.667 26 90v398c-40 -30.667 -86.5 -55.167 -139.5 -73.5s-104.167 -27.5 -153.5 -27.5
c-57.333 0 -109.833 10 -157.5 30s-89 49.333 -124 88s-61.667 84.667 -80 138s-27.5 111.333 -27.5 174c0 92.667 18.833 176 56.5 250s91.167 132.167 160.5 174.5s147.666 63.5 234.999 63.5c98.667 0 193 -26 283 -78c38 12.667 81.667 38.667 131 78h45zM784 594v-911
c0 -36.667 -2.83301 -62.667 -8.5 -78s-16.5 -29 -32.5 -41c38 2.66699 65.333 13.167 82 31.5s25 45.833 25 82.5v875c0 66 -11.333 117.167 -34 153.5s-57 65.166 -103 86.499c26.667 -27.333 45.167 -55.666 55.5 -84.999s15.5 -67.333 15.5 -114zM557 18
c-41.333 -1.33301 -77.9971 1.00684 -109.997 7.00684s-63.5 18.167 -94.5 36.5s-61.833 46.166 -92.5 83.499c-20.667 25.333 -37.834 51.666 -51.501 78.999s-23.834 55.666 -30.501 84.999s-10 61.666 -10 96.999c0 65.333 10.167 126.333 30.5 183
s51.5 108.167 93.5 154.5s96.333 85.833 163 118.5c-52 -12.667 -92.333 -26.334 -121 -41.001c-68.667 -34.667 -124.5 -90 -167.5 -166s-64.5 -160 -64.5 -252c0 -74.667 14.833 -141.834 44.5 -201.501s71.667 -106.834 126 -141.501s117.166 -52 188.499 -52
c22.667 0 54.667 3.33301 96 10zM752.003 143.007v459.001c0 37.333 -5.5 71 -16.5 101s-25 54.5 -42 73.5s-37.167 33.667 -60.5 44s-47.333 15.5 -72 15.5c-46 0 -87.5 -14.833 -124.5 -44.5s-66.5 -73.834 -88.5 -132.501s-33 -131 -33 -217
c0 -120 22.333 -213.167 67 -279.5s103 -99.5 175 -99.5c67.333 0 132.333 26.667 195 80z" />
    <glyph glyph-name="r" unicode="r" horiz-adv-x="768" 
d="M416 891l0.00195312 -153.999c51.333 58 90.666 98.167 117.999 120.5s60.333 33.5 99 33.5c33.333 0 61.5 -11.833 84.5 -35.5s34.5 -53.5 34.5 -89.5c0 -37.333 -10.333 -68.5 -31 -93.5s-46.667 -37.5 -78 -37.5c-14 0 -29.333 2.66699 -46 8s-30.667 12.333 -42 21
l-21 17c-7.33301 6 -13.833 10.667 -19.5 14s-11.834 5 -18.501 5c-12.667 0 -25.167 -4.83301 -37.5 -14.5s-26.5 -23.167 -42.5 -40.5v-483c0 -34.667 4.83301 -59.334 14.5 -74.001s24.667 -23.834 45 -27.501s55.833 -5.5 106.5 -5.5v-55h-537v55h27
c77.333 0 116 30.667 116 92v449c0 76.667 -47.667 129.334 -143 158.001v34l322 103h49zM221.002 596.001l-0.000976562 -455c0 -22.667 -3.66699 -39.5 -11 -50.5s-18 -22.833 -32 -35.5c38 3.33301 65.333 13.5 82 30.5s25 46.5 25 88.5v422c0 57.333 -10 99 -30 125
s-51.667 39 -95 39c-3.33301 0 -10.666 -0.666992 -21.999 -2s-19 -2 -23 -2c70.667 -30.667 106 -84 106 -160zM483.001 737.001c18 0 36.001 -6 54.001 -18c41.333 -32.667 76 -49 104 -49c34.667 0 60 22.333 76 67c-18.667 -9.33301 -32.334 -14 -41.001 -14
c-20 0 -40 6.66699 -60 20c-25.333 20.667 -46.333 31 -63 31c-16 0 -39.333 -12.333 -70 -37z" />
    <glyph glyph-name="s" unicode="s" horiz-adv-x="768" 
d="M63 49v261.997h54c50.667 -90 103.667 -157.833 159 -203.5s109.333 -68.5 162 -68.5c34 0 64.333 11 91 33s40 47 40 75c0 36.667 -10 62 -30 76c-75.333 50 -147.666 88.333 -216.999 115c-183.333 68 -275 165 -275 291c0 74.667 28.667 137 86 187
s134.666 75 231.999 75c49.333 0 95.333 -5.16699 138 -15.5s90 -25.166 142 -44.499l10 -237h-49c-54 80 -107.5 140.333 -160.5 181s-105.167 61 -156.5 61c-32 0 -58.5 -10.5 -79.5 -31.5s-31.5 -44.167 -31.5 -69.5c0 -32.667 13 -58.5 39 -77.5
s80.667 -47.167 164 -84.5s156.333 -73.333 219 -108c39.333 -20.667 70.666 -49.667 93.999 -87s35 -78 35 -122c0 -51.333 -14.833 -98.666 -44.5 -141.999s-70.667 -77.666 -123 -102.999s-111.166 -38 -176.499 -38c-92.667 0 -200 25.333 -322 76zM100 222.997
l0.000976562 -125.001c33.333 -14.667 88.666 -32.334 165.999 -53.001c-41.333 28.667 -72 54.334 -92 77.001s-44.667 56.334 -74 101.001zM590.001 95.9961c18 16.667 31.334 31.8291 40.001 45.4961s13 32.167 13 55.5c0 71.333 -52 128 -156 170
c-93.333 38.667 -167 72.834 -221 102.501s-93 60.334 -117 92.001s-36 71.167 -36 118.5c0 28.667 8 60.667 24 96c-17.333 -21.333 -31.166 -42.5 -41.499 -63.5s-15.5 -46.833 -15.5 -77.5c0 -63.333 22.667 -114.666 68 -153.999s112.666 -79.166 201.999 -119.499
s153.666 -73.333 192.999 -99s59 -61.167 59 -106.5c0 -16.667 -4 -36.667 -12 -60zM582.002 681.991l-9 115c-44 18 -78.333 30.333 -103 37s-60.667 10 -108 10c50 -17.333 89.833 -37.5 119.5 -60.5s63.167 -56.833 100.5 -101.5z" />
    <glyph glyph-name="t" unicode="t" horiz-adv-x="662" 
d="M158 242l0.00195312 569h-107v51l132 101.5c29.333 23.667 57.166 50.167 83.499 79.5s48.833 60 67.5 92h53v-261h248v-63h-248v-598c0 -44 5.33301 -76.833 16 -98.5s28.667 -32.5 54 -32.5c24 0 46.167 6.66699 66.5 20s45.166 34 74.499 62l37 -39
c-50 -51.333 -95.833 -89.5 -137.5 -114.5s-89.5 -37.5 -143.5 -37.5c-51.333 0 -91.333 11.333 -120 34s-48.5 53.5 -59.5 92.5s-16.5 86.5 -16.5 142.5zM256.002 981l-65.998 -55v-664c0 -88.667 11.5 -153.167 34.5 -193.5s64.167 -60.5 123.5 -60.5
c31.333 0 62.666 5 93.999 15c-60.667 -2 -106.834 12.167 -138.501 42.5s-47.5 80.833 -47.5 151.5v764z" />
    <glyph glyph-name="u" unicode="u" horiz-adv-x="1174" 
d="M639 815l-0.00195312 58.999h358v-681c0 -27.333 4.83301 -47.666 14.5 -60.999s23.334 -22 41.001 -26s41.5 -6 71.5 -6h9v-57l-365 -70v138c-110 -92 -219.333 -138 -328 -138c-85.333 0 -153.333 25.333 -204 76s-76 122.334 -76 215.001v348c0 52 -1.66699 89 -5 111
s-14.666 41 -33.999 57s-51.333 27.667 -96 35v59h366v-591c0 -50.667 4.5 -91.667 13.5 -123s24 -54.833 45 -70.5s48.5 -23.5 82.5 -23.5c74 0 152.667 36.667 236 110v479c0 101.333 -43 154.666 -129 159.999zM865.998 128.999l0.000976562 536.999
c0 46.667 -6.33301 83.834 -19 111.501s-40.334 41.5 -83.001 41.5c-1.33301 0 -6.33301 -0.666992 -15 -2s-14 -2 -16 -2c26.667 -16.667 44.667 -37.5 54 -62.5s14 -56.833 14 -95.5v-634c23.333 8 40 19.833 50 35.5s15 39.167 15 70.5zM259.999 243.998l0.000976562 450
c0 83.333 -32.667 125 -98 125c-1.33301 0 -7 -0.666992 -17 -2s-16 -2 -18 -2c28 -21.333 46 -44.333 54 -69s12 -55.667 12 -93v-370c0 -88 21.167 -156.833 63.5 -206.5s100.166 -74.5 173.499 -74.5c21.333 0 42 1.33301 62 4c-75.333 6 -132.833 29.333 -172.5 70
s-59.5 96.667 -59.5 168z" />
    <glyph glyph-name="v" unicode="v" 
d="M657 815v58.999h344v-59c-41.333 -18.667 -75.666 -44 -102.999 -76s-54.333 -79.667 -81 -143l-270 -623h-80l-297 699c-22.667 53.333 -44.5 90.333 -65.5 111s-49.167 31.334 -84.5 32.001v59h502v-55h-37c-24.667 0 -45.5 -7.16699 -62.5 -21.5
s-25.5 -30.833 -25.5 -49.5c0 -12 11 -45.667 33 -101l172 -407l111 252c32.667 76 49 134 49 174c0 38 -8.83301 69.833 -26.5 95.5s-43.834 43.5 -78.501 53.5zM895 818.999h-164c40 -28 60 -73.667 60 -137c30 63.333 64.667 109 104 137zM487 9.99902l15 2l20 39
c2.66699 2.66699 4 11.667 4 27c0 10 -8 31 -24 63l-230 545c-18.667 45.333 -38 78.833 -58 100.5s-46.333 32.5 -79 32.5h-22c18.667 -12 34.667 -29.833 48 -53.5s25.333 -48.167 36 -73.5z" />
    <glyph glyph-name="w" unicode="w" horiz-adv-x="1556" 
d="M1327 565l-245.997 -591.999h-77l-226 496l-207 -496h-77l-318 691c-24.667 55.333 -46.834 94 -66.501 116s-47.834 34.333 -84.501 37v57h452v-57c-50.667 -2 -76 -22.333 -76 -61c0 -11.333 2 -24 6 -38s8.66699 -27 14 -39s11.666 -25.333 18.999 -40l185 -395
l120 293l-55 114c-22 47.333 -43 83.166 -63 107.499s-46.667 43.833 -80 58.5v57h491v-57c-36.667 0 -65.5 -4.83301 -86.5 -14.5s-31.5 -30.834 -31.5 -63.501c0 -17.333 2.5 -33 7.5 -47s16.833 -42 35.5 -84l170 -364l108 266l21 47.5c8 17.667 15 37.834 21 60.501
s9 46.667 9 72c0 31.333 -9 58.833 -27 82.5s-43.667 38.5 -77 44.5v57h344v-57c-76.667 -20.667 -145 -104.667 -205 -252zM1417 819.001l-149 0.000976562c21.333 -14 36 -29.833 44 -47.5s13.667 -42.167 17 -73.5c6 22.667 17.333 45.167 34 67.5
s34.667 40.166 54 53.499zM727.003 649.002l290.998 -631h12c12.667 19.333 19 37.333 19 54c0 21.333 -3.66699 40.833 -11 58.5s-17.333 39.167 -30 64.5l-205 444c-26.667 56.667 -47.667 96.334 -63 119.001s-32.666 38.167 -51.999 46.5s-46 12.5 -80 12.5
c26.667 -16.667 48.334 -38.334 65.001 -65.001s34.667 -61 54 -103zM242.001 602.002l267.999 -584.002h16c10 22 15 40 15 54c0 22.667 -18 71.667 -54 147l-198 434c-21.333 47.333 -38.666 81.833 -51.999 103.5s-29.166 37.334 -47.499 47.001s-44.5 14.167 -78.5 13.5
c14 -10 27.167 -23.667 39.5 -41s26.166 -41.166 41.499 -71.499z" />
    <glyph glyph-name="x" unicode="x" 
d="M1004 0l-498 0.00195312v55c54.667 7.33301 82 28 82 62c0 15.333 -13.667 42 -41 80l-96 129l-62 -76c-14 -16.667 -25.333 -32.667 -34 -48s-13 -35 -13 -59c0 -22.667 8.66699 -42 26 -58s42 -26 74 -30v-55h-411v55c29.333 4 60.5 15.5 93.5 34.5s67 43.667 102 74
s71.5 67.833 109.5 112.5l80 97l-262 354c-28.667 38.667 -52.334 63 -71.001 73s-39.667 17.667 -63 23v51h486v-51c-48 -4 -72 -21 -72 -51c0 -22 12.333 -50 37 -84l98 -133l47 57c40 46.667 60 92 60 136c0 21.333 -6.66699 38.666 -20 51.999s-32.666 21 -57.999 23v51
h375v-51c-38 -6.66699 -72.833 -19.834 -104.5 -39.501s-60.5 -43 -86.5 -70s-56 -60.833 -90 -101.5l-88 -104l234 -320c2 -2 9.33301 -12.333 22 -31s25.667 -34.667 39 -48s28.333 -24.333 45 -33s36.667 -15.667 60 -21v-55zM199 727.002l374.002 -509.998
c32 -44 48 -78 48 -102c0 -20.667 -9 -40.667 -27 -60h24c18 0 34.833 7 50.5 21s23.5 29.667 23.5 47c0 28.667 -21.667 73 -65 133l-346 471c-25.333 33.333 -44.5 56 -57.5 68s-27.833 19.833 -44.5 23.5s-39.334 5.16699 -68.001 4.5c11.333 -8 22 -17.167 32 -27.5
s18.667 -19.833 26 -28.5s13.666 -16.834 18.999 -24.501s9 -12.834 11 -15.501zM834.002 819.004h-154c19.333 -21.333 29 -45 29 -71c0 -13.333 -2.33301 -26.333 -7 -39c46.667 49.333 90.667 86 132 110zM131.002 55.0039h184.001
c-14.667 12.667 -24.834 24.167 -30.501 34.5s-8.5 24.833 -8.5 43.5c0 13.333 3.66699 29 11 47c-50 -55.333 -102 -97 -156 -125z" />
    <glyph glyph-name="y" unicode="y" 
d="M659 874l344.998 -0.00195312v-51c-32.667 -14 -60.334 -31.167 -83.001 -51.5s-41.834 -43.333 -57.501 -69s-32.667 -59 -51 -100s-36.5 -84.833 -54.5 -131.5l-269 -684c-72 -186 -168 -279 -288 -279c-39.333 0 -73.166 10.833 -101.499 32.5
s-42.5 47.834 -42.5 78.501c0 26.667 11.167 49 33.5 67s48.833 27 79.5 27c14.667 0 30.834 -3.66699 48.501 -11l52 -22.5c17 -7.66699 32.5 -11.5 46.5 -11.5c44 0 83.667 45.667 119 137l53 144l-301 700c-8 20.667 -16.833 41.834 -26.5 63.501
s-20.167 40.5 -31.5 56.5s-25.666 28.833 -42.999 38.5s-38.666 14.834 -63.999 15.501v51h520v-51c-41.333 -2.66699 -72.833 -8.83398 -94.5 -18.501s-32.5 -28.5 -32.5 -56.5c0 -28.667 9.33301 -65.667 28 -111l166 -383l125 307c16.667 40 25 83 25 129
c0 74.667 -33.667 119 -101 133v51zM892.998 818.998l-158 0.000976562c20 -16 33.5 -32.5 40.5 -49.5s12.167 -43.5 15.5 -79.5c15.333 34 30.333 60.167 45 78.5s33.667 35.166 57 50.499zM509.998 -0.000976562l32.999 80.001l-258 598
c-19.333 45.333 -35.5 77.833 -48.5 97.5s-28.333 33.167 -46 40.5s-40.834 9.66602 -69.501 6.99902c26.667 -24 44.834 -45.333 54.501 -64s24.834 -52 45.501 -100zM235.997 -461c-54.667 12.667 -82 38.667 -82 78c0 24.667 16.333 45 49 61c-20.667 6 -35 9 -43 9
c-20.667 0 -37.5 -6.5 -50.5 -19.5s-19.5 -28.5 -19.5 -46.5c0 -26.667 12.667 -48 38 -64s61.333 -22 108 -18z" />
    <glyph glyph-name="z" unicode="z" horiz-adv-x="918" 
d="M823 338l60 -0.000976562l-68 -338h-770v14l543 805h-115c-74 0 -137.333 -14.167 -190 -42.5s-113.667 -81.166 -183 -158.499h-55l84 293h55c23.333 -17.333 48.5 -27.833 75.5 -31.5s70.833 -5.5 131.5 -5.5h492v-22l-533 -797h86c62 0 116.5 13 163.5 39
s86 57.5 117 94.5s66.5 86.833 106.5 149.5zM600 54.999h143l41 166c-20 -34 -44.333 -63.667 -73 -89s-65.667 -51 -111 -77zM539 691.999l-428.002 -637c27.333 0.666992 49.833 5.5 67.5 14.5s31.334 19.5 41.001 31.5s23.834 32.333 42.501 61l445 661
c-35.333 -2 -62.833 -10.333 -82.5 -25s-48.167 -50 -85.5 -106zM146.998 859.999l-46.999 -166l49.5 50.5c17 17 35 31.833 54 44.5s41.833 24 68.5 34c-31.333 0 -54.833 1.83301 -70.5 5.5s-33.834 14.167 -54.501 31.5z" />
    <glyph glyph-name="braceleft" unicode="{" horiz-adv-x="682" 
d="M426 -236c0 -54 17.999 -100.498 53.999 -139.498s87.667 -62.5 155 -70.5v-48c-94 0.666992 -173.833 18 -239.5 52s-114.834 77.167 -147.501 129.5s-49 105.166 -49 158.499c0 32 9.83301 87.333 29.5 166s29.5 138 29.5 178c0 60 -17.667 111.333 -53 154
s-87.333 69.334 -156 80.001v68c45.333 6.66699 83.666 21 114.999 43s54.833 49 70.5 81s23.5 68.333 23.5 109c0 23.333 -3 51.166 -9 83.499s-13.833 67.666 -23.5 105.999s-16.5 68 -20.5 89s-6 40.833 -6 59.5c0 58 16.5 113.5 49.5 166.5s82.833 96.167 149.5 129.5
s145.667 50 237 50v-47c-68 -8 -119.833 -31.5 -155.5 -70.5s-53.5 -85.167 -53.5 -138.5c0 -27.333 3.33301 -58.333 10 -93s13.334 -66.167 20.001 -94.5s12.167 -54 16.5 -77s6.5 -45.5 6.5 -67.5c0 -71.333 -21 -135.5 -63 -192.5s-92.667 -97.833 -152 -122.5
c-30 -12 -52.667 -21.333 -68 -28s-28.166 -11.667 -38.499 -15s-18.5 -4.66602 -24.5 -3.99902c112.667 -34.667 198.5 -80.834 257.5 -138.501s88.5 -132.5 88.5 -224.5c0 -22 -2 -43.667 -6 -65s-11.167 -55 -21.5 -101s-17.166 -78.333 -20.499 -97s-5 -41.667 -5 -69z
M300.999 1061c0 133.333 75.667 235.001 227 305.001c-65.333 -15.333 -120.666 -38.333 -165.999 -69s-78.5 -66 -99.5 -106s-31.5 -81.333 -31.5 -124c0 -17.333 3.16699 -40.166 9.5 -68.499s13.333 -56.833 21 -85.5s14.5 -59.834 20.5 -93.501s9 -63.834 9 -90.501
c0 -44 -8.5 -84.5 -25.5 -121.5s-41.167 -66.833 -72.5 -89.5c52.667 24.667 92.667 57.5 120 98.5s41 86.833 41 137.5c0 24.667 -2.33301 49 -7 73s-10.334 48.667 -17.001 74s-13.167 52.833 -19.5 82.5s-9.5 55.5 -9.5 77.5zM353.999 162.003
c0 33.333 -5.99805 64.499 -17.998 93.499s-30.167 55.833 -54.5 80.5s-53.833 45 -88.5 61c65.333 -46.667 98 -116.334 98 -209.001c0 -26 -3 -56 -9 -90s-12.5 -64 -19.5 -90s-14 -54.5 -21 -85.5s-10.5 -55.833 -10.5 -74.5c0 -65.333 24.667 -125.5 74 -180.5
s123.666 -94.5 222.999 -118.5c-151.333 72 -227 174 -227 306c0 23.333 1.5 42.333 4.5 57s9.66699 42.334 20 83.001s17.666 72.334 21.999 95.001s6.5 46.667 6.5 72z" />
    <glyph glyph-name="bar" unicode="|" horiz-adv-x="451" 
d="M159 -442v1829h130v-1829h-130z" />
    <glyph glyph-name="braceright" unicode="}" horiz-adv-x="682" 
d="M428 717c0 -62.667 17.998 -113.833 53.998 -153.5s87 -63.5 153 -71.5v-68c-66 -8 -117 -31.833 -153 -71.5s-54 -89.5 -54 -149.5c0 -24 3.5 -55.167 10.5 -93.5s13.833 -73 20.5 -104s12.334 -58.667 17.001 -83s7 -49.833 7 -76.5
c0 -52.667 -15.333 -104.667 -46 -156s-74 -93.333 -130 -126c-37.333 -21.333 -76.666 -36 -117.999 -44s-88.666 -12.667 -141.999 -14v52c46 6.66699 84.5 19.834 115.5 39.501s53.667 44 68 73s21.5 61.167 21.5 96.5c0 43.333 -8.16699 104.833 -24.5 184.5
s-24.5 134.834 -24.5 165.501c0 25.333 2 45.666 6 60.999s10.667 31.333 20 48s19.666 32.5 30.999 47.5l43 58.5c24 32.667 61.833 59 113.5 79s92.5 33.333 122.5 40c0 -0.666992 -0.833008 0 -2.5 2s-3.83398 3.33301 -6.50098 4c-66.667 20 -124.667 47.833 -174 83.5
s-87.166 75.667 -113.499 120s-39.5 89.833 -39.5 136.5c0 24 2 47.833 6 71.5s10 54.5 18 92.5s14.167 72.167 18.5 102.5s6.5 59.5 6.5 87.5c0 53.333 -17.167 98.833 -51.5 136.5s-85.5 61.167 -153.5 70.5v49c76.667 0 139.667 -8.33301 189 -25
c71.333 -23.333 130.333 -65 177 -125s70 -122.667 70 -188c0 -26 -2.16699 -50.5 -6.5 -73.5s-11.833 -59.667 -22.5 -110s-17.667 -85.333 -21 -105s-5 -40.834 -5 -63.501zM302.998 98.001c0 56.667 13.666 110.17 40.999 160.503s67 93.833 119 130.5
c-72 -22.667 -127.833 -60.334 -167.5 -113.001s-59.5 -112.667 -59.5 -180c0 -19.333 3.33301 -45.333 10 -78s13.334 -62.834 20.001 -90.501s12.5 -54.334 17.5 -80.001s7.5 -53.5 7.5 -83.5c0 -47.333 -10.833 -88.5 -32.5 -123.5s-54.5 -66.167 -98.5 -93.5
c64.667 24.667 113.834 59.5 147.501 104.5s50.5 94.833 50.5 149.5c0 22 -2.5 43.667 -7.5 65s-10.833 44.5 -17.5 69.5s-13.334 53.5 -20.001 85.5s-10 57.667 -10 77zM357.997 1114c0 56 -16.666 106.002 -49.999 150.002s-82.666 78 -147.999 102
c44 -26 76.833 -56.333 98.5 -91s32.5 -76.667 32.5 -126c0 -28.667 -2.33301 -54.667 -7 -78s-10.334 -49.333 -17.001 -78s-13.5 -60 -20.5 -94s-10.5 -62 -10.5 -84c0 -62.667 19.833 -120.834 59.5 -174.501s95.5 -92.5 167.5 -116.5
c-52 35.333 -91.667 78.833 -119 130.5s-41 105.167 -41 160.5c0 19.333 1.66699 37.666 5 54.999s10.166 47 20.499 89l22.5 93c4.66699 20 7 40.667 7 62z" />
    <glyph glyph-name="asciitilde" unicode="~" horiz-adv-x="1065" 
d="M1044 709h56.998c-4 -106 -31.5 -186.333 -82.5 -241s-113.167 -82 -186.5 -82c-35.333 0 -72.833 5.66699 -112.5 17s-127.167 45.333 -262.5 102c-97.333 40.667 -167.666 61 -210.999 61c-45.333 0 -83.166 -13.833 -113.499 -41.5s-51.166 -73.5 -62.499 -137.5h-58
c5.33301 109.333 32.5 190.5 81.5 243.5s108.5 79.5 178.5 79.5c35.333 0 70 -4.66699 104 -14c67.333 -19.333 160.333 -54.333 279 -105c64 -28 113 -46.667 147 -56c20 -5.33301 41.667 -8 65 -8c47.333 0 87.166 15.667 119.499 47s51.5 76.333 57.5 135z" />
    <glyph glyph-name="nonbreakingspace" unicode="&#xa0;" horiz-adv-x="512" 
 />
    <glyph glyph-name="exclamdown" unicode="&#xa1;" horiz-adv-x="492" 
d="M217 537l57.001 -0.00292969l50 -467c4 -36 13.167 -99.667 27.5 -191s21.5 -156.666 21.5 -195.999c0 -57.333 -11 -100.833 -33 -130.5s-51.333 -44.5 -88 -44.5c-24 0 -45.5 7.33301 -64.5 22s-33.5 36.334 -43.5 65.001s-15 65.334 -15 110.001
c0 27.333 1.33301 54.5 4 81.5s6.16699 56 10.5 87s9.16602 67.833 14.499 110.5zM236.001 378.997l-54 -498c-0.666992 -7.33301 -3.16699 -27 -7.5 -59s-7.5 -60.833 -9.5 -86.5s-3 -46.167 -3 -61.5c0 -40 8.33301 -71.833 25 -95.5s39 -35.5 67 -35.5
c12.667 0 23 2.66699 31 8c-40 16 -60 57 -60 123c0 36 3.66699 96.833 11 182.5s12.5 150.167 15.5 193.5s4.5 102.333 4.5 177c0 53.333 -3.33301 104 -10 152h-10zM250.001 720.997c-35.333 0 -64.666 12.3291 -87.999 36.9961s-35 54.667 -35 90s11.667 65.333 35 90
s52.666 37 87.999 37c22.667 0 43.5 -5.66699 62.5 -17s34.167 -26.666 45.5 -45.999s17 -40.666 17 -63.999s-5.66699 -44.666 -17 -63.999s-26.5 -34.666 -45.5 -45.999s-39.833 -17 -62.5 -17zM266.001 757.993c-26 26 -39.002 54.002 -39.002 84.002
c0 13.333 2 25.666 6 36.999s9.5 21.666 16.5 30.999l16.5 22c-5.33301 1.33301 -12.666 2 -21.999 2c-19.333 0 -38.166 -7.83301 -56.499 -23.5s-27.5 -37.167 -27.5 -64.5c0 -28 10.667 -50.167 32 -66.5s46 -23.5 74 -21.5z" />
    <glyph glyph-name="cent" unicode="&#xa2;" horiz-adv-x="918" 
d="M659 772c0 23.333 -16.3311 41.6689 -48.998 55.002l-207 -606c54.667 -49.333 119 -74 193 -74c44.667 0 91.5 10.167 140.5 30.5s88.167 46.5 117.5 78.5l35 -47c-52.667 -76 -115.834 -134.333 -189.501 -175s-148.5 -61 -224.5 -61c-48 0 -96.333 9.66699 -145 29
l-94 -283l-58 19l98 291c-68 41.333 -120.833 95.166 -158.5 161.499s-56.5 138.166 -56.5 215.499c0 88 22 170.167 66 246.5s105.167 136.166 183.5 179.499s164.5 63 258.5 59l84 254l58 -19l-82 -241c71.333 -12 128.666 -35.833 171.999 -71.5s65 -77.5 65 -125.5
c0 -32.667 -12 -59.667 -36 -81s-52.333 -32 -85 -32c-30 0 -54.833 10.5 -74.5 31.5s-29.5 43.5 -29.5 67.5c0 4.66699 3 19.834 9 45.501s9 43.167 9 52.5zM358.002 274.003l190.999 564.002c-12.667 -5.33301 -26.5 -10 -41.5 -14l-42.5 -11
c-45.333 -12.667 -84.666 -50.334 -117.999 -113.001s-50 -134.334 -50 -215.001c0 -82 20.333 -152.333 61 -211zM674.001 674.005c0 -21.333 8.16797 -37.3359 24.501 -48.0029s34.166 -16 53.499 -16c6 0 22.333 2.66699 49 8c-41.333 8.66699 -62 30 -62 64
c0 2.66699 1.5 10.334 4.5 23.001s4.5 23.334 4.5 32.001c0 36.667 -26 64.667 -78 84c14.667 -20.667 22 -39.667 22 -57c0 -11.333 -3 -26.666 -9 -45.999s-9 -34 -9 -44zM393.002 829.002c-64 -24 -118.169 -57.002 -162.502 -99.002s-78.166 -90.833 -101.499 -146.5
s-35 -112.167 -35 -169.5c0 -78 18.667 -148 56 -210s86.5 -110.167 147.5 -144.5s122.833 -51.5 185.5 -51.5c91.333 0 177.333 30 258 90c-87.333 -28.667 -157.666 -43 -210.999 -43c-68 0 -130.333 15.333 -187 46s-101.667 73.334 -135 128.001s-50 115.667 -50 183
c0 78 20.167 152.833 60.5 224.5s98.5 135.834 174.5 192.501z" />
    <glyph glyph-name="sterling" unicode="&#xa3;" horiz-adv-x="1044" 
d="M211 -29c-52.667 0 -94.501 16.8359 -125.501 50.5029s-46.5 72.167 -46.5 115.5c0 49.333 17.333 93.5 52 132.5s85.667 58.5 153 58.5c18.667 0 35.667 -1.83301 51 -5.5s32 -8.83398 50 -15.501s34 -12 48 -16c-0.666992 36.667 -5 71.5 -13 104.5
s-19.5 69.167 -34.5 108.5l-38.5 104h-227v70h196c-32 81.333 -54.667 143.5 -68 186.5s-20 97.5 -20 163.5c0 77.333 16.833 147.166 50.5 209.499s82.834 111.333 147.501 147s141.334 53.5 230.001 53.5c53.333 0 100.833 -7.83301 142.5 -23.5s77 -37 106 -64
s50.833 -57.333 65.5 -91s22 -69.167 22 -106.5c0 -44 -10.167 -79.5 -30.5 -106.5s-48.833 -40.5 -85.5 -40.5c-30 0 -55.667 9 -77 27s-32 41.667 -32 71c0 18 4.5 36.667 13.5 56s22.167 42.333 39.5 69c4 6.66699 6 16 6 28c0 35.333 -18.333 65 -55 89s-77 36 -121 36
c-37.333 0 -72.833 -9.83301 -106.5 -29.5s-60.5 -46.667 -80.5 -81s-30 -71.833 -30 -112.5c0 -38.667 5.33301 -76.5 16 -113.5s30.5 -94.833 59.5 -173.5s49.5 -143.334 61.5 -194.001h256v-70h-243c4 -56 6 -89.333 6 -100c0 -84.667 -17 -172.667 -51 -264
c75.333 -32.667 144.333 -49 207 -49s116.167 15.333 160.5 46s71.166 71 80.499 121h55v-26c0 -54 -12.333 -109.5 -37 -166.5s-60.834 -104 -108.501 -141s-103.5 -55.5 -167.5 -55.5c-31.333 0 -58.5 3.5 -81.5 10.5s-43.667 16.5 -62 28.5s-36.666 25.833 -54.999 41.5
l-65.5 57.5c-28.667 -46 -60.5 -80.833 -95.5 -104.5s-74.167 -35.5 -117.5 -35.5zM933.999 176.003c-35.333 -35.333 -66.8301 -61.833 -94.4971 -79.5s-63.834 -26.5 -108.501 -26.5c-36 0 -71.833 5.66699 -107.5 17s-70.5 26.5 -104.5 45.5s-68.333 40.5 -103 64.5
l-61.5 42.5c-20.333 13.667 -40 23.334 -59 29.001s-41.167 7.5 -66.5 5.5c34 -4 61.5 -12.333 82.5 -25s46.167 -33 75.5 -61l124 -109c22 -18.667 48.167 -35.167 78.5 -49.5s63.166 -21.5 98.499 -21.5c54 0 101.667 14.167 143 42.5s75.666 70.166 102.999 125.499z
M369.002 164.003c-48 54.667 -99.999 82 -155.999 82c-32.667 0 -60.334 -10 -83.001 -30s-34 -45.667 -34 -77c0 -30 9.5 -54.5 28.5 -73.5s45.167 -28.5 78.5 -28.5s65 11 95 33s53.667 53.333 71 94zM424.003 274.003l16 -0.00390625c6 27.333 9 59 9 95
c0 59.333 -7 114.5 -21 165.5s-35.667 114.667 -65 191s-50 134.833 -62 175.5s-18 83.667 -18 129c0 78 21.5 150.333 64.5 217s101.167 118.667 174.5 156c-100 -20.667 -175.167 -66.5 -225.5 -137.5s-75.5 -152.167 -75.5 -243.5c0 -52.667 8.16699 -105.667 24.5 -159
s42 -122.166 77 -206.499s61 -152.666 78 -204.999s25.5 -101.833 25.5 -148.5c0 -5.33301 -0.166992 -10.166 -0.5 -14.499s-0.833008 -9.16602 -1.5 -14.499zM805.003 1315c9.33301 -18.667 14.001 -36.335 14.001 -53.002c0 -22.667 -8 -46 -24 -70
c-23.333 -34 -35 -60.667 -35 -80c0 -15.333 6.5 -31.166 19.5 -47.499s31.833 -24.5 56.5 -24.5c20 0 39 7.66699 57 23c-22.667 0 -40.334 7.16699 -53.001 21.5s-19 30.5 -19 48.5c0 5.33301 3.16699 20.333 9.5 45s9.5 44.334 9.5 59.001
c0 34.667 -11.667 60.667 -35 78z" />
    <glyph glyph-name="currency" unicode="&#xa4;" 
d="M779 1027l138.002 134.999l89 -87l-140 -140c58 -81.333 87 -168 87 -260c0 -90 -29 -178.333 -87 -265l129 -128l-92 -91l-130 129c-53.333 -33.333 -98.833 -55.833 -136.5 -67.5s-79.834 -17.5 -126.501 -17.5c-49.333 0 -93.5 6.33301 -132.5 19
s-82.5 34.667 -130.5 66l-133 -129l-88 91l131 128c-58.667 78 -88 165 -88 261c0 46.667 7.33301 93.334 22 140.001s36.667 88 66 124l-136 135l93 92l133 -135c82.667 60 169.667 90 261 90c89.333 0 179.666 -30 270.999 -90zM510.002 986.999
c-86.667 0 -160.5 -30.5 -221.5 -91.5s-91.5 -134.5 -91.5 -220.5c0 -86.667 30.667 -160.5 92 -221.5s135 -91.5 221 -91.5c86.667 0 160.5 30.5 221.5 91.5s91.5 134.833 91.5 221.5c0 86 -30.5 159.5 -91.5 220.5s-134.833 91.5 -221.5 91.5z" />
    <glyph glyph-name="yen" unicode="&#xa5;" horiz-adv-x="1493" 
d="M178 403h461v115h-461v90h406l-371 625c-24.667 42.667 -48 74.334 -70 95.001s-60 30 -114 28v55h659v-55c-60 -1.33301 -106.333 -6.33301 -139 -15s-49 -31 -49 -67c0 -28 23.667 -81.333 71 -160l289 -481l193 325c35.333 59.333 61.5 110.166 78.5 152.499
s25.5 81.833 25.5 118.5c0 33.333 -11.833 62.833 -35.5 88.5s-54.167 38.5 -91.5 38.5h-10v55h446v-55c-29.333 -4 -59.166 -16.833 -89.499 -38.5s-61.5 -53.167 -93.5 -94.5s-65 -91.333 -99 -150l-273 -465h406v-90h-428v-115h428v-92h-428v-104
c0 -64 15.667 -104 47 -120s86.666 -26.667 165.999 -32v-55h-674v55h18c58 0 101.167 7.5 129.5 22.5s46 34.167 53 57.5s10.5 54 10.5 92v84h-461v92zM1305 1356l-174.999 -0.000976562c40 -25.333 60 -65.666 60 -120.999v-23c16.667 36 33.167 63 49.5 81
s38.166 39 65.499 63zM735.001 544.999l-416 700.001c-26 45.333 -47.667 75.5 -65 90.5s-40.666 22.5 -69.999 22.5c-6 0 -11.333 -0.166992 -16 -0.5s-9.33398 -0.833008 -14.001 -1.5c17.333 -7.33301 32 -19 44 -35s28 -41.333 48 -76l426 -715v-346
c0 -38 -6.5 -65 -19.5 -81s-37.167 -32 -72.5 -48c5.33301 -0.666992 11.333 -0.833984 18 -0.500977s15 0.5 25 0.5c42 0 71.167 10.333 87.5 31s24.5 52 24.5 94v365z" />
    <glyph glyph-name="brokenbar" unicode="&#xa6;" horiz-adv-x="532" 
d="M345 1491v-790h-157v790h157zM345 360v-791h-157v791h157z" />
    <glyph glyph-name="section" unicode="&#xa7;" horiz-adv-x="934" 
d="M114 -70l149.001 26.0059c16 -88 41 -149.167 75 -183.5s78.667 -51.5 134 -51.5c52.667 0 95.5 16.667 128.5 50s49.5 74.666 49.5 123.999c0 19.333 -3.16699 38 -9.5 56s-16.166 35 -29.499 51c-39.333 50 -129 127.333 -269 232
c-102.667 76.667 -169.334 136.667 -200.001 180c-52 72 -78 148.667 -78 230c0 66.667 16.833 125.5 50.5 176.5s78.167 86.5 133.5 106.5c-34.667 41.333 -60.834 82.666 -78.501 123.999s-26.5 82.666 -26.5 123.999c0 90 28.667 165.167 86 225.5s130.333 90.5 219 90.5
c94 0 170.667 -28.833 230 -86.5s95 -144.5 107 -260.5l-153 -19c-12 82.667 -32.667 139.667 -62 171s-68 47 -116 47c-46.667 0 -86.167 -15.833 -118.5 -47.5s-48.5 -69.5 -48.5 -113.5c0 -18.667 3.83301 -37.5 11.5 -56.5s18.834 -38.167 33.501 -57.5
c29.333 -38.667 108 -105.334 236 -200.001c110 -82.667 181.333 -145.334 214 -188.001c48.667 -64 73 -136 73 -216c0 -72 -18.333 -134 -55 -186c-24 -34 -68 -67.333 -132 -100c44 -40.667 76.833 -84.334 98.5 -131.001s32.5 -96.667 32.5 -150
c0 -95.333 -30.833 -173.833 -92.5 -235.5s-140.834 -92.5 -237.501 -92.5c-97.333 0 -177.5 30.833 -240.5 92.5s-101.167 151.167 -114.5 268.5zM594.001 244.006c39.333 24.667 69.334 53.6689 90.001 87.002s31 66.666 31 99.999c0 38.667 -14.167 78.667 -42.5 120
s-89.833 97.666 -184.5 168.999c-75.333 56 -131.333 102 -168 138c-45.333 -32 -77 -63.333 -95 -94s-27 -64 -27 -100c0 -42 12.667 -82.167 38 -120.5s81.666 -88.833 168.999 -151.5c75.333 -54 138.333 -103.333 189 -148z" />
    <glyph glyph-name="dieresis" unicode="&#xa8;" horiz-adv-x="682" 
d="M244 1182c0 -40.667 -13 -72.332 -39 -94.999s-55.333 -34 -88 -34c-36 0 -66.833 11.833 -92.5 35.5s-38.5 53.5 -38.5 89.5c0 37.333 12.833 68.166 38.5 92.499s56.5 36.5 92.5 36.5c35.333 0 65.333 -11.833 90 -35.5s37 -53.5 37 -89.5zM143 1081
c-20.667 14 -36.332 27.834 -46.999 41.501s-16 34.167 -16 61.5c0 14.667 4.66699 31.167 14 49.5s23 33.166 41 44.499c-36.667 0.666992 -65.334 -8.16602 -86.001 -26.499s-31 -42.833 -31 -73.5c0 -26.667 9.16699 -49.834 27.5 -69.501s40.833 -29.5 67.5 -29.5
c12 0 22 0.666992 30 2zM434.002 1178c0 37.333 13.168 68.167 39.501 92.5s56.833 36.5 91.5 36.5c36 0 66.167 -13 90.5 -39s36.5 -56 36.5 -90c0 -33.333 -11.833 -62.833 -35.5 -88.5s-54.834 -38.5 -93.501 -38.5c-36 0 -66.5 12.5 -91.5 37.5s-37.5 54.833 -37.5 89.5
zM584.003 1081c-36 26 -53.998 58.998 -53.998 98.998c0 38.667 20.667 71.334 62 98.001c-2.66699 0.666992 -5.16699 1.16699 -7.5 1.5s-5.5 0.5 -9.5 0.5c-30.667 0 -56.334 -10 -77.001 -30s-31 -44 -31 -72c0 -28.667 9.66699 -52.167 29 -70.5
s48.666 -27.166 87.999 -26.499z" />
    <glyph glyph-name="copyright" unicode="&#xa9;" horiz-adv-x="1323" 
d="M924 1206l31.998 -0.00292969l11 -235h-35c-10.667 42 -27.334 77.833 -50.001 107.5s-50 51.834 -82 66.501s-66.667 22 -104 22c-75.333 0 -136.166 -28.5 -182.499 -85.5s-69.5 -136.833 -69.5 -239.5c0 -75.333 10.5 -138.166 31.5 -188.499
s50.833 -87.833 89.5 -112.5s83.667 -37 135 -37c97.333 0 178.666 42.333 243.999 127l17 -39c-77.333 -95.333 -178.666 -143 -303.999 -143c-72.667 0 -138 15.833 -196 47.5s-103.333 76 -136 133s-49 119.5 -49 187.5c0 72 17.333 137.833 52 197.5
s83.334 106.834 146.001 141.501s132 52 208 52c44 0 87.833 -7.16699 131.5 -21.5s66.834 -21.5 69.501 -21.5c19.333 0 33 13.667 41 41zM661.998 1438c110.667 0 212.998 -27.502 306.998 -82.502s168.333 -129.5 223 -223.5s82 -196.333 82 -307
c0 -111.333 -27.5 -214 -82.5 -308s-129.167 -168.5 -222.5 -223.5s-195.666 -82.5 -306.999 -82.5c-110.667 0 -213.167 27.333 -307.5 82s-169.166 129.334 -224.499 224.001s-83 197.334 -83 308.001c0 111.333 27.5 213.833 82.5 307.5s129.5 168 223.5 223
s197 82.5 309 82.5zM661.996 1372c-98.667 0 -190.335 -24.5 -275.002 -73.5s-151.5 -115.5 -200.5 -199.5s-73.5 -175.333 -73.5 -274s24.5 -190.167 73.5 -274.5s115.833 -151.166 200.5 -200.499s176.334 -74 275.001 -74c74.667 0 145.167 14.167 211.5 42.5
s124.833 67.833 175.5 118.5s89.834 109.167 117.501 175.5s41.5 137.166 41.5 212.499c0 76 -14 147.167 -42 213.5s-66.667 124.333 -116 174s-107.833 88.667 -175.5 117s-138.5 42.5 -212.5 42.5z" />
    <glyph glyph-name="ordfeminine" unicode="&#xaa;" horiz-adv-x="598" 
d="M201 1360c0 -2 3.33105 -8.33398 9.99805 -19.001s10 -19.334 10 -26.001c0 -18 -9.16699 -34.5 -27.5 -49.5s-40.5 -22.5 -66.5 -22.5c-24.667 0 -44.5 6.16699 -59.5 18.5s-22.5 26.166 -22.5 41.499c0 34 25.167 65 75.5 93s111.833 42 184.5 42
c134 0 201 -57.333 201 -172v-107c0.666992 -29.333 1.16699 -56.5 1.5 -81.5s0.5 -55.833 0.5 -92.5c0 -20.667 3.33301 -31 10 -31s17.667 9.66699 33 29l37 -41c-24.667 -21.333 -46 -37.166 -64 -47.499s-41.667 -15.5 -71 -15.5c-56 0 -91.667 20.333 -107 61
c-24.667 -18.667 -52.167 -33.167 -82.5 -43.5s-60.166 -15.5 -89.499 -15.5c-41.333 0 -76.166 9.83301 -104.499 29.5s-42.5 45.834 -42.5 78.501c0 30 10.5 56.333 31.5 79s46.667 42.334 77 59.001s96.5 50 198.5 100v98c0 44 -22.667 66 -68 66
c-18.667 0 -34.167 -3 -46.5 -9s-18.5 -13.333 -18.5 -22zM372.998 1288v-254c0 -48.667 6.33301 -82.167 19 -100.5s35.667 -27.166 69 -26.499c-20 11.333 -33.5 23.5 -40.5 36.5s-10.5 35.167 -10.5 66.5v272c0 36.667 -3.83301 62.667 -11.5 78s-24.5 23.333 -50.5 24
c10 -10 16.667 -20.333 20 -31s5 -32.334 5 -65.001zM333.998 996.999v172.001c-44.667 -26 -77 -48.667 -97 -68s-30 -44.333 -30 -75c0 -18.667 5.5 -33.834 16.5 -45.501s23.833 -17.5 38.5 -17.5c21.333 0 45.333 11.333 72 34zM200.998 911
c-66 11.333 -99 38.668 -99 82.001c0 16 2.16699 29.667 6.5 41s12.5 29 24.5 53c-44.667 -30 -67 -62 -67 -96c0 -60.667 45 -87.334 135 -80.001zM153.998 1276c-12 6.66699 -20.167 13.002 -24.5 19.002s-6.5 15.333 -6.5 28c0 7.33301 5.33301 21.666 16 42.999
c-17.333 -7.33301 -30.833 -15.333 -40.5 -24s-14.5 -20.334 -14.5 -35.001c0 -17.333 4 -27.5 12 -30.5s21.667 -4.5 41 -4.5c2 0 5.33301 0.666992 10 2z" />
    <glyph glyph-name="guillemotleft" unicode="&#xab;" horiz-adv-x="1130" 
d="M825 928h265l-277 -490l277 -487h-265l-274 487zM664 438l254 453c-32.667 -2 -58.5 -13.667 -77.5 -35s-41.833 -55.333 -68.5 -102l-184 -316l184 -332c24 -43.333 46.667 -74.5 68 -93.5s47.333 -28.5 78 -28.5zM317 928h261l-275 -490l275 -487h-261l-276 487z
M152 438l256 453c-27.333 0 -50.5 -7.5 -69.5 -22.5s-33.833 -32.833 -44.5 -53.5l-18 -35l-198 -342l198 -352c21.333 -32.667 40 -57.5 56 -74.5s38.333 -25.5 67 -25.5h9z" />
    <glyph glyph-name="logicalnot" unicode="&#xac;" horiz-adv-x="1167" 
d="M41 902h1094v-455h-129v326l-965 1v128z" />
    <glyph glyph-name="sfthyphen" unicode="&#xad;" horiz-adv-x="768" 
d="M106 535h556v-193h-556v193zM629 377v63h-490v-63h490z" />
    <glyph glyph-name="registered" unicode="&#xae;" horiz-adv-x="1323" 
d="M406 614l0.000976562 430.001c0 47.333 -4.33301 78.166 -13 92.499s-30.334 22.5 -65.001 24.5v29h323c95.333 0 166 -16.833 212 -50.5s69 -81.167 69 -142.5c0 -90 -57.333 -150.667 -172 -182l149 -237c19.333 -30 35.333 -50.5 48 -61.5s29 -17.833 49 -20.5v-29
h-183l-217 334h-53v-219c0 -36 9.33301 -59 28 -69s44 -15.667 76 -17v-29h-342v29c40 0 65.167 8 75.5 24s15.5 47.333 15.5 94zM553.001 1147v-305c12 -1.33301 27.667 -2 47 -2c50 0 90.833 14.5 122.5 43.5s47.5 66.833 47.5 113.5c0 48 -14 86.333 -42 115
s-68.667 43 -122 43c-3.33301 0 -21 -2.66699 -53 -8zM662.001 1438c110.667 0 212.998 -27.502 306.998 -82.502s168.333 -129.5 223 -223.5s82 -196.333 82 -307c0 -111.333 -27.5 -214 -82.5 -308s-129.167 -168.5 -222.5 -223.5s-195.666 -82.5 -306.999 -82.5
c-110.667 0 -213.167 27.333 -307.5 82s-169.166 129.334 -224.499 224.001s-83 197.334 -83 308.001c0 111.333 27.5 213.833 82.5 307.5s129.5 168 223.5 223s197 82.5 309 82.5zM661.999 1372c-98.667 0 -190.335 -24.5029 -275.002 -73.5029
s-151.5 -115.5 -200.5 -199.5s-73.5 -175.333 -73.5 -274s24.5 -190.167 73.5 -274.5s115.833 -151.166 200.5 -200.499s176.334 -74 275.001 -74c74.667 0 145.167 14.167 211.5 42.5s124.833 67.833 175.5 118.5s89.834 109.167 117.501 175.5s41.5 137.166 41.5 212.499
c0 74.667 -14.167 145.834 -42.5 213.501s-67.5 126.334 -117.5 176.001s-107.833 88.334 -173.5 116.001s-136.5 41.5 -212.5 41.5z" />
    <glyph glyph-name="macron" unicode="&#xaf;" 
d="M-12 1591v127h1048v-127h-1048z" />
    <glyph glyph-name="degree" unicode="&#xb0;" horiz-adv-x="819" 
d="M405 1384c58 0 114.667 -14.833 170 -44.5s98.5 -72.334 129.5 -128.001s46.5 -113.5 46.5 -173.5c0 -95.333 -33.833 -176.833 -101.5 -244.5s-149.167 -101.5 -244.5 -101.5s-176.833 33.833 -244.5 101.5s-101.5 149.167 -101.5 244.5c0 60 15.5 117.833 46.5 173.5
s74.167 98.334 129.5 128.001s112 44.5 170 44.5zM405 1254c-60 0 -110.833 -21 -152.5 -63s-62.5 -92.667 -62.5 -152s21 -110 63 -152s92.667 -63 152 -63s110 21 152 63s63 92.667 63 152s-21 110 -63 152s-92.667 63 -152 63z" />
    <glyph glyph-name="plusminus" unicode="&#xb1;" horiz-adv-x="1124" 
d="M16 744h481v480h131v-480h481v-132h-481l1 -344h480v-132h-1093l-1 131h482v345h-481v132z" />
    <glyph glyph-name="twosuperior" unicode="&#xb2;" horiz-adv-x="618" 
d="M203 811l188 -0.00390625c40 0 70.667 3.83301 92 11.5s41.333 22.834 60 45.501h59l-84 -178h-481v31l139 136c44 43.333 81.333 83.333 112 120s56.167 75.334 76.5 116.001s30.5 79.667 30.5 117c0 28 -5.83301 53 -17.5 75s-28 39.333 -49 52s-43.833 19 -68.5 19
c-32.667 0 -61.667 -9.83301 -87 -29.5s-43.333 -48.167 -54 -85.5h-62c40 131.333 129.667 197 269 197c45.333 0 86 -8.16699 122 -24.5s63.833 -38.166 83.5 -65.499s29.5 -56.666 29.5 -87.999c0 -44.667 -14 -88.667 -42 -132s-63.333 -85.333 -106 -126zM117 738.996
l-23.001 -22h289c40 0 67.333 3.5 82 10.5s26.334 21.167 35.001 42.5c-32.667 -9.33301 -71 -14 -115 -14h-233c-13.333 0 -25 -5.66699 -35 -17zM378.999 1049c30.667 26.667 53.667 52.335 69 77.002s23 55.667 23 93c0 57.333 -19 101.833 -57 133.5
s-88.667 42.167 -152 31.5c56.667 -4.66699 99.5 -23.334 128.5 -56.001s43.5 -71.334 43.5 -116.001c0 -28.667 -5.16699 -56 -15.5 -82s-23.5 -53 -39.5 -81z" />
    <glyph glyph-name="threesuperior" unicode="&#xb3;" horiz-adv-x="618" 
d="M371 1247c0 30 -10.5 53.501 -31.5 70.501s-46.167 25.5 -75.5 25.5c-48.667 0 -99.667 -29.333 -153 -88l-39 29c36 50 78.833 88.167 128.5 114.5s102.167 39.5 157.5 39.5c32 0 60.667 -5.66699 86 -17s45 -26.5 59 -45.5s21 -40.5 21 -64.5
c0 -29.333 -10.167 -56.666 -30.5 -81.999s-53.833 -55.333 -100.5 -90c47.333 -16.667 85.166 -43.334 113.499 -80.001s42.5 -77 42.5 -121c0 -41.333 -13.333 -81.5 -40 -120.5s-64.167 -71 -112.5 -96s-101.833 -37.5 -160.5 -37.5c-43.333 0 -84.333 10.333 -123 31
s-58 45 -58 73c0 16 7.33301 30 22 42s32 18 52 18c28.667 0 50.667 -11 66 -33c20.667 -34.667 36.667 -58.334 48 -71.001s25.333 -19 42 -19c30.667 0 56.334 14.167 77.001 42.5s31 64.833 31 109.5c0 92 -58.667 154.667 -176 188c102.667 61.333 154 122 154 182z
M403 1257v-30c15.333 18.667 23 39 23 61c0 30 -10.833 53.167 -32.5 69.5s-53.167 24.5 -94.5 24.5c-22 0 -42.333 -5.33301 -61 -16c10.667 2.66699 18 4 22 4c20 0 39.333 -3.66699 58 -11s34.167 -16.333 46.5 -27s21.833 -22.5 28.5 -35.5s10 -26.167 10 -39.5z
M297 1087l-21.001 -18c50.667 -22 87.334 -48.333 110.001 -79s34 -67.667 34 -111c0 -32.667 -7 -62 -21 -88c31.333 44 47 79.333 47 106c0 40 -4.66699 73 -14 99s-36.666 52.333 -81.999 79c-18.667 12.667 -33.667 19 -45 19
c-0.666992 0 -1.83398 -0.833008 -3.50098 -2.5zM157.999 813.001c-10.667 5.33301 -20.333 8 -29 8c-27.333 0 -41 -15.667 -41 -47c0 -16 22 -33 66 -51c-14 10.667 -24 19.667 -30 27s-9 17.333 -9 30c0 18 14.333 29 43 33z" />
    <glyph glyph-name="acute" unicode="&#xb4;" horiz-adv-x="682" 
d="M199 1020h-56l113 313h295zM197 1075l184 203h-113z" />
    <glyph glyph-name="mu" unicode="&#xb5;" horiz-adv-x="938" 
d="M571 199l0.000976562 675h193v-626c0 -54.667 3.83301 -95 11.5 -121s23.5 -39 47.5 -39c18 0 32.833 10 44.5 30s19.5 48.333 23.5 85h37c-4 -76 -24.167 -133 -60.5 -171s-81.833 -57 -136.5 -57c-44 0 -78.333 13 -103 39s-42.334 63.667 -53.001 113
c-42 -49.333 -83.667 -87 -125 -113s-87 -39 -137 -39c-28.667 0 -51.167 4.5 -67.5 13.5s-37.5 25.167 -63.5 48.5v-27c0 -34.667 2.16699 -62.5 6.5 -83.5s11.833 -55.167 22.5 -102.5s16 -81.666 16 -102.999c0 -28 -8.16699 -52 -24.5 -72s-38.833 -30 -67.5 -30
c-25.333 0 -45.333 9.16699 -60 27.5s-22 41.166 -22 68.499c0 23.333 6.16699 61.333 18.5 114s22 100.167 29 142.5s10.5 97.5 10.5 165.5v737h190v-569c0 -80 6.33301 -136.167 19 -168.5s39 -48.5 79 -48.5c60.667 0 118 37 172 111z" />
    <glyph glyph-name="paragraph" unicode="&#xb6;" horiz-adv-x="901" 
d="M337 -407v1045c-98.667 6 -178.667 45 -240 117s-92 168.333 -92 289c0 88.667 16 165.334 48 230.001s76.167 112.834 132.5 144.501s125.5 47.5 207.5 47.5h518v-173h-117v-1700h-140v1700h-182v-1700h-135z" />
    <glyph glyph-name="cedilla" unicode="&#xb8;" horiz-adv-x="682" 
d="M330 0l52.998 0.000976562l-33 -76c70.667 -2.66699 124.5 -20.834 161.5 -54.501s55.5 -74.167 55.5 -121.5c0 -68.667 -32.667 -125.834 -98 -171.501s-159.666 -68.5 -282.999 -68.5c-9.33301 0 -33.666 3 -72.999 9l10 63c64 13.333 112.667 27.833 146 43.5
s50 42.834 50 81.501c0 18 -8 33.333 -24 46s-38 18.667 -66 18zM318.998 -155.999l-30.001 -50.999c42 -14 63 -42 63 -84c0 -50.667 -32.667 -94.334 -98 -131.001c54.667 6.66699 97.334 23.167 128.001 49.5s46 57.5 46 93.5c0 18.667 -4.33301 36.5 -13 53.5
s-21.167 31.5 -37.5 43.5s-35.833 20.667 -58.5 26z" />
    <glyph glyph-name="onesuperior" unicode="&#xb9;" horiz-adv-x="618" 
d="M393 1438l0.00195312 -621c0 -24.667 2.16699 -42.334 6.5 -53.001s13.833 -18.334 28.5 -23.001s38 -8 70 -10v-41h-369v41c46 2 74.5 8.16699 85.5 18.5s16.5 29.5 16.5 57.5v438c0 28 -6.83301 45.5 -20.5 52.5s-40.834 12.167 -81.501 15.5v49
c59.333 2.66699 103.666 9.83398 132.999 21.501s56 29.834 80 54.501h51zM233.002 1327h-12c20 -10 33.167 -21.833 39.5 -35.5s9.5 -33.167 9.5 -58.5v-404c0 -24.667 -3.16699 -43.334 -9.5 -56.001s-19.5 -24.667 -39.5 -36c29.333 -1.33301 51.333 2.83398 66 12.501
s22 30.167 22 61.5v440c0 28 -6 47.667 -18 59s-31.333 17 -58 17z" />
    <glyph glyph-name="ordmasculine" unicode="&#xba;" horiz-adv-x="662" 
d="M29 1155c0 52 13.501 99.667 40.501 143s64 77.5 111 102.5s98.833 37.5 155.5 37.5s108.167 -12.167 154.5 -36.5s82.666 -58 108.999 -101s39.5 -90.167 39.5 -141.5c0 -54 -14 -102.5 -42 -145.5s-65.5 -76.5 -112.5 -100.5s-97.833 -36 -152.5 -36
c-56 0 -107.167 11.5 -153.5 34.5s-82.833 56 -109.5 99s-40 91.167 -40 144.5zM238.001 915l-43.501 43.501c-19 19 -35.333 37.833 -49 56.5s-24.667 40.167 -33 64.5s-12.5 50.833 -12.5 79.5c0 39.333 8.83301 76.833 26.5 112.5s44.5 73.167 80.5 112.5
c-45.333 -28.667 -81 -62.5 -107 -101.5s-39 -83.5 -39 -133.5c0 -56 14.833 -101.833 44.5 -137.5s73.834 -67.834 132.501 -96.501zM213 1190c0 -81.333 12.667 -146.001 38 -194.001s57 -72 95 -72c30 0 55.333 17.5 76 52.5s31 87.833 31 158.5
c0 83.333 -11.333 147.833 -34 193.5s-52.334 68.5 -89.001 68.5c-35.333 0 -63.666 -17.167 -84.999 -51.5s-32 -86.166 -32 -155.499zM449 956c24.667 21.333 43.999 45.167 57.999 71.5s21 65.5 21 117.5c0 57.333 -7.16699 102.5 -21.5 135.5s-37.166 59.5 -68.499 79.5
c36 -48.667 54 -126.667 54 -234c0 -38.667 -3.5 -69.667 -10.5 -93s-17.833 -49 -32.5 -77z" />
    <glyph glyph-name="guillemotright" unicode="&#xbb;" horiz-adv-x="1130" 
d="M551 926h262l277 -490l-277 -487h-262l278 487zM864 436l-256 -452h13c30 0 54.5 11.5 73.5 34.5s41.5 58.5 67.5 106.5l178 311l-172 301c-31.333 56.667 -57 96.5 -77 119.5s-44.333 34.5 -73 34.5h-10zM43 926h264l275 -490l-275 -487h-264l276 487zM358 436
l-260.001 -452h17c25.333 0 48 11.833 68 35.5s42.333 58.167 67 103.5l178 313l-168 301c-30 56.667 -56.167 97.167 -78.5 121.5s-48.166 34.5 -77.499 30.5z" />
    <glyph glyph-name="onequarter" unicode="&#xbc;" horiz-adv-x="1708" 
d="M252 -57l1102 1548h156l-1101 -1548h-157zM331 733v554.001c-68 -54 -142.667 -91.667 -224 -113v123c41.333 13.333 87.333 37.666 138 72.999s91.667 73.333 123 114h108v-751h-145zM1430 -30.999v154h-383v123l405 474h122v-489h104v-108h-104v-154h-144z
M1430 231.001v263l-230 -263h230z" />
    <glyph glyph-name="onehalf" unicode="&#xbd;" horiz-adv-x="1708" 
d="M228 -57l1101 1548h157l-1101 -1548h-157zM331 733v554.001c-68 -54 -142.667 -91.667 -224 -113v123c41.333 13.333 87.333 37.666 138 72.999s91.667 73.333 123 114h108v-751h-145zM1049 -30.999c4 37.333 20 74.999 48 112.999c41.333 58 110 121.667 206 191
s153 114.333 171 135c24.667 27.333 37 55.333 37 84c0 32 -11.5 58.167 -34.5 78.5s-57.5 30.5 -103.5 30.5c-44 0 -76.833 -7.83301 -98.5 -23.5s-39.5 -45.5 -53.5 -89.5l-151 15c19.333 74.667 53 129.5 101 164.5s116.333 52.5 205 52.5
c100.667 0 174.5 -19.667 221.5 -59s70.5 -87.333 70.5 -144c0 -56 -19.667 -109 -59 -159c-30 -37.333 -98 -94.666 -204 -171.999c-56 -40.667 -95.667 -72.667 -119 -96h386v-121h-623z" />
    <glyph glyph-name="threequarters" unicode="&#xbe;" horiz-adv-x="1708" 
d="M252 -57l1101 1548h157l-1101 -1548h-157zM33 929l146 15.0039c13.333 -40 30.666 -67.333 51.999 -82c28.667 -20 62.667 -30 102 -30c47.333 0 85.333 13 114 39s43 57.333 43 94c0 33.333 -12 60 -36 80s-64 30 -120 30c-33.333 -2 -52.666 -3 -57.999 -3l22 110
c54 -0.666992 93.5 9 118.5 29s37.5 44.333 37.5 73c0 24.667 -10 45.667 -30 63s-49.667 26 -89 26c-37.333 0 -66.5 -7.33301 -87.5 -22s-39.167 -41.334 -54.5 -80.001l-143 23c27.333 70.667 61.833 120 103.5 148s102.5 42 182.5 42c96 0 165.833 -17.833 209.5 -53.5
s65.5 -80.167 65.5 -133.5c0 -36.667 -11.833 -69.334 -35.5 -98.001s-57.834 -49.334 -102.501 -62.001c59.333 -14.667 103 -38.834 131 -72.501s42 -73.167 42 -118.5c0 -62 -26.333 -116 -79 -162s-127.667 -69 -225 -69c-93.333 0 -164.666 18.5 -213.999 55.5
s-81 89.833 -95 158.5zM1429 -30.9961v154h-382v123l404 474h123v-489h104v-108h-104v-154h-145zM1429 231.004v263l-229 -263h229z" />
    <glyph glyph-name="questiondown" unicode="&#xbf;" horiz-adv-x="662" 
d="M434 586h63.999v-486c-116 -4 -204.167 -23 -264.5 -57s-90.5 -89.333 -90.5 -166c0 -34 8.83301 -65.167 26.5 -93.5s40.834 -50.5 69.501 -66.5s59 -24 91 -24c10.667 0 29.834 3 57.501 9s48.834 9 63.501 9c36.667 0 67 -9.66699 91 -29s36 -43 36 -71
c0 -30 -13.333 -54.667 -40 -74s-57.334 -29 -92.001 -29c-46 0 -90.833 11.167 -134.5 33.5s-83.334 54.5 -119.001 96.5s-63.667 92 -84 150s-30.5 120.333 -30.5 187c0 118 29.5 205.5 88.5 262.5s148.167 86.5 267.5 88.5v260zM417.999 223h16v68h-22
c-80.667 0 -148.5 -21.833 -203.5 -65.5s-86.833 -107.167 -95.5 -190.5c32.667 58 71.667 103.833 117 137.5s108 50.5 188 50.5zM433.999 -389h-28c-46.667 0 -86.5 6.5 -119.5 19.5s-64.167 32.5 -93.5 58.5c36.667 -49.333 78 -87.333 124 -114s88.333 -40 127 -40
c18.667 0 36.667 4 54 12c-19.333 1.33301 -34.333 6.83301 -45 16.5s-17 25.5 -19 47.5zM460.999 969c34 0 63.667 -12.001 89 -36.001s38 -53 38 -87c0 -35.333 -12.667 -65 -38 -89s-55 -36 -89 -36s-63 12.333 -87 37s-36 54 -36 88c0 34.667 11.5 63.834 34.5 87.501
s52.5 35.5 88.5 35.5zM472.999 755.999c-22 26.667 -33.002 55.999 -33.002 87.999c0 29.333 11 58 33 86c-2 0 -4.33301 0.666992 -7 2s-5 2 -7 2c-24 0 -44.667 -9 -62 -27s-26 -39 -26 -63c0 -25.333 8.66699 -46.666 26 -63.999s37.333 -26 60 -26
c2.66699 0.666992 5.33398 1.16699 8.00098 1.5s5.33398 0.5 8.00098 0.5z" />
    <glyph glyph-name="Agrave" unicode="&#xc0;" horiz-adv-x="1493" 
d="M999 246l-112.001 286h-473l-66 -170c-17.333 -43.333 -26 -88.333 -26 -135c0 -44.667 14.167 -84 42.5 -118s67.833 -52 118.5 -54v-55h-463v55c103.333 15.333 186.666 104.333 249.999 267l346 886c-18 31.333 -37 52.5 -57 63.5s-49.333 18.5 -88 22.5v49l240 82h92
l463 -1181c26.667 -66.667 53.334 -111.834 80.001 -135.501s67.334 -41.5 122.001 -53.5v-55h-594v55c51.333 5.33301 89.833 13.333 115.5 24s38.5 31.334 38.5 62.001c0 26.667 -9.66699 61.667 -29 105zM437.999 596h424l-213 539zM1090 283l-356.999 905.001
c-17.333 45.333 -35.333 77.5 -54 96.5s-44.334 28.5 -77.001 28.5c-19.333 0 -35 -1.33301 -47 -4c32 -12.667 56.167 -30.334 72.5 -53.001s31.833 -53 46.5 -91l354 -905c22 -53.333 33 -95 33 -125c0 -19.333 -3.66699 -33.333 -11 -42s-22 -21.334 -44 -38.001h22
c31.333 0 55.5 8.33301 72.5 25s25.5 36.334 25.5 59.001c0 32.667 -12 80.667 -36 144zM127 55.001l192 -0.000976562c-42 32.667 -63 73.667 -63 123c0 14 0.666992 25 2 33c-18 -33.333 -36.167 -61.666 -54.5 -84.999s-43.833 -47 -76.5 -71zM944 1573h-65l-365 309h305
zM858 1630l-94 197h-139z" />
    <glyph glyph-name="Aacute" unicode="&#xc1;" horiz-adv-x="1493" 
d="M999 246l-112.001 286h-473l-66 -170c-17.333 -43.333 -26 -88.333 -26 -135c0 -44.667 14.167 -84 42.5 -118s67.833 -52 118.5 -54v-55h-463v55c103.333 15.333 186.666 104.333 249.999 267l346 886c-18 31.333 -37 52.5 -57 63.5s-49.333 18.5 -88 22.5v49l240 82h92
l463 -1181c26.667 -66.667 53.334 -111.834 80.001 -135.501s67.334 -41.5 122.001 -53.5v-55h-594v55c51.333 5.33301 89.833 13.333 115.5 24s38.5 31.334 38.5 62.001c0 26.667 -9.66699 61.667 -29 105zM437.999 596h424l-213 539zM1090 283l-356.999 905.001
c-17.333 45.333 -35.333 77.5 -54 96.5s-44.334 28.5 -77.001 28.5c-19.333 0 -35 -1.33301 -47 -4c32 -12.667 56.167 -30.334 72.5 -53.001s31.833 -53 46.5 -91l354 -905c22 -53.333 33 -95 33 -125c0 -19.333 -3.66699 -33.333 -11 -42s-22 -21.334 -44 -38.001h22
c31.333 0 55.5 8.33301 72.5 25s25.5 36.334 25.5 59.001c0 32.667 -12 80.667 -36 144zM127 55.001l192 -0.000976562c-42 32.667 -63 73.667 -63 123c0 14 0.666992 25 2 33c-18 -33.333 -36.167 -61.666 -54.5 -84.999s-43.833 -47 -76.5 -71zM584 1567h-56l113 313h295z
M582 1622l184 203h-113z" />
    <glyph glyph-name="Acircumflex" unicode="&#xc2;" horiz-adv-x="1493" 
d="M999 246l-112.001 286h-473l-66 -170c-17.333 -43.333 -26 -88.333 -26 -135c0 -44.667 14.167 -84 42.5 -118s67.833 -52 118.5 -54v-55h-463v55c103.333 15.333 186.666 104.333 249.999 267l346 886c-18 31.333 -37 52.5 -57 63.5s-49.333 18.5 -88 22.5v49l240 82h92
l463 -1181c26.667 -66.667 53.334 -111.834 80.001 -135.501s67.334 -41.5 122.001 -53.5v-55h-594v55c51.333 5.33301 89.833 13.333 115.5 24s38.5 31.334 38.5 62.001c0 26.667 -9.66699 61.667 -29 105zM437.999 596h424l-213 539zM1090 283l-356.999 905.001
c-17.333 45.333 -35.333 77.5 -54 96.5s-44.334 28.5 -77.001 28.5c-19.333 0 -35 -1.33301 -47 -4c32 -12.667 56.167 -30.334 72.5 -53.001s31.833 -53 46.5 -91l354 -905c22 -53.333 33 -95 33 -125c0 -19.333 -3.66699 -33.333 -11 -42s-22 -21.334 -44 -38.001h22
c31.333 0 55.5 8.33301 72.5 25s25.5 36.334 25.5 59.001c0 32.667 -12 80.667 -36 144zM127 55.001l192 -0.000976562c-42 32.667 -63 73.667 -63 123c0 14 0.666992 25 2 33c-18 -33.333 -36.167 -61.666 -54.5 -84.999s-43.833 -47 -76.5 -71zM469 1581h-72l252 312h174
l230 -312h-113l-244 164zM932 1624l-185 213h-100l-180 -221l229 168z" />
    <glyph glyph-name="Atilde" unicode="&#xc3;" horiz-adv-x="1493" 
d="M999 246l-112.001 286h-473l-66 -170c-17.333 -43.333 -26 -88.333 -26 -135c0 -44.667 14.167 -84 42.5 -118s67.833 -52 118.5 -54v-55h-463v55c103.333 15.333 186.666 104.333 249.999 267l346 886c-18 31.333 -37 52.5 -57 63.5s-49.333 18.5 -88 22.5v49l240 82h92
l463 -1181c26.667 -66.667 53.334 -111.834 80.001 -135.501s67.334 -41.5 122.001 -53.5v-55h-594v55c51.333 5.33301 89.833 13.333 115.5 24s38.5 31.334 38.5 62.001c0 26.667 -9.66699 61.667 -29 105zM437.999 596h424l-213 539zM1090 283l-356.999 905.001
c-17.333 45.333 -35.333 77.5 -54 96.5s-44.334 28.5 -77.001 28.5c-19.333 0 -35 -1.33301 -47 -4c32 -12.667 56.167 -30.334 72.5 -53.001s31.833 -53 46.5 -91l354 -905c22 -53.333 33 -95 33 -125c0 -19.333 -3.66699 -33.333 -11 -42s-22 -21.334 -44 -38.001h22
c31.333 0 55.5 8.33301 72.5 25s25.5 36.334 25.5 59.001c0 32.667 -12 80.667 -36 144zM127 55.001l192 -0.000976562c-42 32.667 -63 73.667 -63 123c0 14 0.666992 25 2 33c-18 -33.333 -36.167 -61.666 -54.5 -84.999s-43.833 -47 -76.5 -71zM1026 1878v25h70
c0.666992 -6.66699 1.16699 -13.167 1.5 -19.5s0.5 -13.5 0.5 -21.5c0 -50 -10.333 -94.5 -31 -133.5s-48.667 -68.833 -84 -89.5s-73.666 -31 -114.999 -31c-39.333 0 -72 5.33301 -98 16s-70 30.5 -132 59.5s-104.667 43.5 -128 43.5
c-26.667 0 -48.834 -9.83301 -66.501 -29.5s-26.834 -49.5 -27.501 -89.5h-58c0 9.33301 -0.166992 17.5 -0.5 24.5s-0.833008 14.5 -1.5 22.5c0 42 8.66699 81.833 26 119.5s42.833 68.167 76.5 91.5s74.167 35 121.5 35c32 0 65.167 -5.16699 99.5 -15.5
s67.833 -22.833 100.5 -37.5s64.167 -28 94.5 -40s54.833 -18 73.5 -18c24.667 0 43.834 7.83301 57.501 23.5s20.5 37.167 20.5 64.5zM905 1698c-28.667 0 -55.168 3.83105 -79.501 11.498s-59.833 21.834 -106.5 42.501s-81.667 35.334 -105 44.001s-45.666 13 -66.999 13
c-48.667 0 -85.667 -26.667 -111 -80c26 21.333 50.667 32 74 32c22.667 0 45.167 -4.5 67.5 -13.5s55.833 -24.167 100.5 -45.5s80.667 -36.5 108 -45.5s55.333 -13.5 84 -13.5c74.667 0 132 34 172 102c-24 -16 -46 -27.833 -66 -35.5s-43.667 -11.5 -71 -11.5z" />
    <glyph glyph-name="Adieresis" unicode="&#xc4;" horiz-adv-x="1493" 
d="M999 246l-112.001 286h-473l-66 -170c-17.333 -43.333 -26 -88.333 -26 -135c0 -44.667 14.167 -84 42.5 -118s67.833 -52 118.5 -54v-55h-463v55c103.333 15.333 186.666 104.333 249.999 267l346 886c-18 31.333 -37 52.5 -57 63.5s-49.333 18.5 -88 22.5v49l240 82h92
l463 -1181c26.667 -66.667 53.334 -111.834 80.001 -135.501s67.334 -41.5 122.001 -53.5v-55h-594v55c51.333 5.33301 89.833 13.333 115.5 24s38.5 31.334 38.5 62.001c0 26.667 -9.66699 61.667 -29 105zM437.999 596h424l-213 539zM1090 283l-356.999 905.001
c-17.333 45.333 -35.333 77.5 -54 96.5s-44.334 28.5 -77.001 28.5c-19.333 0 -35 -1.33301 -47 -4c32 -12.667 56.167 -30.334 72.5 -53.001s31.833 -53 46.5 -91l354 -905c22 -53.333 33 -95 33 -125c0 -19.333 -3.66699 -33.333 -11 -42s-22 -21.334 -44 -38.001h22
c31.333 0 55.5 8.33301 72.5 25s25.5 36.334 25.5 59.001c0 32.667 -12 80.667 -36 144zM127 55.001l192 -0.000976562c-42 32.667 -63 73.667 -63 123c0 14 0.666992 25 2 33c-18 -33.333 -36.167 -61.666 -54.5 -84.999s-43.833 -47 -76.5 -71zM629 1729
c0 -40.667 -13 -72.332 -39 -94.999s-55.333 -34 -88 -34c-36 0 -66.833 11.833 -92.5 35.5s-38.5 53.5 -38.5 89.5c0 37.333 12.833 68.166 38.5 92.499s56.5 36.5 92.5 36.5c35.333 0 65.333 -11.833 90 -35.5s37 -53.5 37 -89.5zM528 1628
c-20.667 14 -36.332 27.834 -46.999 41.501s-16 34.167 -16 61.5c0 14.667 4.66699 31.167 14 49.5s23 33.166 41 44.499c-36.667 0.666992 -65.334 -8.16602 -86.001 -26.499s-31 -42.833 -31 -73.5c0 -26.667 9.16699 -49.834 27.5 -69.501s40.833 -29.5 67.5 -29.5
c12 0 22 0.666992 30 2zM819.002 1725c0 37.333 13.168 68.167 39.501 92.5s56.833 36.5 91.5 36.5c36 0 66.167 -13 90.5 -39s36.5 -56 36.5 -90c0 -33.333 -11.833 -62.833 -35.5 -88.5s-54.834 -38.5 -93.501 -38.5c-36 0 -66.5 12.5 -91.5 37.5s-37.5 54.833 -37.5 89.5
zM969.003 1628c-36 26 -53.998 58.998 -53.998 98.998c0 38.667 20.667 71.334 62 98.001c-2.66699 0.666992 -5.16699 1.16699 -7.5 1.5s-5.5 0.5 -9.5 0.5c-30.667 0 -56.334 -10 -77.001 -30s-31 -44 -31 -72c0 -28.667 9.66699 -52.167 29 -70.5
s48.666 -27.166 87.999 -26.499z" />
    <glyph glyph-name="Aring" unicode="&#xc5;" horiz-adv-x="1493" 
d="M999 246l-112.001 286h-473l-66 -170c-17.333 -43.333 -26 -88.333 -26 -135c0 -44.667 14.167 -84 42.5 -118s67.833 -52 118.5 -54v-55h-463v55c103.333 15.333 186.666 104.333 249.999 267l346 886c-18 31.333 -37 52.5 -57 63.5s-49.333 18.5 -88 22.5v49l240 82h92
l463 -1181c26.667 -66.667 53.334 -111.834 80.001 -135.501s67.334 -41.5 122.001 -53.5v-55h-594v55c51.333 5.33301 89.833 13.333 115.5 24s38.5 31.334 38.5 62.001c0 26.667 -9.66699 61.667 -29 105zM437.999 596h424l-213 539zM1090 283l-356.999 905.001
c-17.333 45.333 -35.333 77.5 -54 96.5s-44.334 28.5 -77.001 28.5c-19.333 0 -35 -1.33301 -47 -4c32 -12.667 56.167 -30.334 72.5 -53.001s31.833 -53 46.5 -91l354 -905c22 -53.333 33 -95 33 -125c0 -19.333 -3.66699 -33.333 -11 -42s-22 -21.334 -44 -38.001h22
c31.333 0 55.5 8.33301 72.5 25s25.5 36.334 25.5 59.001c0 32.667 -12 80.667 -36 144zM127 55.001l192 -0.000976562c-42 32.667 -63 73.667 -63 123c0 14 0.666992 25 2 33c-18 -33.333 -36.167 -61.666 -54.5 -84.999s-43.833 -47 -76.5 -71zM909 1680
c0 -46 -18.668 -83.833 -56.001 -113.5s-81.333 -44.5 -132 -44.5c-54.667 0 -99 15.167 -133 45.5s-51 68.5 -51 114.5c0 46.667 16.5 85.5 49.5 116.5s76.5 46.5 130.5 46.5c33.333 0 64.833 -6.83301 94.5 -20.5s53.334 -33 71.001 -58s26.5 -53.833 26.5 -86.5z
M689.999 1571l14 -0.00195312c36.667 0 66 10.333 88 31s33 47.334 33 80.001c0 70.667 -45 108 -135 112c46.667 -29.333 70 -66.666 70 -111.999c0 -46 -23.333 -83 -70 -111zM726.999 1677c0 28.667 -7.83203 52.999 -23.499 72.999s-35.167 30 -58.5 30
c-21.333 0 -39.333 -8.66699 -54 -26s-22 -40.666 -22 -69.999s7.16699 -52.833 21.5 -70.5s33.166 -26.5 56.499 -26.5c22.667 0 41.667 8.5 57 25.5s23 38.5 23 64.5z" />
    <glyph glyph-name="AE" unicode="&#xc6;" horiz-adv-x="2134" 
d="M1944 1411l120.005 -329.995h-73c-55.333 60 -109.333 109.833 -162 149.5s-110.5 70.5 -173.5 92.5s-133.5 33 -211.5 33c-82 0 -137 -11.5 -165 -34.5s-42 -70.167 -42 -141.5c0.666992 -6.66699 1.16699 -12.834 1.5 -18.501s0.5 -13.167 0.5 -22.5v-375h205
c81.333 0 142.5 19.333 183.5 58s61.833 97.667 62.5 177h69v-514h-69c-8.66699 149.333 -93.334 224 -254.001 224h-197v-476c0 -44.667 4.16699 -78.834 12.5 -102.501s28 -42.167 59 -55.5s79.5 -20 145.5 -20c88 0 168 12.667 240 38s135.167 61 189.5 107
s99.5 100 135.5 162h86l-125 -362h-1196v55c66 3.33301 112.5 11.166 139.5 23.499s44.333 32.166 52 59.499s11.5 72.666 11.5 135.999v435h-452l-136 -277c-20.667 -43.333 -36.334 -80.333 -47.001 -111s-16 -64 -16 -100c0 -48.667 14.167 -86.167 42.5 -112.5
s72.166 -44.166 131.499 -53.499v-55h-487v55c40.667 6 75.667 20.667 105 44s56.666 55.5 81.999 96.5s55.666 96.5 90.999 166.5l359 728c21.333 44.667 35.833 76.5 43.5 95.5s11.5 39.5 11.5 61.5c0 41.333 -18.5 69.166 -55.5 83.499s-86.833 22.833 -149.5 25.5v55
h1432zM1925 1194l-82 162h-180c100 -40 187.333 -94 262 -162zM1675 649.005v174c-19.333 -23.333 -39.166 -41.333 -59.499 -54s-46.833 -23.334 -79.5 -32.001c57.333 -15.333 103.666 -44.666 138.999 -87.999zM1690 55.0049h198l66 170
c-70.667 -74 -158.667 -130.667 -264 -170zM1085 213.005l0.000976562 979.001c0 41.333 -2.66699 73.166 -8 95.499s-14.5 38.5 -27.5 48.5s-33.167 16.667 -60.5 20c14 -12.667 23 -25.667 27 -39s6 -42 6 -86v-1006c0 -56 -6.33301 -94.667 -19 -116
s-36.334 -39.333 -71.001 -54c39.333 -0.666992 70 4.33301 92 15s37.667 27.667 47 51s14 54 14 92zM563.006 764.006h426v453c0 50.667 -4.5 86.5 -13.5 107.5s-30.5 31.5 -64.5 31.5c-22.667 0 -40.5 -6.83301 -53.5 -20.5s-31.167 -43.167 -54.5 -88.5zM123.006 55.0059
h189.999c-35.333 33.333 -53 74.333 -53 123c0 10 -0.166992 18 -0.5 24s-0.166016 11.667 0.500977 17c-20 -36.667 -39.333 -67.167 -58 -91.5s-45 -48.5 -79 -72.5z" />
    <glyph glyph-name="Ccedilla" unicode="&#xc7;" horiz-adv-x="1493" 
d="M1397 332l58.9961 -33.001c-49.333 -71.333 -106.166 -131.5 -170.499 -180.5s-133.666 -85.5 -207.999 -109.5s-153.5 -36 -237.5 -36l-23 -49c72 -2.66699 125.833 -20.667 161.5 -54s53.5 -74 53.5 -122c0 -68.667 -32.167 -125.834 -96.5 -171.501
s-158.5 -68.5 -282.5 -68.5c-9.33301 0 -33.666 3 -72.999 9l10 63c63.333 13.333 111.166 28 143.499 44s48.5 43 48.5 81c0 18 -7.16699 33.333 -21.5 46s-35.833 18.667 -64.5 18l90 204c-102.667 4.66699 -196.334 26.167 -281.001 64.5s-158.167 90.333 -220.5 156
s-110.333 141.834 -144 228.501s-50.5 178.667 -50.5 276c0 106 19 204.833 57 296.5s89.833 170.167 155.5 235.5s143.334 116.333 233.001 153s184.167 55 283.5 55c37.333 0 72.166 -2.83301 104.499 -8.5s70.833 -14.5 115.5 -26.5s74.834 -19.833 90.501 -23.5
s33.834 -5.5 54.501 -5.5c52.667 0 96.334 18.667 131.001 56h82v-443h-62c-31.333 65.333 -65.166 122.833 -101.499 172.5s-74.833 91 -115.5 124s-83.334 57.667 -128.001 74s-92.667 24.5 -144 24.5c-69.333 0 -132.333 -15.5 -189 -46.5s-105 -75.333 -145 -133
s-71.167 -127.834 -93.5 -210.501s-33.5 -171 -33.5 -265c0 -131.333 22 -248.166 66 -350.499s105.333 -182.166 184 -239.499s168.667 -86 270 -86c62.667 0 122.5 10.333 179.5 31s112 52 165 94s102.167 94 147.5 156zM785.996 -156.001l-30 -50.999
c43.333 -14 65 -42 65 -84c0 -28.667 -8.16699 -52.834 -24.5 -72.501s-41.5 -39.167 -75.5 -58.5c54.667 6.66699 97 23.167 127 49.5s45 57.5 45 93.5c0 29.333 -9.5 55.333 -28.5 78s-45.167 37.667 -78.5 45zM1276 1178l-5.99902 169.999
c-31.333 -14 -64.333 -21 -99 -21c-16.667 0 -32.334 1.33301 -47.001 4c34 -26 62.333 -51.167 85 -75.5s45 -50.166 67 -77.499zM615.997 1386c-103.333 -39.333 -188.001 -86.3311 -254.001 -140.998c-38 -32 -71.667 -68 -101 -108s-54.166 -82.667 -74.499 -128
s-36 -94.166 -47 -146.499s-16.5 -103.5 -16.5 -153.5c0 -120 24.667 -230.833 74 -332.5s123 -186 221 -253s214.667 -108.167 350 -123.5c-88.667 23.333 -169.5 57.666 -242.5 102.999s-135 99.666 -186 162.999s-89.333 132.166 -115 206.499s-38.5 151.833 -38.5 232.5
c0 131.333 36.167 254.833 108.5 370.5s179.5 219.167 321.5 310.5z" />
    <glyph glyph-name="Egrave" unicode="&#xc8;" horiz-adv-x="1430" 
d="M518 698l0.00292969 -440.002c0 -48.667 3.5 -86.5 10.5 -113.5s19.833 -47 38.5 -60s45.5 -21.167 80.5 -24.5s82.833 -5 143.5 -5c73.333 0 139.166 11.167 197.499 33.5s113.333 55.333 165 99s108.167 101.834 169.5 174.501h80l-125 -362h-1231v55
c59.333 1.33301 104.5 6.5 135.5 15.5s53 24 66 45s19.5 50.833 19.5 89.5v989c0 46.667 -6 80.667 -18 102s-32.333 35.833 -61 43.5s-76 13.167 -142 16.5v55h1182l121 -319h-72c-38.667 48.667 -85.834 92.834 -141.501 132.501s-118 71.5 -187 95.5
s-141.833 36 -218.5 36c-60.667 0 -106.334 -6.5 -137.001 -19.5s-51 -31.167 -61 -54.5s-15 -54 -15 -92v-436h201c175.333 0 264 80.333 266 241h70v-530h-62c-8 81.333 -30.833 140.5 -68.5 177.5s-95.167 55.5 -172.5 55.5h-234zM1178 54.998l69 174
c-39.333 -42.667 -75 -74.5 -107 -95.5s-77.333 -47.167 -136 -78.5h174zM973.003 632.998l0.000976562 196.001c-26 -44.667 -73.333 -77.334 -142 -98.001c36.667 -10 65.667 -22 87 -36s39.666 -34.667 54.999 -62zM1135 1356h-181c50 -16.667 94.333 -36.667 133 -60
s79.667 -51.333 123 -84zM301.004 1186v-966.998c0 -48.667 -5.66699 -84.334 -17 -107.001s-28.333 -41.667 -51 -57c55.333 0.666992 91.166 15.167 107.499 43.5s24.5 74.166 24.5 137.499v968c0 56.667 -9.66699 94.167 -29 112.5s-53.666 28.166 -102.999 29.499
c24.667 -13.333 42.167 -31.166 52.5 -53.499s15.5 -57.833 15.5 -106.5zM883.004 1573h-65l-365 309h305zM797.004 1630l-94 197h-139z" />
    <glyph glyph-name="Eacute" unicode="&#xc9;" horiz-adv-x="1430" 
d="M518 698l0.00292969 -440.002c0 -48.667 3.5 -86.5 10.5 -113.5s19.833 -47 38.5 -60s45.5 -21.167 80.5 -24.5s82.833 -5 143.5 -5c73.333 0 139.166 11.167 197.499 33.5s113.333 55.333 165 99s108.167 101.834 169.5 174.501h80l-125 -362h-1231v55
c59.333 1.33301 104.5 6.5 135.5 15.5s53 24 66 45s19.5 50.833 19.5 89.5v989c0 46.667 -6 80.667 -18 102s-32.333 35.833 -61 43.5s-76 13.167 -142 16.5v55h1182l121 -319h-72c-38.667 48.667 -85.834 92.834 -141.501 132.501s-118 71.5 -187 95.5
s-141.833 36 -218.5 36c-60.667 0 -106.334 -6.5 -137.001 -19.5s-51 -31.167 -61 -54.5s-15 -54 -15 -92v-436h201c175.333 0 264 80.333 266 241h70v-530h-62c-8 81.333 -30.833 140.5 -68.5 177.5s-95.167 55.5 -172.5 55.5h-234zM1178 54.998l69 174
c-39.333 -42.667 -75 -74.5 -107 -95.5s-77.333 -47.167 -136 -78.5h174zM973.003 632.998l0.000976562 196.001c-26 -44.667 -73.333 -77.334 -142 -98.001c36.667 -10 65.667 -22 87 -36s39.666 -34.667 54.999 -62zM1135 1356h-181c50 -16.667 94.333 -36.667 133 -60
s79.667 -51.333 123 -84zM301.004 1186v-966.998c0 -48.667 -5.66699 -84.334 -17 -107.001s-28.333 -41.667 -51 -57c55.333 0.666992 91.166 15.167 107.499 43.5s24.5 74.166 24.5 137.499v968c0 56.667 -9.66699 94.167 -29 112.5s-53.666 28.166 -102.999 29.499
c24.667 -13.333 42.167 -31.166 52.5 -53.499s15.5 -57.833 15.5 -106.5zM523.004 1567h-56l113 313h295zM521.004 1622l184 203h-113z" />
    <glyph glyph-name="Ecircumflex" unicode="&#xca;" horiz-adv-x="1430" 
d="M518 698l0.00292969 -440.002c0 -48.667 3.5 -86.5 10.5 -113.5s19.833 -47 38.5 -60s45.5 -21.167 80.5 -24.5s82.833 -5 143.5 -5c73.333 0 139.166 11.167 197.499 33.5s113.333 55.333 165 99s108.167 101.834 169.5 174.501h80l-125 -362h-1231v55
c59.333 1.33301 104.5 6.5 135.5 15.5s53 24 66 45s19.5 50.833 19.5 89.5v989c0 46.667 -6 80.667 -18 102s-32.333 35.833 -61 43.5s-76 13.167 -142 16.5v55h1182l121 -319h-72c-38.667 48.667 -85.834 92.834 -141.501 132.501s-118 71.5 -187 95.5
s-141.833 36 -218.5 36c-60.667 0 -106.334 -6.5 -137.001 -19.5s-51 -31.167 -61 -54.5s-15 -54 -15 -92v-436h201c175.333 0 264 80.333 266 241h70v-530h-62c-8 81.333 -30.833 140.5 -68.5 177.5s-95.167 55.5 -172.5 55.5h-234zM1178 54.998l69 174
c-39.333 -42.667 -75 -74.5 -107 -95.5s-77.333 -47.167 -136 -78.5h174zM973.003 632.998l0.000976562 196.001c-26 -44.667 -73.333 -77.334 -142 -98.001c36.667 -10 65.667 -22 87 -36s39.666 -34.667 54.999 -62zM1135 1356h-181c50 -16.667 94.333 -36.667 133 -60
s79.667 -51.333 123 -84zM301.004 1186v-966.998c0 -48.667 -5.66699 -84.334 -17 -107.001s-28.333 -41.667 -51 -57c55.333 0.666992 91.166 15.167 107.499 43.5s24.5 74.166 24.5 137.499v968c0 56.667 -9.66699 94.167 -29 112.5s-53.666 28.166 -102.999 29.499
c24.667 -13.333 42.167 -31.166 52.5 -53.499s15.5 -57.833 15.5 -106.5zM408.004 1581h-72l252 312h174l230 -312h-113l-244 164zM871.004 1624l-185 213h-100l-180 -221l229 168z" />
    <glyph glyph-name="Edieresis" unicode="&#xcb;" horiz-adv-x="1430" 
d="M518 698l0.00292969 -440.002c0 -48.667 3.5 -86.5 10.5 -113.5s19.833 -47 38.5 -60s45.5 -21.167 80.5 -24.5s82.833 -5 143.5 -5c73.333 0 139.166 11.167 197.499 33.5s113.333 55.333 165 99s108.167 101.834 169.5 174.501h80l-125 -362h-1231v55
c59.333 1.33301 104.5 6.5 135.5 15.5s53 24 66 45s19.5 50.833 19.5 89.5v989c0 46.667 -6 80.667 -18 102s-32.333 35.833 -61 43.5s-76 13.167 -142 16.5v55h1182l121 -319h-72c-38.667 48.667 -85.834 92.834 -141.501 132.501s-118 71.5 -187 95.5
s-141.833 36 -218.5 36c-60.667 0 -106.334 -6.5 -137.001 -19.5s-51 -31.167 -61 -54.5s-15 -54 -15 -92v-436h201c175.333 0 264 80.333 266 241h70v-530h-62c-8 81.333 -30.833 140.5 -68.5 177.5s-95.167 55.5 -172.5 55.5h-234zM1178 54.998l69 174
c-39.333 -42.667 -75 -74.5 -107 -95.5s-77.333 -47.167 -136 -78.5h174zM973.003 632.998l0.000976562 196.001c-26 -44.667 -73.333 -77.334 -142 -98.001c36.667 -10 65.667 -22 87 -36s39.666 -34.667 54.999 -62zM1135 1356h-181c50 -16.667 94.333 -36.667 133 -60
s79.667 -51.333 123 -84zM301.004 1186v-966.998c0 -48.667 -5.66699 -84.334 -17 -107.001s-28.333 -41.667 -51 -57c55.333 0.666992 91.166 15.167 107.499 43.5s24.5 74.166 24.5 137.499v968c0 56.667 -9.66699 94.167 -29 112.5s-53.666 28.166 -102.999 29.499
c24.667 -13.333 42.167 -31.166 52.5 -53.499s15.5 -57.833 15.5 -106.5zM568.004 1729c0 -40.667 -13 -72.332 -39 -94.999s-55.333 -34 -88 -34c-36 0 -66.833 11.833 -92.5 35.5s-38.5 53.5 -38.5 89.5c0 37.333 12.833 68.166 38.5 92.499s56.5 36.5 92.5 36.5
c35.333 0 65.333 -11.833 90 -35.5s37 -53.5 37 -89.5zM467.004 1628c-20.667 14 -36.332 27.834 -46.999 41.501s-16 34.167 -16 61.5c0 14.667 4.66699 31.167 14 49.5s23 33.166 41 44.499c-36.667 0.666992 -65.334 -8.16602 -86.001 -26.499s-31 -42.833 -31 -73.5
c0 -26.667 9.16699 -49.834 27.5 -69.501s40.833 -29.5 67.5 -29.5c12 0 22 0.666992 30 2zM758.006 1725c0 37.333 13.168 68.167 39.501 92.5s56.833 36.5 91.5 36.5c36 0 66.167 -13 90.5 -39s36.5 -56 36.5 -90c0 -33.333 -11.833 -62.833 -35.5 -88.5
s-54.834 -38.5 -93.501 -38.5c-36 0 -66.5 12.5 -91.5 37.5s-37.5 54.833 -37.5 89.5zM908.007 1628c-36 26 -53.998 58.998 -53.998 98.998c0 38.667 20.667 71.334 62 98.001c-2.66699 0.666992 -5.16699 1.16699 -7.5 1.5s-5.5 0.5 -9.5 0.5
c-30.667 0 -56.334 -10 -77.001 -30s-31 -44 -31 -72c0 -28.667 9.66699 -52.167 29 -70.5s48.666 -27.166 87.999 -26.499z" />
    <glyph glyph-name="Igrave" unicode="&#xcc;" horiz-adv-x="831" 
d="M84 1411l666.002 -0.00195312v-55c-62.667 -1.33301 -111.167 -9.5 -145.5 -24.5s-52.833 -45.167 -55.5 -90.5c-1.33301 -28 -2.66602 -50.167 -3.99902 -66.5s-2 -23.5 -2 -21.5v-922c0 -39.333 4.16699 -70.666 12.5 -93.999s20.166 -40 35.499 -50
s33 -16.833 53 -20.5s55.333 -7.5 106 -11.5v-55h-666v55c59.333 0.666992 104.166 6.83398 134.499 18.501s50 30.334 59 56.001s13.5 66.5 13.5 122.5v893c0 53.333 -2.5 92.833 -7.5 118.5s-14.5 44.167 -28.5 55.5s-32.833 19.166 -56.5 23.499
s-61.834 8.83301 -114.501 13.5v55zM324.002 1174v-995.999c0 -34 -6 -59 -18 -75s-32.667 -32 -62 -48c43.333 1.33301 78.333 8.5 105 21.5s40 41.5 40 85.5v1061c0 45.333 -9.33301 79.333 -28 102s-55.667 33 -111 31c50.667 -26.667 76 -77.334 76 -152.001
c0 -5.33301 -0.166992 -10.333 -0.5 -15s-0.833008 -9.66699 -1.5 -15zM633.002 1573h-65l-365 309h305zM547.002 1630l-94 197h-139z" />
    <glyph glyph-name="Iacute" unicode="&#xcd;" horiz-adv-x="831" 
d="M84 1411l666.002 -0.00195312v-55c-62.667 -1.33301 -111.167 -9.5 -145.5 -24.5s-52.833 -45.167 -55.5 -90.5c-1.33301 -28 -2.66602 -50.167 -3.99902 -66.5s-2 -23.5 -2 -21.5v-922c0 -39.333 4.16699 -70.666 12.5 -93.999s20.166 -40 35.499 -50
s33 -16.833 53 -20.5s55.333 -7.5 106 -11.5v-55h-666v55c59.333 0.666992 104.166 6.83398 134.499 18.501s50 30.334 59 56.001s13.5 66.5 13.5 122.5v893c0 53.333 -2.5 92.833 -7.5 118.5s-14.5 44.167 -28.5 55.5s-32.833 19.166 -56.5 23.499
s-61.834 8.83301 -114.501 13.5v55zM324.002 1174v-995.999c0 -34 -6 -59 -18 -75s-32.667 -32 -62 -48c43.333 1.33301 78.333 8.5 105 21.5s40 41.5 40 85.5v1061c0 45.333 -9.33301 79.333 -28 102s-55.667 33 -111 31c50.667 -26.667 76 -77.334 76 -152.001
c0 -5.33301 -0.166992 -10.333 -0.5 -15s-0.833008 -9.66699 -1.5 -15zM273.002 1567h-56l113 313h295zM271.002 1622l184 203h-113z" />
    <glyph glyph-name="Icircumflex" unicode="&#xce;" horiz-adv-x="831" 
d="M84 1411l666.002 -0.00195312v-55c-62.667 -1.33301 -111.167 -9.5 -145.5 -24.5s-52.833 -45.167 -55.5 -90.5c-1.33301 -28 -2.66602 -50.167 -3.99902 -66.5s-2 -23.5 -2 -21.5v-922c0 -39.333 4.16699 -70.666 12.5 -93.999s20.166 -40 35.499 -50
s33 -16.833 53 -20.5s55.333 -7.5 106 -11.5v-55h-666v55c59.333 0.666992 104.166 6.83398 134.499 18.501s50 30.334 59 56.001s13.5 66.5 13.5 122.5v893c0 53.333 -2.5 92.833 -7.5 118.5s-14.5 44.167 -28.5 55.5s-32.833 19.166 -56.5 23.499
s-61.834 8.83301 -114.501 13.5v55zM324.002 1174v-995.999c0 -34 -6 -59 -18 -75s-32.667 -32 -62 -48c43.333 1.33301 78.333 8.5 105 21.5s40 41.5 40 85.5v1061c0 45.333 -9.33301 79.333 -28 102s-55.667 33 -111 31c50.667 -26.667 76 -77.334 76 -152.001
c0 -5.33301 -0.166992 -10.333 -0.5 -15s-0.833008 -9.66699 -1.5 -15zM158.002 1581h-72l252 312h174l230 -312h-113l-244 164zM621.002 1624l-185 213h-100l-180 -221l229 168z" />
    <glyph glyph-name="Idieresis" unicode="&#xcf;" horiz-adv-x="831" 
d="M84 1411l666.002 -0.00195312v-55c-62.667 -1.33301 -111.167 -9.5 -145.5 -24.5s-52.833 -45.167 -55.5 -90.5c-1.33301 -28 -2.66602 -50.167 -3.99902 -66.5s-2 -23.5 -2 -21.5v-922c0 -39.333 4.16699 -70.666 12.5 -93.999s20.166 -40 35.499 -50
s33 -16.833 53 -20.5s55.333 -7.5 106 -11.5v-55h-666v55c59.333 0.666992 104.166 6.83398 134.499 18.501s50 30.334 59 56.001s13.5 66.5 13.5 122.5v893c0 53.333 -2.5 92.833 -7.5 118.5s-14.5 44.167 -28.5 55.5s-32.833 19.166 -56.5 23.499
s-61.834 8.83301 -114.501 13.5v55zM324.002 1174v-995.999c0 -34 -6 -59 -18 -75s-32.667 -32 -62 -48c43.333 1.33301 78.333 8.5 105 21.5s40 41.5 40 85.5v1061c0 45.333 -9.33301 79.333 -28 102s-55.667 33 -111 31c50.667 -26.667 76 -77.334 76 -152.001
c0 -5.33301 -0.166992 -10.333 -0.5 -15s-0.833008 -9.66699 -1.5 -15zM318.002 1729c0 -40.667 -13 -72.332 -39 -94.999s-55.333 -34 -88 -34c-36 0 -66.833 11.833 -92.5 35.5s-38.5 53.5 -38.5 89.5c0 37.333 12.833 68.166 38.5 92.499s56.5 36.5 92.5 36.5
c35.333 0 65.333 -11.833 90 -35.5s37 -53.5 37 -89.5zM217.002 1628c-20.667 14 -36.332 27.834 -46.999 41.501s-16 34.167 -16 61.5c0 14.667 4.66699 31.167 14 49.5s23 33.166 41 44.499c-36.667 0.666992 -65.334 -8.16602 -86.001 -26.499s-31 -42.833 -31 -73.5
c0 -26.667 9.16699 -49.834 27.5 -69.501s40.833 -29.5 67.5 -29.5c12 0 22 0.666992 30 2zM508.004 1725c0 37.333 13.168 68.167 39.501 92.5s56.833 36.5 91.5 36.5c36 0 66.167 -13 90.5 -39s36.5 -56 36.5 -90c0 -33.333 -11.833 -62.833 -35.5 -88.5
s-54.834 -38.5 -93.501 -38.5c-36 0 -66.5 12.5 -91.5 37.5s-37.5 54.833 -37.5 89.5zM658.005 1628c-36 26 -53.998 58.998 -53.998 98.998c0 38.667 20.667 71.334 62 98.001c-2.66699 0.666992 -5.16699 1.16699 -7.5 1.5s-5.5 0.5 -9.5 0.5
c-30.667 0 -56.334 -10 -77.001 -30s-31 -44 -31 -72c0 -28.667 9.66699 -52.167 29 -70.5s48.666 -27.166 87.999 -26.499z" />
    <glyph glyph-name="Eth" unicode="&#xd0;" horiz-adv-x="1749" 
d="M307 217l0.000976562 469.001h-203v80h203v457c0 49.333 -16 82.666 -48 99.999s-83.667 28.333 -155 33v55h826c107.333 0 206.166 -17.667 296.499 -53s168 -85.166 233 -149.499s115.167 -140.5 150.5 -228.5s53 -182.667 53 -284
c0 -99.333 -18.167 -191.5 -54.5 -276.5s-88.5 -158.833 -156.5 -221.5s-149.5 -111.334 -244.5 -146.001s-198.5 -52 -310.5 -52h-793v55c56 2 98 7.16699 126 15.5s47.833 23.833 59.5 46.5s17.5 56 17.5 100zM924.001 686.001l-365.001 -0.000976562v-459
c0 -35.333 3.33301 -63.833 10 -85.5s18 -38.834 34 -51.501s37.167 -21.667 63.5 -27s62.166 -8 107.499 -8c72.667 0 137.667 7.5 195 22.5s112 41.167 164 78.5c61.333 44 109.333 91.5 144 142.5s59.834 109 75.501 174s23.5 137.5 23.5 217.5
c0 238 -69.667 416.333 -209 535c-55.333 47.333 -116.666 81 -183.999 101s-146.666 30 -237.999 30c-62.667 0 -106.834 -9.16699 -132.501 -27.5s-41 -44.666 -46 -78.999s-7.5 -95.166 -7.5 -182.499v-301h365v-80zM406 211v916.999c0 80 -7.33301 136.167 -22 168.5
s-52.667 48.833 -114 49.5c28 -21.333 46.667 -42.666 56 -63.999s14 -59 14 -113v-933c0 -41.333 -2.33301 -73.666 -7 -96.999s-11.667 -41 -21 -53s-23.333 -22.333 -42 -31c50.667 0 86 12.167 106 36.5s30 64.166 30 119.499zM1026 54.999
c85.333 8.66699 162 38 230 88s121.833 121 161.5 213s59.5 202 59.5 330c0 92 -9.5 176 -28.5 252s-46.833 142.5 -83.5 199.5s-81.334 102.5 -134.001 136.5c-30.667 20.667 -62.667 36.334 -96 47.001s-69.666 19.667 -108.999 27
c255.333 -100.667 383 -323.334 383 -668.001c0 -103.333 -13.5 -195 -40.5 -275s-69.167 -149.167 -126.5 -207.5s-129.333 -105.833 -216 -142.5z" />
    <glyph glyph-name="Ntilde" unicode="&#xd1;" horiz-adv-x="1642" 
d="M1073 1356l0.00292969 55.002h535v-55c-44.667 -1.33301 -83.834 -11.333 -117.501 -30s-60.167 -45.834 -79.5 -81.501s-29 -78.5 -29 -128.5l19 -1147h-62l-1022 1194l15 -803c1.33301 -50 5.33301 -92.167 12 -126.5s18.667 -64.166 36 -89.499
s42.166 -45.333 74.499 -60s74.166 -24.334 125.499 -29.001v-55h-531v55c69.333 5.33301 120.833 24 154.5 56s54.5 71.833 62.5 119.5s10.667 107.5 8 179.5l-14 819c-38 41.333 -75 72.833 -111 94.5s-73.333 32.5 -112 32.5h-12v55h413l901 -1051l-14 703
c0 54 -5.5 99.833 -16.5 137.5s-29.5 68.167 -55.5 91.5c-18.667 18.667 -45.5 34.167 -80.5 46.5s-68.167 18.166 -99.5 17.499zM1423 1356h-219c33.333 -11.333 60.5 -27 81.5 -47s38.833 -47.333 53.5 -82c15.333 59.333 43.333 102.333 84 129zM1266 211.002l-901 1051
c-18.667 24 -40.834 45.667 -66.501 65s-61.834 29 -108.501 29h-45c37.333 -13.333 66.333 -29.5 87 -48.5s49.667 -50.833 87 -95.5l1027 -1196c-0.666992 19.333 -1.5 38.166 -2.5 56.499s-3.16699 32 -6.5 41s-9.66602 20.167 -18.999 33.5
s-26.666 34.666 -51.999 63.999zM172.003 55.0039h210.999c-29.333 22.667 -50.166 43.667 -62.499 63s-22.833 46.333 -31.5 81c-8.66699 -31.333 -22 -58.5 -40 -81.5s-43.667 -43.833 -77 -62.5zM1120 1878v25h70c0.666992 -6.66699 1.16699 -13.167 1.5 -19.5
s0.5 -13.5 0.5 -21.5c0 -50 -10.333 -94.5 -31 -133.5s-48.667 -68.833 -84 -89.5s-73.666 -31 -114.999 -31c-39.333 0 -72 5.33301 -98 16s-70 30.5 -132 59.5s-104.667 43.5 -128 43.5c-26.667 0 -48.834 -9.83301 -66.501 -29.5s-26.834 -49.5 -27.501 -89.5h-58
c0 9.33301 -0.166992 17.5 -0.5 24.5s-0.833008 14.5 -1.5 22.5c0 42 8.66699 81.833 26 119.5s42.833 68.167 76.5 91.5s74.167 35 121.5 35c32 0 65.167 -5.16699 99.5 -15.5s67.833 -22.833 100.5 -37.5s64.167 -28 94.5 -40s54.833 -18 73.5 -18
c24.667 0 43.834 7.83301 57.501 23.5s20.5 37.167 20.5 64.5zM999.002 1698c-28.667 0 -55.168 3.83105 -79.501 11.498s-59.833 21.834 -106.5 42.501s-81.667 35.334 -105 44.001s-45.666 13 -66.999 13c-48.667 0 -85.667 -26.667 -111 -80c26 21.333 50.667 32 74 32
c22.667 0 45.167 -4.5 67.5 -13.5s55.833 -24.167 100.5 -45.5s80.667 -36.5 108 -45.5s55.333 -13.5 84 -13.5c74.667 0 132 34 172 102c-24 -16 -46 -27.833 -66 -35.5s-43.667 -11.5 -71 -11.5z" />
    <glyph glyph-name="Ograve" unicode="&#xd2;" horiz-adv-x="1665" 
d="M88 711c0 60 5.66406 117 16.9971 171s28 105.333 50 154s49.667 94.334 83 137.001s70 80.334 110 113.001c43.333 35.333 90 64.333 140 87s104.167 39.167 162.5 49.5s120.833 15.5 187.5 15.5c112 0 214.333 -19 307 -57s171.5 -90.667 236.5 -158
s114.833 -144.833 149.5 -232.5s52 -180.167 52 -277.5c0 -104.667 -19.167 -202.167 -57.5 -292.5s-92.666 -169 -162.999 -236s-152.833 -119 -247.5 -156s-196.667 -55.5 -306 -55.5c-102.667 0 -198.667 18.167 -288 54.5s-166.166 87.166 -230.499 152.499
s-114.166 143.666 -149.499 234.999s-53 190 -53 296zM364.997 817c0 -116 11.999 -222.668 35.999 -320.001s58.333 -181.166 103 -251.499s97.5 -124 158.5 -161s126.833 -55.5 197.5 -55.5c60 0 116.833 12.833 170.5 38.5s100.834 64.167 141.501 115.5
s72.167 114.833 94.5 190.5s33.5 163.5 33.5 263.5c0 109.333 -12.833 210.5 -38.5 303.5s-61.334 172 -107.001 237s-99.5 115.333 -161.5 151s-128.667 53.5 -200 53.5c-61.333 0 -118.666 -13.333 -171.999 -40s-98.833 -64.834 -136.5 -114.501s-67 -109.167 -88 -178.5
s-31.5 -146.666 -31.5 -231.999zM458.996 1327c-110.667 -68 -194.667 -154.833 -252 -260.5s-86 -224.834 -86 -357.501c0 -110 18.667 -210.5 56 -301.5s92.333 -169 165 -234s162.667 -115.167 270 -150.5c-130.667 66.667 -234.667 158.334 -312 275.001
s-116 259.667 -116 429c0 84.667 10.167 161 30.5 229s51 132.167 92 192.5s91.833 119.833 152.5 178.5zM980.996 1368c75.333 -40 139.499 -95.1641 192.499 -165.497s92.833 -154.5 119.5 -252.5s40 -205.667 40 -323c0 -111.333 -15.167 -207.833 -45.5 -289.5
s-73.166 -153.834 -128.499 -216.501c55.333 41.333 100.5 88.166 135.5 140.499s60.833 111.666 77.5 177.999s25 141.166 25 224.499c0 119.333 -16.5 229 -49.5 329s-81 182.833 -144 248.5s-137.167 107.834 -222.5 126.501zM1051 1573h-65l-365 309h305zM964.995 1630
l-94 197h-139z" />
    <glyph glyph-name="Oacute" unicode="&#xd3;" horiz-adv-x="1665" 
d="M88 711c0 60 5.66406 117 16.9971 171s28 105.333 50 154s49.667 94.334 83 137.001s70 80.334 110 113.001c43.333 35.333 90 64.333 140 87s104.167 39.167 162.5 49.5s120.833 15.5 187.5 15.5c112 0 214.333 -19 307 -57s171.5 -90.667 236.5 -158
s114.833 -144.833 149.5 -232.5s52 -180.167 52 -277.5c0 -104.667 -19.167 -202.167 -57.5 -292.5s-92.666 -169 -162.999 -236s-152.833 -119 -247.5 -156s-196.667 -55.5 -306 -55.5c-102.667 0 -198.667 18.167 -288 54.5s-166.166 87.166 -230.499 152.499
s-114.166 143.666 -149.499 234.999s-53 190 -53 296zM364.997 817c0 -116 11.999 -222.668 35.999 -320.001s58.333 -181.166 103 -251.499s97.5 -124 158.5 -161s126.833 -55.5 197.5 -55.5c60 0 116.833 12.833 170.5 38.5s100.834 64.167 141.501 115.5
s72.167 114.833 94.5 190.5s33.5 163.5 33.5 263.5c0 109.333 -12.833 210.5 -38.5 303.5s-61.334 172 -107.001 237s-99.5 115.333 -161.5 151s-128.667 53.5 -200 53.5c-61.333 0 -118.666 -13.333 -171.999 -40s-98.833 -64.834 -136.5 -114.501s-67 -109.167 -88 -178.5
s-31.5 -146.666 -31.5 -231.999zM458.996 1327c-110.667 -68 -194.667 -154.833 -252 -260.5s-86 -224.834 -86 -357.501c0 -110 18.667 -210.5 56 -301.5s92.333 -169 165 -234s162.667 -115.167 270 -150.5c-130.667 66.667 -234.667 158.334 -312 275.001
s-116 259.667 -116 429c0 84.667 10.167 161 30.5 229s51 132.167 92 192.5s91.833 119.833 152.5 178.5zM980.996 1368c75.333 -40 139.499 -95.1641 192.499 -165.497s92.833 -154.5 119.5 -252.5s40 -205.667 40 -323c0 -111.333 -15.167 -207.833 -45.5 -289.5
s-73.166 -153.834 -128.499 -216.501c55.333 41.333 100.5 88.166 135.5 140.499s60.833 111.666 77.5 177.999s25 141.166 25 224.499c0 119.333 -16.5 229 -49.5 329s-81 182.833 -144 248.5s-137.167 107.834 -222.5 126.501zM690.995 1567h-56l113 313h295z
M688.995 1622l184 203h-113z" />
    <glyph glyph-name="Ocircumflex" unicode="&#xd4;" horiz-adv-x="1665" 
d="M88 711c0 60 5.66406 117 16.9971 171s28 105.333 50 154s49.667 94.334 83 137.001s70 80.334 110 113.001c43.333 35.333 90 64.333 140 87s104.167 39.167 162.5 49.5s120.833 15.5 187.5 15.5c112 0 214.333 -19 307 -57s171.5 -90.667 236.5 -158
s114.833 -144.833 149.5 -232.5s52 -180.167 52 -277.5c0 -104.667 -19.167 -202.167 -57.5 -292.5s-92.666 -169 -162.999 -236s-152.833 -119 -247.5 -156s-196.667 -55.5 -306 -55.5c-102.667 0 -198.667 18.167 -288 54.5s-166.166 87.166 -230.499 152.499
s-114.166 143.666 -149.499 234.999s-53 190 -53 296zM364.997 817c0 -116 11.999 -222.668 35.999 -320.001s58.333 -181.166 103 -251.499s97.5 -124 158.5 -161s126.833 -55.5 197.5 -55.5c60 0 116.833 12.833 170.5 38.5s100.834 64.167 141.501 115.5
s72.167 114.833 94.5 190.5s33.5 163.5 33.5 263.5c0 109.333 -12.833 210.5 -38.5 303.5s-61.334 172 -107.001 237s-99.5 115.333 -161.5 151s-128.667 53.5 -200 53.5c-61.333 0 -118.666 -13.333 -171.999 -40s-98.833 -64.834 -136.5 -114.501s-67 -109.167 -88 -178.5
s-31.5 -146.666 -31.5 -231.999zM458.996 1327c-110.667 -68 -194.667 -154.833 -252 -260.5s-86 -224.834 -86 -357.501c0 -110 18.667 -210.5 56 -301.5s92.333 -169 165 -234s162.667 -115.167 270 -150.5c-130.667 66.667 -234.667 158.334 -312 275.001
s-116 259.667 -116 429c0 84.667 10.167 161 30.5 229s51 132.167 92 192.5s91.833 119.833 152.5 178.5zM980.996 1368c75.333 -40 139.499 -95.1641 192.499 -165.497s92.833 -154.5 119.5 -252.5s40 -205.667 40 -323c0 -111.333 -15.167 -207.833 -45.5 -289.5
s-73.166 -153.834 -128.499 -216.501c55.333 41.333 100.5 88.166 135.5 140.499s60.833 111.666 77.5 177.999s25 141.166 25 224.499c0 119.333 -16.5 229 -49.5 329s-81 182.833 -144 248.5s-137.167 107.834 -222.5 126.501zM575.995 1581h-72l252 312h174l230 -312
h-113l-244 164zM1039 1624l-185 213h-100l-180 -221l229 168z" />
    <glyph glyph-name="Otilde" unicode="&#xd5;" horiz-adv-x="1665" 
d="M88 711c0 60 5.66406 117 16.9971 171s28 105.333 50 154s49.667 94.334 83 137.001s70 80.334 110 113.001c43.333 35.333 90 64.333 140 87s104.167 39.167 162.5 49.5s120.833 15.5 187.5 15.5c112 0 214.333 -19 307 -57s171.5 -90.667 236.5 -158
s114.833 -144.833 149.5 -232.5s52 -180.167 52 -277.5c0 -104.667 -19.167 -202.167 -57.5 -292.5s-92.666 -169 -162.999 -236s-152.833 -119 -247.5 -156s-196.667 -55.5 -306 -55.5c-102.667 0 -198.667 18.167 -288 54.5s-166.166 87.166 -230.499 152.499
s-114.166 143.666 -149.499 234.999s-53 190 -53 296zM364.997 817c0 -116 11.999 -222.668 35.999 -320.001s58.333 -181.166 103 -251.499s97.5 -124 158.5 -161s126.833 -55.5 197.5 -55.5c60 0 116.833 12.833 170.5 38.5s100.834 64.167 141.501 115.5
s72.167 114.833 94.5 190.5s33.5 163.5 33.5 263.5c0 109.333 -12.833 210.5 -38.5 303.5s-61.334 172 -107.001 237s-99.5 115.333 -161.5 151s-128.667 53.5 -200 53.5c-61.333 0 -118.666 -13.333 -171.999 -40s-98.833 -64.834 -136.5 -114.501s-67 -109.167 -88 -178.5
s-31.5 -146.666 -31.5 -231.999zM458.996 1327c-110.667 -68 -194.667 -154.833 -252 -260.5s-86 -224.834 -86 -357.501c0 -110 18.667 -210.5 56 -301.5s92.333 -169 165 -234s162.667 -115.167 270 -150.5c-130.667 66.667 -234.667 158.334 -312 275.001
s-116 259.667 -116 429c0 84.667 10.167 161 30.5 229s51 132.167 92 192.5s91.833 119.833 152.5 178.5zM980.996 1368c75.333 -40 139.499 -95.1641 192.499 -165.497s92.833 -154.5 119.5 -252.5s40 -205.667 40 -323c0 -111.333 -15.167 -207.833 -45.5 -289.5
s-73.166 -153.834 -128.499 -216.501c55.333 41.333 100.5 88.166 135.5 140.499s60.833 111.666 77.5 177.999s25 141.166 25 224.499c0 119.333 -16.5 229 -49.5 329s-81 182.833 -144 248.5s-137.167 107.834 -222.5 126.501zM1133 1878v25h70
c0.666992 -6.66699 1.16699 -13.167 1.5 -19.5s0.5 -13.5 0.5 -21.5c0 -50 -10.333 -94.5 -31 -133.5s-48.667 -68.833 -84 -89.5s-73.666 -31 -114.999 -31c-39.333 0 -72 5.33301 -98 16s-70 30.5 -132 59.5s-104.667 43.5 -128 43.5
c-26.667 0 -48.834 -9.83301 -66.501 -29.5s-26.834 -49.5 -27.501 -89.5h-58c0 9.33301 -0.166992 17.5 -0.5 24.5s-0.833008 14.5 -1.5 22.5c0 42 8.66699 81.833 26 119.5s42.833 68.167 76.5 91.5s74.167 35 121.5 35c32 0 65.167 -5.16699 99.5 -15.5
s67.833 -22.833 100.5 -37.5s64.167 -28 94.5 -40s54.833 -18 73.5 -18c24.667 0 43.834 7.83301 57.501 23.5s20.5 37.167 20.5 64.5zM1012 1698c-28.667 0 -55.168 3.83105 -79.501 11.498s-59.833 21.834 -106.5 42.501s-81.667 35.334 -105 44.001
s-45.666 13 -66.999 13c-48.667 0 -85.667 -26.667 -111 -80c26 21.333 50.667 32 74 32c22.667 0 45.167 -4.5 67.5 -13.5s55.833 -24.167 100.5 -45.5s80.667 -36.5 108 -45.5s55.333 -13.5 84 -13.5c74.667 0 132 34 172 102c-24 -16 -46 -27.833 -66 -35.5
s-43.667 -11.5 -71 -11.5z" />
    <glyph glyph-name="Odieresis" unicode="&#xd6;" horiz-adv-x="1665" 
d="M88 711c0 60 5.66406 117 16.9971 171s28 105.333 50 154s49.667 94.334 83 137.001s70 80.334 110 113.001c43.333 35.333 90 64.333 140 87s104.167 39.167 162.5 49.5s120.833 15.5 187.5 15.5c112 0 214.333 -19 307 -57s171.5 -90.667 236.5 -158
s114.833 -144.833 149.5 -232.5s52 -180.167 52 -277.5c0 -104.667 -19.167 -202.167 -57.5 -292.5s-92.666 -169 -162.999 -236s-152.833 -119 -247.5 -156s-196.667 -55.5 -306 -55.5c-102.667 0 -198.667 18.167 -288 54.5s-166.166 87.166 -230.499 152.499
s-114.166 143.666 -149.499 234.999s-53 190 -53 296zM364.997 817c0 -116 11.999 -222.668 35.999 -320.001s58.333 -181.166 103 -251.499s97.5 -124 158.5 -161s126.833 -55.5 197.5 -55.5c60 0 116.833 12.833 170.5 38.5s100.834 64.167 141.501 115.5
s72.167 114.833 94.5 190.5s33.5 163.5 33.5 263.5c0 109.333 -12.833 210.5 -38.5 303.5s-61.334 172 -107.001 237s-99.5 115.333 -161.5 151s-128.667 53.5 -200 53.5c-61.333 0 -118.666 -13.333 -171.999 -40s-98.833 -64.834 -136.5 -114.501s-67 -109.167 -88 -178.5
s-31.5 -146.666 -31.5 -231.999zM458.996 1327c-110.667 -68 -194.667 -154.833 -252 -260.5s-86 -224.834 -86 -357.501c0 -110 18.667 -210.5 56 -301.5s92.333 -169 165 -234s162.667 -115.167 270 -150.5c-130.667 66.667 -234.667 158.334 -312 275.001
s-116 259.667 -116 429c0 84.667 10.167 161 30.5 229s51 132.167 92 192.5s91.833 119.833 152.5 178.5zM980.996 1368c75.333 -40 139.499 -95.1641 192.499 -165.497s92.833 -154.5 119.5 -252.5s40 -205.667 40 -323c0 -111.333 -15.167 -207.833 -45.5 -289.5
s-73.166 -153.834 -128.499 -216.501c55.333 41.333 100.5 88.166 135.5 140.499s60.833 111.666 77.5 177.999s25 141.166 25 224.499c0 119.333 -16.5 229 -49.5 329s-81 182.833 -144 248.5s-137.167 107.834 -222.5 126.501zM735.995 1729
c0 -40.667 -13 -72.332 -39 -94.999s-55.333 -34 -88 -34c-36 0 -66.833 11.833 -92.5 35.5s-38.5 53.5 -38.5 89.5c0 37.333 12.833 68.166 38.5 92.499s56.5 36.5 92.5 36.5c35.333 0 65.333 -11.833 90 -35.5s37 -53.5 37 -89.5zM634.995 1628
c-20.667 14 -36.332 27.834 -46.999 41.501s-16 34.167 -16 61.5c0 14.667 4.66699 31.167 14 49.5s23 33.166 41 44.499c-36.667 0.666992 -65.334 -8.16602 -86.001 -26.499s-31 -42.833 -31 -73.5c0 -26.667 9.16699 -49.834 27.5 -69.501s40.833 -29.5 67.5 -29.5
c12 0 22 0.666992 30 2zM925.997 1725c0 37.333 13.168 68.167 39.501 92.5s56.833 36.5 91.5 36.5c36 0 66.167 -13 90.5 -39s36.5 -56 36.5 -90c0 -33.333 -11.833 -62.833 -35.5 -88.5s-54.834 -38.5 -93.501 -38.5c-36 0 -66.5 12.5 -91.5 37.5s-37.5 54.833 -37.5 89.5
zM1076 1628.01c-36 26 -53.998 58.998 -53.998 98.998c0 38.667 20.667 71.334 62 98.001c-2.66699 0.666992 -5.16699 1.16699 -7.5 1.5s-5.5 0.5 -9.5 0.5c-30.667 0 -56.334 -10 -77.001 -30s-31 -44 -31 -72c0 -28.667 9.66699 -52.167 29 -70.5
s48.666 -27.166 87.999 -26.499z" />
    <glyph glyph-name="multiply" unicode="&#xd7;" horiz-adv-x="1167" 
d="M247 1112l340 -340l340 339l92 -92l-339 -340l340 -340l-93 -93l-340 340l-338 -337l-92 92l337 337l-340 341z" />
    <glyph glyph-name="Oslash" unicode="&#xd8;" horiz-adv-x="1665" 
d="M193 18l120 141.997c-37.333 35.333 -69.666 72.5 -96.999 111.5s-50.5 81.667 -69.5 128s-33.5 95.666 -43.5 147.999s-15 106.833 -15 163.5c0 60 5.66699 117 17 171s28 105.333 50 154s49.667 94.334 83 137.001s70 80.334 110 113.001
c43.333 35.333 90 64.333 140 87s104.167 39.167 162.5 49.5s120.833 15.5 187.5 15.5c92.667 0 174.5 -11.167 245.5 -33.5s141.833 -59.166 212.5 -110.499l123 144l66 -49l-127 -146c75.333 -74.667 131.666 -155.5 168.999 -242.5s56 -182.833 56 -287.5
s-19.167 -202.167 -57.5 -292.5s-92.666 -169 -162.999 -236s-152.833 -119 -247.5 -156s-196.667 -55.5 -306 -55.5c-54.667 0 -107.334 4.83301 -158.001 14.5s-99 24.834 -145 45.501s-89 45 -129 73l-119 -135zM459 325.997l715 827c-32 49.333 -68 91.333 -108 126
s-83 60.5 -129 77.5s-94 25.5 -144 25.5c-82.667 0 -156.5 -23 -221.5 -69s-115.667 -112 -152 -198s-54.5 -185.333 -54.5 -298c0 -183.333 31.333 -347 94 -491zM1212 1075l-712.001 -825c46 -72.667 99.333 -127.667 160 -165s127.334 -56 200.001 -56
c82 0 156.333 23 223 69s119.5 114.833 158.5 206.5s58.5 202.5 58.5 332.5c0 163.333 -29.333 309.333 -88 438zM458.999 1327c-110.667 -68 -194.667 -154.832 -252 -260.499s-86 -224.834 -86 -357.501c0 -110 18.667 -210.5 56 -301.5s92.333 -169 165 -234
s162.667 -115.167 270 -150.5c-143.333 90 -250.5 188 -321.5 294s-106.5 242.667 -106.5 410c0 84.667 10.167 161 30.5 229s51 132.167 92 192.5s91.833 119.833 152.5 178.5zM980.999 1368c75.333 -40 139.499 -95.1641 192.499 -165.497s92.833 -154.5 119.5 -252.5
s40 -205.667 40 -323c0 -111.333 -15.167 -207.833 -45.5 -289.5s-73.166 -153.834 -128.499 -216.501c55.333 41.333 100.5 88.166 135.5 140.499s60.833 111.666 77.5 177.999s25 141.166 25 224.499c0 119.333 -16.5 229 -49.5 329s-81 182.833 -144 248.5
s-137.167 107.834 -222.5 126.501z" />
    <glyph glyph-name="Ugrave" unicode="&#xd9;" horiz-adv-x="1665" 
d="M274 430l-0.000976562 761.999c0 50 -7.5 85.833 -22.5 107.5s-36.333 35.167 -64 40.5s-73.167 10.666 -136.5 15.999v55h678v-55c-53.333 -3.33301 -93.333 -8.16602 -120 -14.499s-47.167 -19.833 -61.5 -40.5s-21.5 -53.667 -21.5 -99v-794
c0 -73.333 16.5 -136.833 49.5 -190.5s79.833 -94.167 140.5 -121.5s131.334 -41 212.001 -41c84.667 0 158.834 15.667 222.501 47s113.5 78.666 149.5 141.999s54 139.666 54 228.999v461c0 104 -7.66699 185.667 -23 245s-41 102.833 -77 130.5s-86.667 43.167 -152 46.5
v55h514v-55c-58.667 -8 -102.834 -28.667 -132.501 -62s-49.5 -77.166 -59.5 -131.499s-15 -121.5 -15 -201.5v-517c0 -71.333 -13.167 -136.166 -39.5 -194.499s-64.5 -108.333 -114.5 -150s-110.167 -73.167 -180.5 -94.5s-150.5 -32 -240.5 -32
c-214.667 0 -373.334 60.333 -476.001 181c-31.333 38.667 -53.166 79.334 -65.499 122.001s-18.5 94 -18.5 154zM372.999 423.999l-0.000976562 798.999c0 98.667 -47.333 143 -142 133c50.667 -20 76 -68 76 -144v-798c0 -114 33.333 -203.167 100 -267.5
s166.667 -111.166 300 -140.499c-51.333 22 -95 43.5 -131 64.5s-69.667 47.167 -101 78.5s-56.166 70 -74.499 116s-27.5 99 -27.5 159zM1442 1356h-205c61.333 -28 100.333 -80.667 117 -158c8 38 18.5 69.667 31.5 95s31.833 46.333 56.5 63zM1071 1573h-65l-365 309h305
zM984.998 1630l-94 197h-139z" />
    <glyph glyph-name="Uacute" unicode="&#xda;" horiz-adv-x="1665" 
d="M274 430l-0.000976562 761.999c0 50 -7.5 85.833 -22.5 107.5s-36.333 35.167 -64 40.5s-73.167 10.666 -136.5 15.999v55h678v-55c-53.333 -3.33301 -93.333 -8.16602 -120 -14.499s-47.167 -19.833 -61.5 -40.5s-21.5 -53.667 -21.5 -99v-794
c0 -73.333 16.5 -136.833 49.5 -190.5s79.833 -94.167 140.5 -121.5s131.334 -41 212.001 -41c84.667 0 158.834 15.667 222.501 47s113.5 78.666 149.5 141.999s54 139.666 54 228.999v461c0 104 -7.66699 185.667 -23 245s-41 102.833 -77 130.5s-86.667 43.167 -152 46.5
v55h514v-55c-58.667 -8 -102.834 -28.667 -132.501 -62s-49.5 -77.166 -59.5 -131.499s-15 -121.5 -15 -201.5v-517c0 -71.333 -13.167 -136.166 -39.5 -194.499s-64.5 -108.333 -114.5 -150s-110.167 -73.167 -180.5 -94.5s-150.5 -32 -240.5 -32
c-214.667 0 -373.334 60.333 -476.001 181c-31.333 38.667 -53.166 79.334 -65.499 122.001s-18.5 94 -18.5 154zM372.999 423.999l-0.000976562 798.999c0 98.667 -47.333 143 -142 133c50.667 -20 76 -68 76 -144v-798c0 -114 33.333 -203.167 100 -267.5
s166.667 -111.166 300 -140.499c-51.333 22 -95 43.5 -131 64.5s-69.667 47.167 -101 78.5s-56.166 70 -74.499 116s-27.5 99 -27.5 159zM1442 1356h-205c61.333 -28 100.333 -80.667 117 -158c8 38 18.5 69.667 31.5 95s31.833 46.333 56.5 63zM710.998 1567h-56l113 313
h295zM708.998 1622l184 203h-113z" />
    <glyph glyph-name="Ucircumflex" unicode="&#xdb;" horiz-adv-x="1665" 
d="M274 430l-0.000976562 761.999c0 50 -7.5 85.833 -22.5 107.5s-36.333 35.167 -64 40.5s-73.167 10.666 -136.5 15.999v55h678v-55c-53.333 -3.33301 -93.333 -8.16602 -120 -14.499s-47.167 -19.833 -61.5 -40.5s-21.5 -53.667 -21.5 -99v-794
c0 -73.333 16.5 -136.833 49.5 -190.5s79.833 -94.167 140.5 -121.5s131.334 -41 212.001 -41c84.667 0 158.834 15.667 222.501 47s113.5 78.666 149.5 141.999s54 139.666 54 228.999v461c0 104 -7.66699 185.667 -23 245s-41 102.833 -77 130.5s-86.667 43.167 -152 46.5
v55h514v-55c-58.667 -8 -102.834 -28.667 -132.501 -62s-49.5 -77.166 -59.5 -131.499s-15 -121.5 -15 -201.5v-517c0 -71.333 -13.167 -136.166 -39.5 -194.499s-64.5 -108.333 -114.5 -150s-110.167 -73.167 -180.5 -94.5s-150.5 -32 -240.5 -32
c-214.667 0 -373.334 60.333 -476.001 181c-31.333 38.667 -53.166 79.334 -65.499 122.001s-18.5 94 -18.5 154zM372.999 423.999l-0.000976562 798.999c0 98.667 -47.333 143 -142 133c50.667 -20 76 -68 76 -144v-798c0 -114 33.333 -203.167 100 -267.5
s166.667 -111.166 300 -140.499c-51.333 22 -95 43.5 -131 64.5s-69.667 47.167 -101 78.5s-56.166 70 -74.499 116s-27.5 99 -27.5 159zM1442 1356h-205c61.333 -28 100.333 -80.667 117 -158c8 38 18.5 69.667 31.5 95s31.833 46.333 56.5 63zM595.998 1581h-72l252 312
h174l230 -312h-113l-244 164zM1059 1624l-185 213h-100l-180 -221l229 168z" />
    <glyph glyph-name="Udieresis" unicode="&#xdc;" horiz-adv-x="1665" 
d="M274 430l-0.000976562 761.999c0 50 -7.5 85.833 -22.5 107.5s-36.333 35.167 -64 40.5s-73.167 10.666 -136.5 15.999v55h678v-55c-53.333 -3.33301 -93.333 -8.16602 -120 -14.499s-47.167 -19.833 -61.5 -40.5s-21.5 -53.667 -21.5 -99v-794
c0 -73.333 16.5 -136.833 49.5 -190.5s79.833 -94.167 140.5 -121.5s131.334 -41 212.001 -41c84.667 0 158.834 15.667 222.501 47s113.5 78.666 149.5 141.999s54 139.666 54 228.999v461c0 104 -7.66699 185.667 -23 245s-41 102.833 -77 130.5s-86.667 43.167 -152 46.5
v55h514v-55c-58.667 -8 -102.834 -28.667 -132.501 -62s-49.5 -77.166 -59.5 -131.499s-15 -121.5 -15 -201.5v-517c0 -71.333 -13.167 -136.166 -39.5 -194.499s-64.5 -108.333 -114.5 -150s-110.167 -73.167 -180.5 -94.5s-150.5 -32 -240.5 -32
c-214.667 0 -373.334 60.333 -476.001 181c-31.333 38.667 -53.166 79.334 -65.499 122.001s-18.5 94 -18.5 154zM372.999 423.999l-0.000976562 798.999c0 98.667 -47.333 143 -142 133c50.667 -20 76 -68 76 -144v-798c0 -114 33.333 -203.167 100 -267.5
s166.667 -111.166 300 -140.499c-51.333 22 -95 43.5 -131 64.5s-69.667 47.167 -101 78.5s-56.166 70 -74.499 116s-27.5 99 -27.5 159zM1442 1356h-205c61.333 -28 100.333 -80.667 117 -158c8 38 18.5 69.667 31.5 95s31.833 46.333 56.5 63zM755.998 1729
c0 -40.667 -13 -72.332 -39 -94.999s-55.333 -34 -88 -34c-36 0 -66.833 11.833 -92.5 35.5s-38.5 53.5 -38.5 89.5c0 37.333 12.833 68.166 38.5 92.499s56.5 36.5 92.5 36.5c35.333 0 65.333 -11.833 90 -35.5s37 -53.5 37 -89.5zM654.998 1628
c-20.667 14 -36.332 27.834 -46.999 41.501s-16 34.167 -16 61.5c0 14.667 4.66699 31.167 14 49.5s23 33.166 41 44.499c-36.667 0.666992 -65.334 -8.16602 -86.001 -26.499s-31 -42.833 -31 -73.5c0 -26.667 9.16699 -49.834 27.5 -69.501s40.833 -29.5 67.5 -29.5
c12 0 22 0.666992 30 2zM946 1725c0 37.333 13.168 68.167 39.501 92.5s56.833 36.5 91.5 36.5c36 0 66.167 -13 90.5 -39s36.5 -56 36.5 -90c0 -33.333 -11.833 -62.833 -35.5 -88.5s-54.834 -38.5 -93.501 -38.5c-36 0 -66.5 12.5 -91.5 37.5s-37.5 54.833 -37.5 89.5z
M1096 1628c-36 26 -53.998 58.998 -53.998 98.998c0 38.667 20.667 71.334 62 98.001c-2.66699 0.666992 -5.16699 1.16699 -7.5 1.5s-5.5 0.5 -9.5 0.5c-30.667 0 -56.334 -10 -77.001 -30s-31 -44 -31 -72c0 -28.667 9.66699 -52.167 29 -70.5
s48.666 -27.166 87.999 -26.499z" />
    <glyph glyph-name="Yacute" unicode="&#xdd;" horiz-adv-x="1493" 
d="M1020 1356v55h446v-55c-29.333 -4 -59.166 -16.833 -89.499 -38.5s-61.5 -53.167 -93.5 -94.5s-65 -91.333 -99 -150l-295 -506v-360c0 -64 15.667 -104 47 -120s86.666 -26.667 165.999 -32v-55h-674v55h18c58 0 101.167 7.5 129.5 22.5s46 34.167 53 57.5
s10.5 54 10.5 92v291l-426 715c-24.667 42.667 -48 74.334 -70 95.001s-60 30 -114 28v55h659v-55c-60 -1.33301 -106.333 -6.33301 -139 -15s-49 -31 -49 -67c0 -28 23.667 -81.333 71 -160l289 -481l193 325c35.333 59.333 61.5 110.166 78.5 152.499
s25.5 81.833 25.5 118.5c0 33.333 -11.833 62.833 -35.5 88.5s-54.167 38.5 -91.5 38.5h-10zM1190 1235l0.000976562 -23.001c16.667 36 33.167 63 49.5 81s38.166 39 65.499 63h-175c40 -25.333 60 -65.666 60 -120.999zM735.001 544.999l-415.999 700
c-26.667 46 -48.334 76 -65.001 90s-40 21 -70 21h-30c17.333 -7.33301 32 -19 44 -35s28 -41.333 48 -76l426 -715v-346c0 -38 -6.5 -65 -19.5 -81s-37.167 -32 -72.5 -48h43c42 0 71.167 10.333 87.5 31s24.5 52 24.5 94v365zM625.002 1567h-56l113 313h295zM623.002 1622
l184 203h-113z" />
    <glyph glyph-name="Thorn" unicode="&#xde;" horiz-adv-x="1409" 
d="M283 303l0.00292969 806.998c0 73.333 -3.16699 125.333 -9.5 156s-25.333 53.334 -57 68.001s-84.834 22 -159.501 22v55h727v-55c-20 -0.666992 -48.833 -2 -86.5 -4s-67.5 -6.66699 -89.5 -14s-40.167 -20.833 -54.5 -40.5s-21.5 -48.167 -21.5 -85.5v-120h213
c18.667 0 92 -5.66699 220 -17c49.333 -4 102.666 -21.833 159.999 -53.5s105.333 -74.667 144 -129s58 -116.166 58 -185.499c0 -70 -19.333 -132.167 -58 -186.5s-86.667 -97.333 -144 -129s-110.666 -49.5 -159.999 -53.5c-116 -10.667 -189.333 -16 -220 -16h-213v-115
c2 -48.667 15.333 -85.667 40 -111s69 -38.333 133 -39c39.333 0 65.666 -0.666992 78.999 -2v-55h-727v55h19c53.333 0 94.333 4.83301 123 14.5s48.667 23.667 60 42s18.166 39.833 20.499 64.5s3.5 67 3.5 127zM315.003 1108l-0.000976562 -929.999
c0 -34 -7 -59.833 -21 -77.5s-35 -32.834 -63 -45.501h37c74 0 111 35 111 105v915c0 96 -1.5 159.333 -4.5 190s-14.333 52.667 -34 66s-56.167 21.666 -109.5 24.999c29.333 -13.333 49.333 -26.666 60 -39.999s17.334 -33.333 20.001 -60s4 -76 4 -148zM532.002 798.999
v-421.998h140c84.667 0 155 10.167 211 30.5s99 54.666 129 102.999s45 113.166 45 194.499c0 122 -41 213.333 -123 274c-31.333 22.667 -64 37.834 -98 45.501s-75.667 11.5 -125 11.5c-56.667 0 -97.5 -8 -122.5 -24s-40.667 -39.833 -47 -71.5
s-9.5 -78.834 -9.5 -141.501zM907.002 387.001c83.333 13.333 145.167 44.998 185.5 94.998s60.5 122.667 60.5 218c0 99.333 -20 174 -60 224s-100 83.333 -180 100c38 -19.333 70.333 -44.666 97 -75.999s46.667 -68 60 -110s20 -88 20 -138
c0 -59.333 -7.16699 -109.166 -21.5 -149.499s-35.333 -73.5 -63 -99.5s-60.5 -47.333 -98.5 -64z" />
    <glyph glyph-name="germandbls" unicode="&#xdf;" horiz-adv-x="1130" 
d="M1077 416c0 -71.333 -14.999 -140.833 -44.999 -208.5s-71.833 -122.5 -125.5 -164.5s-114.834 -63 -183.501 -63c-45.333 0 -86.333 9.83301 -123 29.5s-65 45 -85 76s-30 63.167 -30 96.5c0 37.333 10.5 69.5 31.5 96.5s48.167 40.5 81.5 40.5
c27.333 0 51.166 -10.167 71.499 -30.5s30.5 -44.833 30.5 -73.5c0 -16.667 -2.33301 -29.167 -7 -37.5s-13 -19.166 -25 -32.499c-11.333 -11.333 -19.333 -21 -24 -29s-7 -18.667 -7 -32c0 -16 7 -28.167 21 -36.5s28.667 -12.5 44 -12.5c28.667 0 55.167 11 79.5 33
s43.5 52 57.5 90s21 81 21 129c0 64 -12.167 122.167 -36.5 174.5s-60.666 96.333 -108.999 132s-106.833 60.5 -175.5 74.5v90c43.333 37.333 79.5 76.333 108.5 117s50.5 82 64.5 124s21 85 21 129c0 70.667 -18.5 130.667 -55.5 180s-83.167 74 -138.5 74
c-47.333 0 -85.166 -17 -113.499 -51s-42.5 -83 -42.5 -147v-998c0 -32 2 -56.333 6 -73s11.833 -29.5 23.5 -38.5s29.167 -15.5 52.5 -19.5v-55h-397v55c36.667 0 59.834 10.667 69.501 32s14.5 63.333 14.5 126v803c0 136 38.167 240.333 114.5 313s180.833 109 313.5 109
c54.667 0 106.167 -7.66699 154.5 -23s90.166 -36.666 125.499 -63.999s63 -60.333 83 -99s30 -80 30 -124c0 -48.667 -12.833 -94.5 -38.5 -137.5s-60.834 -79.833 -105.501 -110.5s-95.667 -53 -153 -67c132 -14.667 231.833 -57.334 299.5 -128.001
s101.5 -160.334 101.5 -269.001zM629.001 1393c91.333 -69.333 137 -155.333 137 -258c0 -104 -32 -197.667 -96 -281c52 29.333 90.833 68.333 116.5 117s38.5 99.667 38.5 153c0 66 -16.167 121.667 -48.5 167s-81.5 79.333 -147.5 102zM811.001 51
c94 54 141 142.665 141 265.998c0 66 -14.167 127.833 -42.5 185.5s-67 103.334 -116 137.001s-101.167 50.5 -156.5 50.5c-7.33301 0 -24.333 -1.33301 -51 -4c100.667 -27.333 177 -75.666 229 -144.999s78 -155.333 78 -258c0 -53.333 -7 -97.5 -21 -132.5
s-34.333 -68.167 -61 -99.5zM645.001 265.998c-16 12.667 -31.667 19 -47 19c-24 0 -43.333 -10.333 -58 -31s-22 -42.667 -22 -66c0 -18 5 -38.833 15 -62.5s25.667 -47.167 47 -70.5c-7.33301 30.667 -11 58 -11 82c0 38.667 6.66699 67.167 20 85.5s32 32.833 56 43.5z
M252.001 212.998l0.000976562 829c0 74 11.667 138.833 35 194.5s60 104.167 110 145.5c-76.667 -34.667 -131.334 -82.334 -164.001 -143.001s-49 -145.334 -49 -254.001v-811c0 -37.333 -3.5 -64.666 -10.5 -81.999s-20.5 -29.666 -40.5 -36.999
c36 4.66699 61.833 10.667 77.5 18s26.5 21 32.5 41s9 53 9 99z" />
    <glyph glyph-name="agrave" unicode="&#xe0;" horiz-adv-x="918" 
d="M291 774c0 -2.66699 4.33496 -12.3281 13.002 -28.9951s13 -32.334 13 -47.001c0 -28.667 -11.833 -54.167 -35.5 -76.5s-53.167 -33.5 -88.5 -33.5c-34 0 -61 8.83301 -81 26.5s-30 38.167 -30 61.5c0 34.667 16.833 68.667 50.5 102s80 60.5 139 81.5
s124.167 31.5 195.5 31.5c52 0 100.5 -9 145.5 -27s80.833 -45.333 107.5 -82s40 -81 40 -133v-508c0 -40.667 11.667 -61 35 -61c14 0 31 11 51 33l37 -43c-32.667 -32.667 -62.834 -57.334 -90.501 -74.001s-60.5 -25 -98.5 -25c-44 0 -78.333 9.83301 -103 29.5
s-42 50.167 -52 91.5c-92 -79.333 -183 -119 -273 -119c-64 0 -114.833 16.667 -152.5 50s-56.5 75.666 -56.5 126.999c0 46 11.5 85.167 34.5 117.5s53.333 61 91 86s93.167 56.667 166.5 95s133.666 71.166 180.999 98.499v151c0 45.333 -10.333 79.666 -31 102.999
s-51.667 35 -93 35c-36 0 -64.167 -6.5 -84.5 -19.5s-30.5 -27.167 -30.5 -42.5zM563.002 633.006l-0.000976562 -394.999c0 -78 8.33301 -136.167 25 -174.5s49.334 -57.5 98.001 -57.5c22 0 39.667 2.66699 53 8c-40 6 -68.333 22 -85 48s-25 66.667 -25 122v459
c0 69.333 -9.83301 117.166 -29.5 143.499s-53.5 42.166 -101.5 47.499c26 -13.333 43.333 -32.666 52 -57.999s13 -73 13 -143zM530.001 158.007v321.001c-85.333 -48 -144.833 -91.333 -178.5 -130s-50.5 -85.334 -50.5 -140.001c0 -36.667 10 -65 30 -85
s43.333 -30 70 -30c42 0 85 21.333 129 64zM354.001 20.0078c-60.667 0 -109.167 12.334 -145.5 37.001s-54.5 60.334 -54.5 107.001c0 34 8.83301 66.167 26.5 96.5s44.167 64.166 79.5 101.499c-54 -31.333 -95.833 -63.333 -125.5 -96s-44.5 -71.334 -44.5 -116.001
c0 -40.667 17.833 -74.5 53.5 -101.5s74.5 -40.5 116.5 -40.5c40.667 0 72 4 94 12zM260.001 651.009c-24 -2 -42.335 2.66797 -55.002 14.001s-19 24.666 -19 39.999c0 20.667 5.66699 39.167 17 55.5s31 39.833 59 70.5c-47.333 -24 -83.666 -48 -108.999 -72
s-38 -51 -38 -81c0 -13.333 6.83301 -25.833 20.5 -37.5s29.834 -17.5 48.501 -17.5c32 0 57.333 9.33301 76 28zM675.999 1026.01h-65l-365 309h305zM589.999 1083.01l-94 197h-139z" />
    <glyph glyph-name="aacute" unicode="&#xe1;" horiz-adv-x="918" 
d="M291 774c0 -2.66699 4.33496 -12.3281 13.002 -28.9951s13 -32.334 13 -47.001c0 -28.667 -11.833 -54.167 -35.5 -76.5s-53.167 -33.5 -88.5 -33.5c-34 0 -61 8.83301 -81 26.5s-30 38.167 -30 61.5c0 34.667 16.833 68.667 50.5 102s80 60.5 139 81.5
s124.167 31.5 195.5 31.5c52 0 100.5 -9 145.5 -27s80.833 -45.333 107.5 -82s40 -81 40 -133v-508c0 -40.667 11.667 -61 35 -61c14 0 31 11 51 33l37 -43c-32.667 -32.667 -62.834 -57.334 -90.501 -74.001s-60.5 -25 -98.5 -25c-44 0 -78.333 9.83301 -103 29.5
s-42 50.167 -52 91.5c-92 -79.333 -183 -119 -273 -119c-64 0 -114.833 16.667 -152.5 50s-56.5 75.666 -56.5 126.999c0 46 11.5 85.167 34.5 117.5s53.333 61 91 86s93.167 56.667 166.5 95s133.666 71.166 180.999 98.499v151c0 45.333 -10.333 79.666 -31 102.999
s-51.667 35 -93 35c-36 0 -64.167 -6.5 -84.5 -19.5s-30.5 -27.167 -30.5 -42.5zM563.002 633.006l-0.000976562 -394.999c0 -78 8.33301 -136.167 25 -174.5s49.334 -57.5 98.001 -57.5c22 0 39.667 2.66699 53 8c-40 6 -68.333 22 -85 48s-25 66.667 -25 122v459
c0 69.333 -9.83301 117.166 -29.5 143.499s-53.5 42.166 -101.5 47.499c26 -13.333 43.333 -32.666 52 -57.999s13 -73 13 -143zM530.001 158.007v321.001c-85.333 -48 -144.833 -91.333 -178.5 -130s-50.5 -85.334 -50.5 -140.001c0 -36.667 10 -65 30 -85
s43.333 -30 70 -30c42 0 85 21.333 129 64zM354.001 20.0078c-60.667 0 -109.167 12.334 -145.5 37.001s-54.5 60.334 -54.5 107.001c0 34 8.83301 66.167 26.5 96.5s44.167 64.166 79.5 101.499c-54 -31.333 -95.833 -63.333 -125.5 -96s-44.5 -71.334 -44.5 -116.001
c0 -40.667 17.833 -74.5 53.5 -101.5s74.5 -40.5 116.5 -40.5c40.667 0 72 4 94 12zM260.001 651.009c-24 -2 -42.335 2.66797 -55.002 14.001s-19 24.666 -19 39.999c0 20.667 5.66699 39.167 17 55.5s31 39.833 59 70.5c-47.333 -24 -83.666 -48 -108.999 -72
s-38 -51 -38 -81c0 -13.333 6.83301 -25.833 20.5 -37.5s29.834 -17.5 48.501 -17.5c32 0 57.333 9.33301 76 28zM315.999 1020.01h-56l113 313h295zM313.999 1075.01l184 203h-113z" />
    </font>
</defs>
</svg>
