<?xml version="1.0" standalone="no"?>
<!DOCTYPE svg PUBLIC "-//W3C//DTD SVG 1.1//EN" "http://www.w3.org/Graphics/SVG/1.1/DTD/svg11.dtd" >
<svg xmlns="http://www.w3.org/2000/svg">
<metadata></metadata>
<defs>
<font id="novecento_widemedium" horiz-adv-x="1654" >
<font-face units-per-em="2048" ascent="1741" descent="-307" />
<missing-glyph horiz-adv-x="512" />
<glyph horiz-adv-x="2048" />
<glyph horiz-adv-x="2048" />
<glyph unicode="&#xd;" horiz-adv-x="2048" />
<glyph unicode=" "  horiz-adv-x="512" />
<glyph unicode="&#x09;" horiz-adv-x="512" />
<glyph unicode="&#xa0;" horiz-adv-x="512" />
<glyph unicode="!" horiz-adv-x="587" d="M180 0v322h228v-322h-228zM180 459v975h228v-975h-228z" />
<glyph unicode="&#x22;" horiz-adv-x="1007" d="M180 989v445h215v-445h-215zM610 989v445h215v-445h-215z" />
<glyph unicode="#" horiz-adv-x="1808" d="M59 336l103 194h213l196 383h-219l103 195h217l166 326h217l-162 -326h393l166 326h217l-162 -326h242l-100 -195h-240l-190 -383h235l-100 -194h-234l-168 -336h-233l172 336h-385l-168 -336h-234l172 336h-217zM604 530h385l197 383h-391z" />
<glyph unicode="$" horiz-adv-x="1232" d="M61 397l218 60q22 -120 116 -201.5t242 -81.5q133 0 211 61t78 156q0 37 -11.5 67.5t-38 55t-52.5 42t-71 35t-77 28t-88 28t-86 27.5q-48 16 -76 26.5t-75 31.5t-76.5 40t-65 49.5t-55.5 63.5t-34 78.5t-14 97.5q0 147 113 256t293 137v164h223v-166q157 -31 266.5 -131 t143.5 -246l-217 -59q-24 117 -113.5 183.5t-208.5 66.5q-120 0 -194 -53.5t-74 -139.5q0 -94 124 -155q56 -27 226 -80l14 -4q52 -17 91 -31t89.5 -37t87.5 -46.5t75.5 -57.5t62.5 -71.5t39.5 -86.5t15.5 -105q0 -164 -116.5 -279t-311.5 -143v-161h-223v164 q-177 30 -293.5 140.5t-157.5 276.5z" />
<glyph unicode="%" horiz-adv-x="1818" d="M25 1034q0 178 102 297t266 119q163 0 265 -119t102 -297t-102 -295.5t-265 -117.5q-165 0 -266.5 117.5t-101.5 295.5zM182 1034q0 -108 58.5 -183t152.5 -75t151.5 75t57.5 183q0 109 -57.5 184.5t-151.5 75.5t-152.5 -75.5t-58.5 -184.5zM336 0l993 1434h156 l-996 -1434h-153zM1057 397q0 178 102 297t266 119q163 0 265 -119t102 -297t-102 -295.5t-265 -117.5q-165 0 -266.5 117.5t-101.5 295.5zM1214 397q0 -108 58.5 -183t152.5 -75t151.5 75t57.5 183q0 109 -57.5 184.5t-151.5 75.5t-152.5 -75.5t-58.5 -184.5z" />
<glyph unicode="&#x26;" horiz-adv-x="1452" d="M84 410q0 134 86.5 223.5t212.5 107.5v2q-47 5 -93 27.5t-87 59t-66.5 95t-25.5 128.5q0 80 29.5 151.5t87 130t152.5 93t216 34.5q199 0 335 -107t177 -300l-195 -54q-36 137 -109.5 203t-201.5 66q-72 0 -125.5 -22.5t-80 -59t-38.5 -71.5t-12 -70q0 -95 72.5 -156.5 t208.5 -61.5h800v-180h-262v-151q0 -93 -19 -171.5t-61 -145t-105.5 -112.5t-156 -72t-209.5 -26q-238 0 -384 121t-146 318zM305 414q0 -108 87 -177t222 -69q179 0 258.5 83.5t79.5 254.5v143h-338q-144 0 -226.5 -60.5t-82.5 -174.5z" />
<glyph unicode="'" horiz-adv-x="577" d="M180 989v445h215v-445h-215z" />
<glyph unicode="(" horiz-adv-x="759" d="M84 709q0 142 18 265.5t48.5 217t75 172t92.5 133.5t105.5 99t109.5 71t110 47l62 -213q-206 -69 -300 -260t-94 -532q0 -340 94.5 -532t299.5 -259l-62 -213q-58 20 -110 47t-109.5 71t-105.5 99t-92.5 133.5t-75 172t-48.5 216.5t-18 265z" />
<glyph unicode=")" horiz-adv-x="761" d="M59 -82l62 -213q58 20 110 47t109.5 71t105.5 99t92.5 133.5t75 172t48.5 216.5t18 265t-18 265.5t-48.5 217t-75 172t-92.5 133.5t-105.5 99t-109.5 71t-110 47l-62 -213q206 -69 300 -260t94 -532q0 -340 -94.5 -532t-299.5 -259z" />
<glyph unicode="*" horiz-adv-x="1060" d="M180 1122l45 142l230 -76v246h147v-246l232 76l47 -142l-236 -69l148 -199l-119 -88l-144 207l-143 -207l-119 86l148 201z" />
<glyph unicode="+" horiz-adv-x="1429" d="M246 633v188h368v373h201v-373h371v-188h-369v-377h-201v377h-370z" />
<glyph unicode="," horiz-adv-x="487" d="M92 -270q49 40 89 113t40 130l25 9l-25 2q-38 3 -68 33t-30 79q0 52 35.5 86.5t87.5 34.5t86.5 -39.5t34.5 -101.5q0 -90 -52.5 -184t-130.5 -162h-92z" />
<glyph unicode="-" horiz-adv-x="1302" d="M180 633v188h942v-188h-942z" />
<glyph unicode="." horiz-adv-x="487" d="M123 96q0 50 35 84.5t86 34.5t86 -34.5t35 -84.5q0 -52 -35 -87.5t-86 -35.5t-86 36t-35 87z" />
<glyph unicode="/" horiz-adv-x="999" d="M25 0l733 1434h217l-717 -1434h-233z" />
<glyph unicode="0" horiz-adv-x="1468" d="M84 717q0 152 44.5 286.5t125.5 237t205 162t274 59.5t275 -59.5t206.5 -162t126.5 -237t45 -286.5t-45 -287t-126.5 -237t-206.5 -162t-275 -60t-274 60t-205 162t-125.5 237t-44.5 287zM317 717q0 -87 16 -164t49.5 -143t82 -113.5t117 -74.5t151.5 -27q137 0 233 72 t140.5 187.5t44.5 262.5t-44.5 262.5t-140.5 187.5t-233 72q-83 0 -151.5 -27t-117 -74.5t-82 -113.5t-49.5 -143t-16 -164z" />
<glyph unicode="1" horiz-adv-x="882" d="M84 975l459 459h159v-1434h-227v879q0 43 2 100.5t3.5 91t0.5 33.5h-2q-1 0 -18.5 -20.5t-45.5 -51.5t-48 -51l-144 -141z" />
<glyph unicode="2" horiz-adv-x="1202" d="M96 1075q54 184 193 285.5t338 101.5q219 0 357 -128.5t138 -325.5q0 -78 -23 -148.5t-50 -117.5t-84.5 -103t-89.5 -81.5t-101 -76.5l-24 -18l-342 -256l2 -2l8 1q7 0 20.5 0.5t32 1.5t44 2t53.5 1.5t64 1t73 0.5h417v-213h-1013v184q105 90 314.5 269.5t315.5 269.5 q156 132 156 283q0 110 -77 183t-197 73q-124 0 -203 -67t-111 -175z" />
<glyph unicode="3" horiz-adv-x="1234" d="M84 377l205 55q23 -117 114 -187.5t222 -70.5q134 0 212 71.5t78 184.5q0 104 -81 161.5t-218 57.5h-124v180h124q135 0 207 57t72 163q0 86 -69 149.5t-205 63.5q-122 0 -197 -61.5t-111 -182.5l-202 53q43 181 182 286t340 105q122 0 218.5 -33t155.5 -89t90 -127 t31 -150q0 -92 -46 -165.5t-113 -111.5t-140 -41v-2q84 -2 156 -39t119 -112t47 -174q0 -198 -145.5 -322.5t-372.5 -124.5q-203 0 -357.5 113.5t-191.5 292.5z" />
<glyph unicode="4" horiz-adv-x="1306" d="M84 326v168l782 940h183v-910h180v-198h-180v-326h-215v326h-750zM344 522q3 0 39 0.5t86.5 1t89.5 0.5h275v279q0 32 0.5 67t1 65t1 59t1 51.5t1 39.5t1.5 27v10h-2q-1 0 -22 -28.5t-58.5 -77t-69.5 -86.5l-235 -279q-35 -42 -63.5 -74.5t-37 -42t-8.5 -10.5v-2z" />
<glyph unicode="5" horiz-adv-x="1224" d="M96 356l209 56q25 -107 106.5 -175.5t211.5 -68.5q128 0 211.5 84.5t83.5 212.5t-84 211.5t-211 83.5q-214 0 -275 -154l-196 56l127 772h782v-213h-615l-28 -152q-13 -67 -24.5 -122.5t-17.5 -78.5l-5 -22l2 -2q32 35 101 64.5t157 29.5q221 0 368.5 -134.5 t147.5 -340.5q0 -212 -146.5 -352t-369.5 -140q-209 0 -353 109.5t-182 275.5z" />
<glyph unicode="6" horiz-adv-x="1222" d="M84 471q0 142 52.5 260.5t166.5 269.5l328 433h246l-431 -572l3 -2q79 94 225 94q148 0 262 -67t173.5 -179t59.5 -249q0 -213 -154 -350.5t-390 -137.5q-151 0 -274 61.5t-195 176.5t-72 262zM311 471q0 -134 90 -216.5t232 -82.5t230.5 83.5t88.5 215.5 q2 132 -86 213.5t-233 81.5q-144 0 -233 -82t-89 -213z" />
<glyph unicode="7" horiz-adv-x="1150" d="M68 1221v213h1046v-136l-729 -1298h-242l545 965q33 57 73.5 121.5t64.5 100.5l24 36l-2 2l-14 -1q-13 0 -34.5 -0.5t-46.5 -1t-53.5 -1t-50.5 -0.5h-581z" />
<glyph unicode="8" horiz-adv-x="1245" d="M84 399q0 75 28 141t75 111t103.5 73.5t117.5 37.5v2q-33 4 -75.5 27t-85 61t-71.5 99t-29 130q0 162 134.5 271.5t341.5 109.5q208 0 341.5 -109.5t133.5 -271.5q0 -69 -28.5 -130t-71 -99t-84 -61t-74.5 -27v-2q60 -10 116.5 -39t103 -74t75 -110t28.5 -140 q0 -186 -151.5 -307.5t-388.5 -122.5q-237 1 -388 122t-151 308zM299 406q0 -115 88.5 -184.5t235.5 -69.5q148 0 235.5 69.5t87.5 184.5q0 113 -88 180t-235 67q-148 0 -236 -68t-88 -179zM342 1073q0 -95 79.5 -154t201.5 -59q124 0 202 60t78 153q0 98 -78.5 159.5 t-201.5 61.5q-124 0 -202.5 -62t-78.5 -159z" />
<glyph unicode="9" horiz-adv-x="1230" d="M53 969q0 222 155 357.5t394 135.5q153 0 275.5 -57t196 -172.5t73.5 -271.5q0 -135 -61.5 -273.5t-204.5 -306.5l-328 -381h-258l491 569l-2 2q-80 -92 -227 -92q-119 0 -215.5 38.5t-159 105.5t-96 155.5t-33.5 190.5zM272 958q0 -139 93.5 -215.5t230.5 -76.5 q141 0 232.5 79t91.5 213q0 147 -91.5 225.5t-232.5 78.5q-139 0 -231.5 -80.5t-92.5 -223.5z" />
<glyph unicode=":" horiz-adv-x="487" d="M123 96q0 50 35 84.5t86 34.5t86 -34.5t35 -84.5q0 -52 -35 -87.5t-86 -35.5t-86 36t-35 87zM123 717q0 50 35 84.5t86 34.5t86 -34.5t35 -84.5q0 -52 -35 -87.5t-86 -35.5t-86 36t-35 87z" />
<glyph unicode=";" horiz-adv-x="520" d="M123 -274q49 40 89 113t40 130l24 8l-24 3q-38 3 -68 33t-30 79q0 52 35.5 86.5t86.5 34.5q52 0 86.5 -39.5t34.5 -101.5q0 -90 -52.5 -184t-129.5 -162h-92zM152 717q0 50 34.5 84.5t85.5 34.5t86 -34.5t35 -84.5q0 -52 -35 -87.5t-86 -35.5t-85.5 36t-34.5 87z" />
<glyph unicode="&#x3c;" horiz-adv-x="1429" d="M233 752l666 -502h277l-650 502l650 499h-277z" />
<glyph unicode="=" horiz-adv-x="1429" d="M246 412v188h940v-188h-940zM246 831v189h940v-189h-940z" />
<glyph unicode="&#x3e;" horiz-adv-x="1429" d="M254 250l649 502l-649 499h276l666 -499l-666 -502h-276z" />
<glyph unicode="?" horiz-adv-x="1185" d="M84 1071q43 183 182.5 287t341.5 104q123 0 219.5 -33t155 -90t89 -129.5t30.5 -154.5q0 -52 -13 -99t-32.5 -83.5t-53.5 -71.5t-65.5 -60t-78.5 -53t-82.5 -45.5t-88.5 -42.5v-141h-227v225q235 118 320 189.5t85 166.5q0 39 -13 75t-41.5 70.5t-83 55.5t-128.5 21 q-134 0 -212 -60.5t-114 -183.5zM461 0v322h227v-322h-227z" />
<glyph unicode="@" horiz-adv-x="1634" d="M84 715q0 159 55 297.5t151 237.5t232 155.5t293 56.5q210 0 378 -96.5t262.5 -267.5t94.5 -383q0 -64 -11.5 -123.5t-36 -113.5t-60 -94.5t-88 -64.5t-115.5 -24q-81 0 -142 49t-71 129l-2 2q-27 -70 -103 -122t-161 -52q-161 0 -263 111t-102 288q0 187 103.5 302.5 t273.5 115.5q51 0 96 -15.5t72 -37.5t42.5 -40.5t18.5 -29.5h3v86h149v-530q0 -65 27 -103t77 -38q52 0 88 44t51 110.5t15 150.5q0 268 -169 443t-427 175q-169 0 -305 -79.5t-212.5 -220.5t-76.5 -318q0 -174 76.5 -316.5t213 -224.5t304.5 -82q80 0 147.5 12t108 29 t69 34.5t43.5 29.5t17 12l105 -55q-2 -6 -19 -24.5t-58 -46t-94.5 -52t-138 -42.5t-180.5 -18q-208 0 -376 97.5t-261.5 267.5t-93.5 379zM567 705q0 -114 66 -178t158 -64q86 0 149 61.5t64 173.5v64q1 102 -62.5 151.5t-150.5 49.5q-95 0 -160 -69t-64 -189z" />
<glyph unicode="A" horiz-adv-x="1472" d="M25 0l606 1434h211l606 -1434h-244l-133 326h-670l-133 -326h-243zM483 524h506l-184 449q-13 33 -30 80.5t-27 76.5t-11 29h-2q-1 0 -10.5 -29t-26.5 -76.5t-30 -80.5z" />
<glyph unicode="B" horiz-adv-x="1333" d="M180 0v1434h565q187 0 304.5 -102t117.5 -259q0 -102 -67 -185.5t-150 -105.5v-2q70 -12 139 -59.5t116.5 -127t47.5 -167.5q0 -191 -127 -308.5t-358 -117.5h-588zM408 193h340q120 0 195 65.5t75 173.5q0 106 -80 174t-197 68h-333v-481zM408 850h292q105 0 172.5 57 t67.5 140q0 87 -66 140.5t-174 53.5h-292v-391z" />
<glyph unicode="C" horiz-adv-x="1552" d="M84 717q0 159 58.5 298t158 237t236.5 154t290 56q208 0 381 -102t271 -275l-232 -61q-64 99 -177.5 157t-242.5 58q-224 0 -367 -145.5t-143 -376.5q0 -153 67 -272.5t183 -183.5t260 -64q143 0 264 69.5t183 184.5l227 -62q-92 -192 -272 -305t-402 -113 q-204 0 -374 95.5t-269.5 267t-99.5 383.5z" />
<glyph unicode="D" horiz-adv-x="1617" d="M180 0v1434h611q153 0 289 -53t236.5 -146.5t159 -229.5t58.5 -294q0 -156 -58 -290t-157 -225.5t-233.5 -143.5t-284.5 -52h-621zM408 213h393q100 0 190 34.5t158.5 97t108.5 158t40 208.5q0 115 -40.5 211.5t-109.5 161.5t-161.5 101t-195.5 36h-383v-1008z" />
<glyph unicode="E" horiz-adv-x="1310" d="M180 0v1434h985v-213h-757v-373h604v-201h-604v-434h770v-213h-998z" />
<glyph unicode="F" horiz-adv-x="1216" d="M180 0v1434h965v-213h-737v-416h583v-205h-583v-600h-228z" />
<glyph unicode="G" horiz-adv-x="1626" d="M84 717q0 159 58.5 298t158 237t236.5 154t290 56q213 -3 384 -104t268 -273l-232 -61q-64 99 -177.5 157t-242.5 58q-224 0 -367 -145.5t-143 -376.5q0 -154 68.5 -274.5t187 -185t265.5 -64.5q94 0 176.5 24.5t139.5 65t96 85t59 91.5v121h-418v186h612v-768h-196v55 t0.5 43.5t0.5 32.5v24t0.5 15t0.5 9v3h-2q-66 -79 -194.5 -144t-285.5 -65q-204 0 -374 95.5t-269.5 267t-99.5 383.5z" />
<glyph unicode="H" horiz-adv-x="1515" d="M180 0v1434h228v-594h700v594h227v-1434h-227v629h-700v-629h-228z" />
<glyph unicode="I" horiz-adv-x="587" d="M180 0v1434h228v-1434h-228z" />
<glyph unicode="J" horiz-adv-x="1357" d="M25 340l225 59q40 -101 133 -159t215 -58q186 0 286.5 110.5t100.5 305.5v836h227v-826q0 -300 -164 -468.5t-450 -168.5q-201 0 -356.5 102.5t-216.5 266.5z" />
<glyph unicode="K" horiz-adv-x="1441" d="M180 0v1434h228v-334q0 -100 -1.5 -185t-3 -116t-0.5 -31h3q1 0 29 29t85 87.5t109 110.5l440 439h277l-594 -594l624 -840h-266l-508 690l-194 -196v-494h-228z" />
<glyph unicode="L" horiz-adv-x="1185" d="M180 0v1434h228v-1221h737v-213h-965z" />
<glyph unicode="M" horiz-adv-x="1720" d="M180 0v1434h213l326 -549q52 -86 87.5 -148.5t44.5 -80.5l9 -17h2l9 17q9 18 44 80.5t86 148.5l326 549h213v-1434h-223v547q0 113 3 241q4 129 6 197q2 49 1 62v6h-2q-5 0 -127 -217l-278 -482h-119l-279 482q-122 217 -125 217h-2v-8q0 -15 1 -60q2 -68 4.5 -196.5 t2.5 -241.5v-547h-223z" />
<glyph unicode="N" horiz-adv-x="1572" d="M180 0v1434h213l527 -707q42 -57 106 -145.5t102 -141.5t39 -53h2q1 0 0 58t-2.5 170t-1.5 208v611h228v-1434h-213l-523 705q-55 75 -118.5 165t-97.5 138.5t-35 48.5h-3q-1 0 0.5 -54.5t3 -169.5t1.5 -225v-608h-228z" />
<glyph unicode="O" d="M84 717q0 159 58.5 298t158 237t236.5 154t290 56q204 0 374.5 -95t271 -266.5t100.5 -383.5q0 -159 -59 -298.5t-159.5 -237t-237.5 -154t-290 -56.5q-204 0 -374 95.5t-269.5 267t-99.5 383.5zM317 717q0 -231 144 -376.5t366 -145.5q221 0 365.5 146t144.5 376 q0 232 -144 377t-366 145q-223 0 -366.5 -144.5t-143.5 -377.5z" />
<glyph unicode="P" horiz-adv-x="1261" d="M180 0v1434h475q255 0 400 -124.5t145 -344.5t-145 -344.5t-400 -124.5h-247v-496h-228zM408 709h243q150 0 232 67.5t82 188.5q0 123 -83 189.5t-231 66.5h-243v-512z" />
<glyph unicode="Q" d="M84 717q0 159 58.5 298t158 237t236.5 154t290 56q204 0 374.5 -95t271 -266.5t100.5 -383.5q0 -144 -49 -273.5t-134 -224.5t-202 -158t-250 -81v-250h-227v250q-133 20 -248 83t-199 158t-132 223.5t-48 272.5zM317 717q0 -231 144 -376.5t366 -145.5q221 0 365.5 146 t144.5 376q0 232 -144 377t-366 145q-223 0 -366.5 -144.5t-143.5 -377.5z" />
<glyph unicode="R" horiz-adv-x="1333" d="M180 0v1434h469q256 0 403.5 -125.5t147.5 -339.5q0 -150 -74.5 -256.5t-212.5 -157.5l340 -555h-256l-303 514q-14 -2 -45 -2h-241v-512h-228zM408 713h268q140 0 214.5 72t74.5 184q0 113 -76.5 182.5t-212.5 69.5h-268v-508z" />
<glyph unicode="S" horiz-adv-x="1232" d="M61 397l218 60q22 -120 116 -201.5t242 -81.5q133 0 211 61t78 156q0 37 -11.5 67.5t-38 55t-52.5 42t-71 35t-77 28t-88 28t-86 27.5q-48 16 -76 26.5t-75 31.5t-76.5 40t-65 49.5t-55.5 63.5t-34 78.5t-14 97.5q0 169 145.5 285t364.5 116q198 0 343.5 -107t185.5 -280 l-217 -59q-24 117 -113.5 183.5t-208.5 66.5q-120 0 -194 -53.5t-74 -139.5q0 -94 124 -155q56 -27 226 -80l14 -4q52 -17 91 -31t89.5 -37t87.5 -46.5t75.5 -57.5t62.5 -71.5t39 -86.5t16 -105q0 -187 -148 -307.5t-386 -120.5q-223 0 -372 116.5t-196 309.5z" />
<glyph unicode="T" horiz-adv-x="1228" d="M37 1221v213h1153v-213h-465v-1221h-225v1221h-463z" />
<glyph unicode="U" horiz-adv-x="1497" d="M145 608v826h228v-824q0 -428 375 -428q378 0 378 428v824h226v-826q0 -308 -159 -472.5t-445 -164.5t-444.5 164.5t-158.5 472.5z" />
<glyph unicode="V" horiz-adv-x="1470" d="M25 1434h247l381 -949q19 -51 40 -110.5t31 -90t11 -30.5h2q1 0 11 30.5t30.5 89.5t40.5 111l381 949h246l-592 -1434h-238z" />
<glyph unicode="W" horiz-adv-x="2056" d="M49 1434h240l272 -871q17 -54 32.5 -110t22 -81.5t7.5 -25.5h2q1 0 7 26t22 80.5t36 110.5l236 697h204l236 -697q20 -55 36 -110t22.5 -81t7.5 -26h2q1 0 7.5 25.5t21 81.5t30.5 110l274 871h240l-469 -1434h-207l-229 723q-25 80 -43 147.5t-24 93t-7 25.5h-2l-6 -26 q-7 -26 -25 -93.5t-43 -146.5l-229 -723h-207z" />
<glyph unicode="X" horiz-adv-x="1382" d="M29 0l526 739l-492 695h275l266 -379q10 -14 31.5 -49t37.5 -61.5t17 -26.5h2q1 0 17 26.5t37.5 61.5t31.5 49l266 379h275l-490 -695l525 -739h-273l-290 397q-13 19 -38 58t-42.5 68.5t-18.5 29.5h-2q-1 0 -18.5 -29.5t-42 -68.5t-37.5 -58l-291 -397h-272z" />
<glyph unicode="Y" horiz-adv-x="1388" d="M29 1434h256l325 -441q14 -19 37 -49.5t34.5 -45.5t12.5 -15h2q2 0 82 110l326 441h256l-553 -754v-680h-225v680z" />
<glyph unicode="Z" horiz-adv-x="1427" d="M123 0v211l780 899q20 22 49.5 50.5t48.5 46t19 18.5l-2 2l-12 -1q-11 0 -30.5 -1t-43.5 -2t-54.5 -1.5t-58.5 -0.5h-676v213h1162v-211l-762 -891q-26 -29 -56 -60t-45.5 -46.5t-15.5 -16.5l2 -2l10 1q11 0 29.5 1t42 2t55 1.5t62.5 0.5h678v-213h-1182z" />
<glyph unicode="[" horiz-adv-x="729" d="M180 -309v2062h504v-213h-274v-1638h274v-211h-504z" />
<glyph unicode="\" horiz-adv-x="999" d="M25 1434l716 -1434h234l-733 1434h-217z" />
<glyph unicode="]" horiz-adv-x="743" d="M59 -98v-211h504v2062h-504v-213h275v-1638h-275z" />
<glyph unicode="^" horiz-adv-x="1318" d="M180 977l479 481l480 -481l-105 -94l-375 383l-374 -383z" />
<glyph unicode="_" horiz-adv-x="1574" d="M180 0h1215v-178h-1215v178z" />
<glyph unicode="`" horiz-adv-x="638" d="M33 1716l80 156l454 -244l-67 -125z" />
<glyph unicode="a" horiz-adv-x="1472" d="M25 0l606 1434h211l606 -1434h-244l-133 326h-670l-133 -326h-243zM483 524h506l-184 449q-13 33 -30 80.5t-27 76.5t-11 29h-2q-1 0 -10.5 -29t-26.5 -76.5t-30 -80.5z" />
<glyph unicode="b" horiz-adv-x="1333" d="M180 0v1434h565q187 0 304.5 -102t117.5 -259q0 -102 -67 -185.5t-150 -105.5v-2q70 -12 139 -59.5t116.5 -127t47.5 -167.5q0 -191 -127 -308.5t-358 -117.5h-588zM408 193h340q120 0 195 65.5t75 173.5q0 106 -80 174t-197 68h-333v-481zM408 850h292q105 0 172.5 57 t67.5 140q0 87 -66 140.5t-174 53.5h-292v-391z" />
<glyph unicode="c" horiz-adv-x="1552" d="M84 717q0 159 58.5 298t158 237t236.5 154t290 56q208 0 381 -102t271 -275l-232 -61q-64 99 -177.5 157t-242.5 58q-224 0 -367 -145.5t-143 -376.5q0 -153 67 -272.5t183 -183.5t260 -64q143 0 264 69.5t183 184.5l227 -62q-92 -192 -272 -305t-402 -113 q-204 0 -374 95.5t-269.5 267t-99.5 383.5z" />
<glyph unicode="d" horiz-adv-x="1617" d="M180 0v1434h611q153 0 289 -53t236.5 -146.5t159 -229.5t58.5 -294q0 -156 -58 -290t-157 -225.5t-233.5 -143.5t-284.5 -52h-621zM408 213h393q100 0 190 34.5t158.5 97t108.5 158t40 208.5q0 115 -40.5 211.5t-109.5 161.5t-161.5 101t-195.5 36h-383v-1008z" />
<glyph unicode="e" horiz-adv-x="1310" d="M180 0v1434h985v-213h-757v-373h604v-201h-604v-434h770v-213h-998z" />
<glyph unicode="f" horiz-adv-x="1216" d="M180 0v1434h965v-213h-737v-416h583v-205h-583v-600h-228z" />
<glyph unicode="g" horiz-adv-x="1626" d="M84 717q0 159 58.5 298t158 237t236.5 154t290 56q213 -3 384 -104t268 -273l-232 -61q-64 99 -177.5 157t-242.5 58q-224 0 -367 -145.5t-143 -376.5q0 -154 68.5 -274.5t187 -185t265.5 -64.5q94 0 176.5 24.5t139.5 65t96 85t59 91.5v121h-418v186h612v-768h-196v55 t0.5 43.5t0.5 32.5v24t0.5 15t0.5 9v3h-2q-66 -79 -194.5 -144t-285.5 -65q-204 0 -374 95.5t-269.5 267t-99.5 383.5z" />
<glyph unicode="h" horiz-adv-x="1515" d="M180 0v1434h228v-594h700v594h227v-1434h-227v629h-700v-629h-228z" />
<glyph unicode="i" horiz-adv-x="587" d="M180 0v1434h228v-1434h-228z" />
<glyph unicode="j" horiz-adv-x="1357" d="M25 340l225 59q40 -101 133 -159t215 -58q186 0 286.5 110.5t100.5 305.5v836h227v-826q0 -300 -164 -468.5t-450 -168.5q-201 0 -356.5 102.5t-216.5 266.5z" />
<glyph unicode="k" horiz-adv-x="1441" d="M180 0v1434h228v-334q0 -100 -1.5 -185t-3 -116t-0.5 -31h3q1 0 29 29t85 87.5t109 110.5l440 439h277l-594 -594l624 -840h-266l-508 690l-194 -196v-494h-228z" />
<glyph unicode="l" horiz-adv-x="1185" d="M180 0v1434h228v-1221h737v-213h-965z" />
<glyph unicode="m" horiz-adv-x="1720" d="M180 0v1434h213l326 -549q52 -86 87.5 -148.5t44.5 -80.5l9 -17h2l9 17q9 18 44 80.5t86 148.5l326 549h213v-1434h-223v547q0 113 3 241q4 129 6 197q2 49 1 62v6h-2q-5 0 -127 -217l-278 -482h-119l-279 482q-122 217 -125 217h-2v-8q0 -15 1 -60q2 -68 4.5 -196.5 t2.5 -241.5v-547h-223z" />
<glyph unicode="n" horiz-adv-x="1572" d="M180 0v1434h213l527 -707q42 -57 106 -145.5t102 -141.5t39 -53h2q1 0 0 58t-2.5 170t-1.5 208v611h228v-1434h-213l-523 705q-55 75 -118.5 165t-97.5 138.5t-35 48.5h-3q-1 0 0.5 -54.5t3 -169.5t1.5 -225v-608h-228z" />
<glyph unicode="o" d="M84 717q0 159 58.5 298t158 237t236.5 154t290 56q204 0 374.5 -95t271 -266.5t100.5 -383.5q0 -159 -59 -298.5t-159.5 -237t-237.5 -154t-290 -56.5q-204 0 -374 95.5t-269.5 267t-99.5 383.5zM317 717q0 -231 144 -376.5t366 -145.5q221 0 365.5 146t144.5 376 q0 232 -144 377t-366 145q-223 0 -366.5 -144.5t-143.5 -377.5z" />
<glyph unicode="p" horiz-adv-x="1261" d="M180 0v1434h475q255 0 400 -124.5t145 -344.5t-145 -344.5t-400 -124.5h-247v-496h-228zM408 709h243q150 0 232 67.5t82 188.5q0 123 -83 189.5t-231 66.5h-243v-512z" />
<glyph unicode="q" d="M84 717q0 159 58.5 298t158 237t236.5 154t290 56q204 0 374.5 -95t271 -266.5t100.5 -383.5q0 -144 -49 -273.5t-134 -224.5t-202 -158t-250 -81v-250h-227v250q-133 20 -248 83t-199 158t-132 223.5t-48 272.5zM317 717q0 -231 144 -376.5t366 -145.5q221 0 365.5 146 t144.5 376q0 232 -144 377t-366 145q-223 0 -366.5 -144.5t-143.5 -377.5z" />
<glyph unicode="r" horiz-adv-x="1333" d="M180 0v1434h469q256 0 403.5 -125.5t147.5 -339.5q0 -150 -74.5 -256.5t-212.5 -157.5l340 -555h-256l-303 514q-14 -2 -45 -2h-241v-512h-228zM408 713h268q140 0 214.5 72t74.5 184q0 113 -76.5 182.5t-212.5 69.5h-268v-508z" />
<glyph unicode="s" horiz-adv-x="1232" d="M61 397l218 60q22 -120 116 -201.5t242 -81.5q133 0 211 61t78 156q0 37 -11.5 67.5t-38 55t-52.5 42t-71 35t-77 28t-88 28t-86 27.5q-48 16 -76 26.5t-75 31.5t-76.5 40t-65 49.5t-55.5 63.5t-34 78.5t-14 97.5q0 169 145.5 285t364.5 116q198 0 343.5 -107t185.5 -280 l-217 -59q-24 117 -113.5 183.5t-208.5 66.5q-120 0 -194 -53.5t-74 -139.5q0 -94 124 -155q56 -27 226 -80l14 -4q52 -17 91 -31t89.5 -37t87.5 -46.5t75.5 -57.5t62.5 -71.5t39 -86.5t16 -105q0 -187 -148 -307.5t-386 -120.5q-223 0 -372 116.5t-196 309.5z" />
<glyph unicode="t" horiz-adv-x="1228" d="M37 1221v213h1153v-213h-465v-1221h-225v1221h-463z" />
<glyph unicode="u" horiz-adv-x="1497" d="M145 608v826h228v-824q0 -428 375 -428q378 0 378 428v824h226v-826q0 -308 -159 -472.5t-445 -164.5t-444.5 164.5t-158.5 472.5z" />
<glyph unicode="v" horiz-adv-x="1470" d="M25 1434h247l381 -949q19 -51 40 -110.5t31 -90t11 -30.5h2q1 0 11 30.5t30.5 89.5t40.5 111l381 949h246l-592 -1434h-238z" />
<glyph unicode="w" horiz-adv-x="2056" d="M49 1434h240l272 -871q17 -54 32.5 -110t22 -81.5t7.5 -25.5h2q1 0 7 26t22 80.5t36 110.5l236 697h204l236 -697q20 -55 36 -110t22.5 -81t7.5 -26h2q1 0 7.5 25.5t21 81.5t30.5 110l274 871h240l-469 -1434h-207l-229 723q-25 80 -43 147.5t-24 93t-7 25.5h-2l-6 -26 q-7 -26 -25 -93.5t-43 -146.5l-229 -723h-207z" />
<glyph unicode="x" horiz-adv-x="1382" d="M29 0l526 739l-492 695h275l266 -379q10 -14 31.5 -49t37.5 -61.5t17 -26.5h2q1 0 17 26.5t37.5 61.5t31.5 49l266 379h275l-490 -695l525 -739h-273l-290 397q-13 19 -38 58t-42.5 68.5t-18.5 29.5h-2q-1 0 -18.5 -29.5t-42 -68.5t-37.5 -58l-291 -397h-272z" />
<glyph unicode="y" horiz-adv-x="1388" d="M29 1434h256l325 -441q14 -19 37 -49.5t34.5 -45.5t12.5 -15h2q2 0 82 110l326 441h256l-553 -754v-680h-225v680z" />
<glyph unicode="z" horiz-adv-x="1427" d="M123 0v211l780 899q20 22 49.5 50.5t48.5 46t19 18.5l-2 2l-12 -1q-11 0 -30.5 -1t-43.5 -2t-54.5 -1.5t-58.5 -0.5h-676v213h1162v-211l-762 -891q-26 -29 -56 -60t-45.5 -46.5t-15.5 -16.5l2 -2l10 1q11 0 29.5 1t42 2t55 1.5t62.5 0.5h678v-213h-1182z" />
<glyph unicode="{" horiz-adv-x="843" d="M180 721q5 2 14 6t32 25.5t40.5 53t32 92.5t14.5 138v236q0 245 130.5 375.5t369.5 130.5v-211q-45 0 -81.5 -7t-73.5 -27.5t-62 -54.5t-41 -92.5t-16 -136.5v-200q0 -76 -10.5 -137t-24.5 -94.5t-31 -56.5t-27.5 -30.5t-17.5 -9.5q7 -2 17.5 -9.5t27.5 -30.5t31 -56.5 t24.5 -94.5t10.5 -137v-200q0 -78 16 -136.5t41 -92.5t62 -54.5t73.5 -27.5t81.5 -7v-211q-239 0 -369.5 130.5t-130.5 375.5v236q0 56 -7.5 104t-19 79.5t-25.5 56.5t-28.5 38.5t-26 22t-18.5 11.5z" />
<glyph unicode="|" horiz-adv-x="544" d="M180 -152v1739h182v-1739h-182z" />
<glyph unicode="}" horiz-adv-x="843" d="M31 -125v-211q239 0 369 130.5t130 375.5v236q0 77 14 138t33.5 92.5t39 52.5t33.5 27l14 5q-5 2 -14.5 6t-32.5 25.5t-40.5 53t-32 92.5t-14.5 138v236q0 245 -130 375.5t-369 130.5v-211q45 0 81.5 -7t73.5 -27.5t62 -54.5t41 -92.5t16 -136.5v-200q0 -76 10.5 -137 t24.5 -94.5t31 -56.5t27.5 -30.5t17.5 -9.5q-7 -2 -17.5 -9.5t-27.5 -30.5t-31 -56.5t-24.5 -94.5t-10.5 -137v-200q0 -78 -16 -136.5t-41 -92.5t-62 -54.5t-73.5 -27.5t-81.5 -7z" />
<glyph unicode="~" horiz-adv-x="1429" d="M205 625q19 120 106.5 182.5t196.5 62.5q60 0 121.5 -22.5t103 -49t89.5 -49t85 -22.5q69 0 105.5 38.5t38.5 88.5l190 -51q-18 -120 -105.5 -183t-197.5 -63q-59 0 -120 22.5t-102.5 49t-91 49t-87.5 22.5q-70 0 -105.5 -37t-38.5 -90z" />
<glyph unicode="&#xa1;" horiz-adv-x="587" d="M180 0v975h228v-975h-228zM180 1112v322h228v-322h-228z" />
<glyph unicode="&#xa2;" horiz-adv-x="1171" d="M84 713q0 204 126 352.5t316 181.5v215h185v-215q129 -20 233 -97t160 -192l-197 -51q-97 152 -286 152q-147 0 -237.5 -94t-90.5 -252q0 -157 90.5 -250.5t237.5 -93.5q104 0 182 46.5t119 133.5l196 -53q-53 -127 -160.5 -212t-246.5 -108v-205h-185v207 q-190 33 -316 182t-126 353z" />
<glyph unicode="&#xa3;" horiz-adv-x="1339" d="M180 0v213q55 11 89.5 36.5t50.5 66t19.5 96.5t-3.5 127l-8 86h-140v180h123l-18 199q-18 186 114 319.5t328 138.5q56 1 114 -10t119.5 -40t113.5 -72.5t95 -113.5t64 -157l-192 -53q-78 255 -306 246q-111 -4 -173.5 -83.5t-51.5 -193.5l17 -180h448v-180h-432l8 -82 q23 -269 -96 -336l2 -2l11 1q10 0 29.5 0.5t45 1.5t59.5 2t70.5 1.5t80.5 1t87 0.5h405v-213h-1073z" />
<glyph unicode="&#xa4;" horiz-adv-x="1349" d="M90 231l146 144q-107 142 -107 321t111 326l-144 143l115 115l145 -143q139 104 318 104q176 0 321 -104l144 143l114 -115l-143 -143q111 -143 111 -326q0 -179 -105 -319l144 -146l-115 -114l-144 145q-144 -112 -327 -112q-181 0 -326 110l-143 -143zM334 698 q0 -148 98.5 -246t241.5 -98q146 0 245 98t99 246q0 147 -99.5 246.5t-244.5 99.5q-142 0 -241 -99.5t-99 -246.5z" />
<glyph unicode="&#xa5;" horiz-adv-x="1388" d="M29 1434h256l325 -441q14 -19 37 -49.5t34.5 -45.5t12.5 -15h2q2 0 82 110l326 441h256l-387 -529h250v-155h-365l-51 -70v-4h416v-154h-416v-522h-225v522h-406v154h406v4l-52 70h-354v155h240z" />
<glyph unicode="&#xa6;" horiz-adv-x="544" d="M180 -152v594h182v-594h-182zM180 1014v573h182v-573h-182z" />
<glyph unicode="&#xa7;" horiz-adv-x="1083" d="M61 272l187 50q20 -86 99.5 -144.5t205.5 -58.5q116 0 184 42.5t68 108.5q0 26 -10 47.5t-32.5 38.5t-44.5 29.5t-61.5 25.5t-66.5 20.5t-75.5 20t-74.5 19.5q-36 10 -50.5 14.5t-50.5 16t-53.5 19.5t-48.5 23t-47.5 28t-38 33t-32.5 40.5t-19 47t-8 55.5q0 75 52 132.5 t145 90.5q-79 35 -124.5 86t-45.5 129q0 118 122.5 199t307.5 81q164 0 284 -73t156 -191l-184 -51q-20 81 -93 124.5t-173 43.5q-99 0 -159.5 -34t-60.5 -91q0 -21 8 -38t26 -30.5t36 -23.5t50 -19.5t55 -16t63.5 -16.5t63.5 -16q51 -13 89 -25t86.5 -31t82.5 -42t64.5 -52 t46.5 -67.5t16 -83.5q0 -155 -191 -211q197 -89 197 -246q0 -135 -128.5 -222t-336.5 -87q-192 0 -317.5 83t-168.5 222zM285 758q0 -19 8 -35.5t20 -29t34 -24t41 -19t51 -17t54 -14.5t59.5 -14t59.5 -15q5 -2 17.5 -5t17.5 -5q76 14 121 51t45 92q0 23 -8.5 42.5t-20 33.5 t-34.5 27.5t-41 21.5t-52 18t-54 15t-60.5 14t-59.5 14q-79 -10 -138.5 -49t-59.5 -102z" />
<glyph unicode="&#xa8;" horiz-adv-x="843" d="M33 1686q0 47 34 80.5t83 33.5t82.5 -33t33.5 -81q0 -50 -33.5 -83.5t-82.5 -33.5q-50 0 -83.5 33.5t-33.5 83.5zM539 1686q0 48 33.5 81t82.5 33t83 -33.5t34 -80.5q0 -50 -34 -83.5t-83 -33.5t-82.5 33.5t-33.5 83.5z" />
<glyph unicode="&#xa9;" d="M84 717q0 159 58.5 298t158 237t236.5 154t290 56q204 0 374.5 -95t271 -266.5t100.5 -383.5q0 -159 -59 -298.5t-159.5 -237t-237.5 -154t-290 -56.5q-204 0 -374 95.5t-269.5 267t-99.5 383.5zM256 717q0 -127 43 -236t118.5 -185.5t181.5 -119.5t228 -43 q163 0 293.5 73.5t205.5 207.5t75 303q0 172 -75 306t-205.5 207t-293.5 73q-249 0 -410 -162.5t-161 -423.5zM477 717q0 153 102 255.5t252 102.5q103 0 192.5 -55t129.5 -141l-133 -39q-30 46 -80 73t-109 27q-94 0 -153.5 -61t-59.5 -162t59.5 -163t153.5 -62 q65 0 117.5 32.5t79.5 87.5l135 -39q-37 -94 -130 -154.5t-202 -60.5q-150 0 -252 102.5t-102 256.5z" />
<glyph unicode="&#xaa;" horiz-adv-x="733" d="M41 494v143h651v-143h-651zM43 768l260 682h125l260 -682h-147l-49 141h-252l-50 -141h-147zM281 1020h170l-45 129q-11 35 -20.5 76t-13.5 63.5t-5 22.5h-2q-1 0 -5 -22.5t-13.5 -63.5t-20.5 -76z" />
<glyph unicode="&#xab;" horiz-adv-x="1568" d="M182 721l482 -481l127 127l-367 354l364 354l-124 125zM780 721l482 -481l127 127l-367 354l364 354l-124 125z" />
<glyph unicode="&#xad;" horiz-adv-x="1302" d="M180 633v188h942v-188h-942z" />
<glyph unicode="&#xae;" d="M84 717q0 159 58.5 298t158 237t236.5 154t290 56q204 0 374.5 -95t271 -266.5t100.5 -383.5q0 -159 -59 -298.5t-159.5 -237t-237.5 -154t-290 -56.5q-204 0 -374 95.5t-269.5 267t-99.5 383.5zM256 717q0 -127 43 -236t118.5 -185.5t181.5 -119.5t228 -43 q163 0 293.5 73.5t205.5 207.5t75 303q0 172 -75 306t-205.5 207t-293.5 73q-249 0 -410 -162.5t-161 -423.5zM592 360v715h239q127 0 201 -61.5t74 -167.5q0 -73 -35.5 -125.5t-101.5 -77.5l170 -283h-142l-153 261h-13h-106v-261h-133zM725 731h121q64 0 96.5 29t32.5 82 q0 52 -33.5 82t-95.5 30h-121v-223z" />
<glyph unicode="&#xaf;" horiz-adv-x="731" d="M8 1399v174h676v-174h-676z" />
<glyph unicode="&#xb0;" horiz-adv-x="630" d="M63 1442q0 104 74 178t178 74t178 -74t74 -178q0 -103 -74 -177.5t-178 -74.5t-178 74.5t-74 177.5zM199 1444q0 -47 35 -82t81 -35q49 0 84 34.5t35 82.5q0 49 -34.5 83t-84.5 34q-47 0 -81.5 -34t-34.5 -83z" />
<glyph unicode="&#xb1;" horiz-adv-x="1429" d="M246 -20v188h940v-188h-940zM246 633v188h368v373h201v-373h371v-188h-369v-291h-201v291h-370z" />
<glyph unicode="&#xb2;" horiz-adv-x="681" d="M41 1532q27 110 108.5 180t196.5 70q123 0 206 -77.5t83 -188.5q0 -133 -139 -248q-49 -40 -140 -109q-27 -19 -55 -35.5t-43 -25.5l-16 -8l2 -3q1 0 31.5 3.5t80.5 7.5t97 4h176v-133h-578v102l303 248q131 104 131 194q0 55 -40.5 91t-100.5 36q-71 0 -108.5 -39 t-57.5 -106z" />
<glyph unicode="&#xb3;" horiz-adv-x="690" d="M41 1192l133 37q8 -68 55 -108t123 -40q69 0 108.5 36t39.5 89q0 52 -42.5 84.5t-109.5 32.5h-78v111h78q61 0 100 32t39 82q0 40 -36 72.5t-101 32.5q-68 0 -107.5 -33t-58.5 -104l-129 34q20 105 100.5 168.5t196.5 63.5q133 0 207 -65t74 -161q0 -75 -53.5 -124 t-118.5 -52v-2q75 -3 128.5 -50t53.5 -126q0 -109 -83 -179.5t-208 -70.5q-117 0 -205.5 67.5t-105.5 172.5z" />
<glyph unicode="&#xb4;" horiz-adv-x="638" d="M33 1628l454 244l80 -156l-467 -213z" />
<glyph unicode="&#xb6;" horiz-adv-x="1445" d="M84 1042q0 184 126.5 288t350.5 104h705v-1434h-228v1221h-172v-1221h-215v651h-90q-224 0 -350.5 103.5t-126.5 287.5z" />
<glyph unicode="&#xb7;" horiz-adv-x="487" d="M123 717q0 50 35 84.5t86 34.5t86 -34.5t35 -84.5q0 -52 -35 -87.5t-86 -35.5t-86 36t-35 87z" />
<glyph unicode="&#xb8;" horiz-adv-x="512" d="M33 -508l49 125h133q46 0 71 21t25 55q0 35 -26.5 57.5t-69.5 22.5h-160l80 227h131l-39 -106q92 2 153.5 -52.5t61.5 -146.5q0 -99 -63.5 -151t-163.5 -52h-182z" />
<glyph unicode="&#xb9;" horiz-adv-x="483" d="M25 1505l280 260h107v-796h-152v438q0 18 1 42t2.5 44.5t3 38.5l2.5 30l1 11h-2l-8 -11q-8 -11 -24.5 -31t-34.5 -36l-80 -76z" />
<glyph unicode="&#xba;" horiz-adv-x="747" d="M20 1106q0 152 102.5 253t250.5 101q149 0 251.5 -101t102.5 -253q0 -151 -102.5 -251.5t-251.5 -100.5q-148 0 -250.5 100.5t-102.5 251.5zM41 494v143h668v-143h-668zM164 1106q0 -93 59.5 -154t149.5 -61q91 0 151 61t60 154q0 95 -60 156t-151 61q-90 0 -149.5 -61 t-59.5 -156z" />
<glyph unicode="&#xbb;" horiz-adv-x="1568" d="M180 367l367 354l-365 354l125 125l481 -479l-481 -481zM778 367l367 354l-365 354l125 125l481 -479l-481 -481z" />
<glyph unicode="&#xbc;" horiz-adv-x="1431" d="M25 1174l280 260h107v-797h-152v438q0 18 1 42t2.5 44.5t3 38.5l2.5 30l1 11h-2l-8 -11q-8 -11 -24.5 -31t-34.5 -36l-80 -76zM125 0l995 1434h154l-993 -1434h-156zM741 172v104l433 521h112v-496h98v-129h-98v-172h-137v172h-408zM895 295l2 -2l7 1q6 0 17.5 0.5 t25.5 1t32.5 1t36.5 0.5h133v156q0 21 0.5 43t1 38.5t1 29.5t0.5 20l1 8h-2q-1 0 -13 -17.5t-33 -45.5t-38 -48l-102 -116q-14 -17 -32 -34t-28 -26t-10 -10z" />
<glyph unicode="&#xbd;" horiz-adv-x="1505" d="M25 1174l280 260h107v-797h-152v438q0 18 1 42t2.5 44.5t3 38.5l2.5 30l1 11h-2l-8 -11q-8 -11 -24.5 -31t-34.5 -36l-80 -76zM125 0l995 1434h154l-993 -1434h-156zM864 563q27 110 108.5 180t196.5 70q123 0 206 -77.5t83 -188.5q0 -133 -139 -248q-60 -50 -139 -109 q-27 -19 -55.5 -35.5t-44.5 -24.5l-15 -9l2 -2q1 0 31.5 3.5t80.5 7t97 3.5h176v-133h-578v102l304 248q131 104 131 195q0 55 -41 91t-101 36q-71 0 -108.5 -39t-57.5 -107z" />
<glyph unicode="&#xbe;" horiz-adv-x="1570" d="M41 860l133 37q8 -68 55 -107.5t123 -39.5q69 0 108.5 35.5t39.5 88.5q0 52 -42.5 84.5t-109.5 32.5h-78v111h78q61 0 100 32.5t39 82.5q0 40 -36 72t-101 32q-68 0 -107.5 -33t-58.5 -104l-129 35q20 105 100.5 168t196.5 63q134 0 207.5 -64.5t73.5 -160.5 q0 -75 -53.5 -124t-118.5 -52v-2q75 -3 128.5 -50.5t53.5 -126.5q0 -109 -82.5 -179t-208.5 -70q-117 0 -205.5 67t-105.5 172zM266 0l996 1434h153l-993 -1434h-156zM883 172v104l432 521h112v-496h99v-129h-99v-172h-137v172h-407zM1036 295l2 -2l6 1q7 0 18.5 0.5t25.5 1 t32.5 1t36.5 0.5h133v156q0 21 0.5 43t1 38.5t1 29.5t1.5 20v8h-2q-1 0 -13 -17.5t-33 -45.5t-38 -48l-102 -116q-14 -17 -32 -34t-28 -26t-10 -10z" />
<glyph unicode="&#xbf;" horiz-adv-x="1185" d="M84 379q0 52 13 99t32.5 83.5t53.5 71.5t65.5 60t78.5 53t82.5 45.5t88.5 42.5v141h227v-225q-235 -118 -320.5 -190t-85.5 -167q0 -38 13.5 -74.5t42 -70.5t83 -55t128.5 -21q134 0 211.5 60.5t113.5 183.5l191 -54q-43 -183 -182.5 -287t-341.5 -104q-123 0 -219.5 33 t-155 90.5t-89 130t-30.5 154.5zM498 1112v322h227v-322h-227z" />
<glyph unicode="&#xc0;" horiz-adv-x="1472" d="M25 0l606 1434h211l606 -1434h-244l-133 326h-670l-133 -326h-243zM379 1716l80 156l456 -244l-69 -125zM483 524h506l-184 449q-13 33 -30 80.5t-27 76.5t-11 29h-2q-1 0 -10.5 -29t-26.5 -76.5t-30 -80.5z" />
<glyph unicode="&#xc1;" horiz-adv-x="1472" d="M25 0l606 1434h211l606 -1434h-244l-133 326h-670l-133 -326h-243zM483 524h506l-184 449q-13 33 -30 80.5t-27 76.5t-11 29h-2q-1 0 -10.5 -29t-26.5 -76.5t-30 -80.5zM516 1628l457 244l80 -156l-467 -213z" />
<glyph unicode="&#xc2;" horiz-adv-x="1472" d="M25 0l606 1434h211l606 -1434h-244l-133 326h-670l-133 -326h-243zM367 1624l362 305l363 -305l-113 -115l-250 209l-250 -209zM483 524h506l-184 449q-13 33 -30 80.5t-27 76.5t-11 29h-2q-1 0 -10.5 -29t-26.5 -76.5t-30 -80.5z" />
<glyph unicode="&#xc3;" horiz-adv-x="1472" d="M25 0l606 1434h211l606 -1434h-244l-133 326h-670l-133 -326h-243zM322 1567q0 107 73 177.5t185 70.5q47 0 91 -19t72.5 -41.5t63 -41.5t63.5 -19q41 0 69 27t28 67h180q0 -107 -73 -177.5t-185 -70.5q-45 0 -88.5 18.5t-72.5 41t-64.5 41t-65.5 18.5q-43 0 -70.5 -26 t-27.5 -66h-178zM483 524h506l-184 449q-13 33 -30 80.5t-27 76.5t-11 29h-2q-1 0 -10.5 -29t-26.5 -76.5t-30 -80.5z" />
<glyph unicode="&#xc4;" horiz-adv-x="1472" d="M25 0l606 1434h211l606 -1434h-244l-133 326h-670l-133 -326h-243zM358 1686q0 48 34 81t85 33q47 0 81 -33.5t34 -80.5q0 -49 -33.5 -83t-81.5 -34q-51 0 -85 33.5t-34 83.5zM483 524h506l-184 449q-13 33 -30 80.5t-27 76.5t-11 29h-2q-1 0 -10.5 -29t-26.5 -76.5 t-30 -80.5zM864 1686q0 47 34 80.5t83 33.5t83 -33.5t34 -80.5q0 -50 -34 -83.5t-83 -33.5t-83 33.5t-34 83.5z" />
<glyph unicode="&#xc5;" horiz-adv-x="1472" d="M25 0l604 1427q-66 31 -106 92.5t-40 135.5q0 104 74 178t178 74q103 0 177.5 -74t74.5 -178q0 -72 -39.5 -133t-103.5 -92l604 -1430h-244l-133 326h-670l-133 -326h-243zM483 524h506l-184 449q-13 33 -30 80.5t-27 76.5t-11 29h-2q-1 0 -10.5 -29t-26.5 -76.5 t-30 -80.5zM618 1657q0 -46 35.5 -80.5t81.5 -34.5q49 0 84 34.5t35 80.5q0 49 -34.5 83t-84.5 34q-47 0 -82 -34t-35 -83z" />
<glyph unicode="&#xc6;" horiz-adv-x="2052" d="M25 0l618 1434h1262v-213h-758v-373h606v-201h-606v-434h770v-213h-991v326h-518l-138 -326h-245zM489 524h437v697h-154q-2 0 -113 -287z" />
<glyph unicode="&#xc7;" horiz-adv-x="1552" d="M84 717q0 159 58.5 298t158 237t236.5 154t290 56q208 0 381 -102t271 -275l-232 -61q-64 99 -177.5 157t-242.5 58q-224 0 -367 -145.5t-143 -376.5q0 -153 67 -272.5t183 -183.5t260 -64q143 0 264 69.5t183 184.5l227 -62q-87 -183 -254.5 -294.5t-376.5 -121.5 l-30 -79q92 2 154.5 -53t62.5 -146q0 -98 -64.5 -150.5t-163.5 -52.5h-184l49 125h135q45 0 71 21.5t26 54.5q0 35 -27 57.5t-70 22.5h-159l71 202q-138 15 -259 77t-209 158.5t-138.5 227.5t-50.5 279z" />
<glyph unicode="&#xc8;" horiz-adv-x="1310" d="M180 0v1434h985v-213h-757v-373h604v-201h-604v-434h770v-213h-998zM334 1716l80 156l456 -244l-69 -125z" />
<glyph unicode="&#xc9;" horiz-adv-x="1310" d="M180 0v1434h985v-213h-757v-373h604v-201h-604v-434h770v-213h-998zM471 1628l457 244l80 -156l-467 -213z" />
<glyph unicode="&#xca;" horiz-adv-x="1310" d="M180 0v1434h985v-213h-757v-373h604v-201h-604v-434h770v-213h-998zM322 1624l362 305l363 -305l-113 -115l-250 209l-250 -209z" />
<glyph unicode="&#xcb;" horiz-adv-x="1310" d="M180 0v1434h985v-213h-757v-373h604v-201h-604v-434h770v-213h-998zM313 1686q0 48 34 81t85 33q47 0 81 -33.5t34 -80.5q0 -49 -33.5 -83t-81.5 -34q-51 0 -85 33.5t-34 83.5zM819 1686q0 47 34 80.5t83 33.5t83 -33.5t34 -80.5q0 -50 -33.5 -83.5t-83.5 -33.5 t-83.5 33.5t-33.5 83.5z" />
<glyph unicode="&#xcc;" horiz-adv-x="587" d="M-63 1716l79 156l457 -244l-70 -125zM180 0v1434h228v-1434h-228z" />
<glyph unicode="&#xcd;" horiz-adv-x="587" d="M74 1628l456 244l80 -156l-467 -213zM180 0v1434h228v-1434h-228z" />
<glyph unicode="&#xce;" horiz-adv-x="587" d="M-76 1624l363 305l362 -305l-112 -115l-250 209l-250 -209zM180 0v1434h228v-1434h-228z" />
<glyph unicode="&#xcf;" horiz-adv-x="587" d="M-84 1686q0 48 34 81t85 33q47 0 81 -33.5t34 -80.5q0 -49 -33.5 -83t-81.5 -34q-51 0 -85 33.5t-34 83.5zM180 0v1434h228v-1434h-228zM422 1686q0 47 34 80.5t83 33.5t82.5 -33t33.5 -81q0 -50 -33.5 -83.5t-82.5 -33.5t-83 33.5t-34 83.5z" />
<glyph unicode="&#xd0;" horiz-adv-x="1632" d="M84 625v204h113v605h610q153 0 289 -53t236.5 -146.5t159 -229.5t58.5 -294q0 -156 -58 -290t-157 -225.5t-233.5 -143.5t-284.5 -52h-620v625h-113zM424 213h393q134 0 246.5 58.5t182 173.5t69.5 266q0 114 -40.5 211t-110 162t-162 101t-195.5 36h-383v-392h315v-204 h-315v-412z" />
<glyph unicode="&#xd1;" horiz-adv-x="1572" d="M180 0v1434h213l527 -707q42 -57 106 -145.5t102 -141.5t39 -53h2q1 0 0 58t-2.5 170t-1.5 208v611h228v-1434h-213l-523 705q-55 75 -118.5 165t-97.5 138.5t-35 48.5h-3q-1 0 0.5 -54.5t3 -169.5t1.5 -225v-608h-228zM375 1567q0 107 73 177.5t185 70.5q47 0 91.5 -19 t72.5 -41.5t63 -41.5t64 -19q41 0 68.5 27t27.5 67h180q0 -107 -73 -177.5t-185 -70.5q-45 0 -88.5 18.5t-72.5 41t-64.5 41t-65.5 18.5q-43 0 -70.5 -26t-27.5 -66h-178z" />
<glyph unicode="&#xd2;" d="M84 717q0 159 58.5 298t158 237t236.5 154t290 56q204 0 374.5 -95t271 -266.5t100.5 -383.5q0 -159 -59 -298.5t-159.5 -237t-237.5 -154t-290 -56.5q-204 0 -374 95.5t-269.5 267t-99.5 383.5zM317 717q0 -231 144 -376.5t366 -145.5q221 0 365.5 146t144.5 376 q0 232 -144 377t-366 145q-223 0 -366.5 -144.5t-143.5 -377.5zM481 1716l80 156l457 -244l-70 -125z" />
<glyph unicode="&#xd3;" d="M84 717q0 159 58.5 298t158 237t236.5 154t290 56q204 0 374.5 -95t271 -266.5t100.5 -383.5q0 -159 -59 -298.5t-159.5 -237t-237.5 -154t-290 -56.5q-204 0 -374 95.5t-269.5 267t-99.5 383.5zM317 717q0 -231 144 -376.5t366 -145.5q221 0 365.5 146t144.5 376 q0 232 -144 377t-366 145q-223 0 -366.5 -144.5t-143.5 -377.5zM618 1628l457 244l80 -156l-467 -213z" />
<glyph unicode="&#xd4;" d="M84 717q0 159 58.5 298t158 237t236.5 154t290 56q204 0 374.5 -95t271 -266.5t100.5 -383.5q0 -159 -59 -298.5t-159.5 -237t-237.5 -154t-290 -56.5q-204 0 -374 95.5t-269.5 267t-99.5 383.5zM317 717q0 -231 144 -376.5t366 -145.5q221 0 365.5 146t144.5 376 q0 232 -144 377t-366 145q-223 0 -366.5 -144.5t-143.5 -377.5zM469 1624l362 305l363 -305l-113 -115l-250 209l-249 -209z" />
<glyph unicode="&#xd5;" d="M84 717q0 159 58.5 298t158 237t236.5 154t290 56q204 0 374.5 -95t271 -266.5t100.5 -383.5q0 -159 -59 -298.5t-159.5 -237t-237.5 -154t-290 -56.5q-204 0 -374 95.5t-269.5 267t-99.5 383.5zM317 717q0 -231 144 -376.5t366 -145.5q221 0 365.5 146t144.5 376 q0 232 -144 377t-366 145q-223 0 -366.5 -144.5t-143.5 -377.5zM424 1567q0 107 73 177.5t185 70.5q47 0 91.5 -19t72.5 -41.5t63 -41.5t64 -19q41 0 68.5 27t27.5 67h180q0 -107 -73 -177.5t-185 -70.5q-45 0 -88.5 18.5t-72.5 41t-64.5 41t-65.5 18.5q-43 0 -70.5 -26 t-27.5 -66h-178z" />
<glyph unicode="&#xd6;" d="M84 717q0 159 58.5 298t158 237t236.5 154t290 56q204 0 374.5 -95t271 -266.5t100.5 -383.5q0 -159 -59 -298.5t-159.5 -237t-237.5 -154t-290 -56.5q-204 0 -374 95.5t-269.5 267t-99.5 383.5zM317 717q0 -231 144 -376.5t366 -145.5q221 0 365.5 146t144.5 376 q0 232 -144 377t-366 145q-223 0 -366.5 -144.5t-143.5 -377.5zM461 1686q0 48 34 81t85 33q47 0 80.5 -33.5t33.5 -80.5q0 -49 -33.5 -83t-80.5 -34q-51 0 -85 33.5t-34 83.5zM967 1686q0 48 33.5 81t82.5 33t83 -33.5t34 -80.5q0 -50 -34 -83.5t-83 -33.5t-82.5 33.5 t-33.5 83.5z" />
<glyph unicode="&#xd7;" horiz-adv-x="1429" d="M289 1001l149 150l277 -274l276 276l150 -149l-275 -277l275 -276l-150 -152l-276 276l-275 -274l-149 152l274 274z" />
<glyph unicode="&#xd8;" d="M84 717q0 159 58.5 298t158 237t236.5 154t290 56q200 0 375 -96l78 100l160 -118l-78 -103q101 -102 156 -237t55 -291q0 -159 -59 -298.5t-159.5 -237t-237.5 -154t-290 -56.5q-196 0 -366 92l-76 -100l-160 123l74 98q-102 100 -158.5 237.5t-56.5 295.5zM317 717 q0 -209 121 -352l627 821q-106 53 -238 53q-223 0 -366.5 -144.5t-143.5 -377.5zM598 244q101 -49 229 -49q221 0 365.5 146t144.5 376q0 204 -114 346z" />
<glyph unicode="&#xd9;" horiz-adv-x="1497" d="M145 608v826h228v-824q0 -428 375 -428q378 0 378 428v824h226v-826q0 -308 -159 -472.5t-445 -164.5t-444.5 164.5t-158.5 472.5zM397 1716l80 156l457 -244l-70 -125z" />
<glyph unicode="&#xda;" horiz-adv-x="1497" d="M145 608v826h228v-824q0 -428 375 -428q378 0 378 428v824h226v-826q0 -308 -159 -472.5t-445 -164.5t-444.5 164.5t-158.5 472.5zM535 1628l456 244l80 -156l-467 -213z" />
<glyph unicode="&#xdb;" horiz-adv-x="1497" d="M145 608v826h228v-824q0 -428 375 -428q378 0 378 428v824h226v-826q0 -308 -159 -472.5t-445 -164.5t-444.5 164.5t-158.5 472.5zM385 1624l363 305l362 -305l-113 -115l-249 209l-250 -209z" />
<glyph unicode="&#xdc;" horiz-adv-x="1497" d="M145 608v826h228v-824q0 -428 375 -428q378 0 378 428v824h226v-826q0 -308 -159 -472.5t-445 -164.5t-444.5 164.5t-158.5 472.5zM377 1686q0 48 34 81t85 33q47 0 80.5 -33.5t33.5 -80.5q0 -49 -33.5 -83t-80.5 -34q-51 0 -85 33.5t-34 83.5zM883 1686q0 48 33.5 81 t82.5 33t83 -33.5t34 -80.5q0 -50 -34 -83.5t-83 -33.5t-82.5 33.5t-33.5 83.5z" />
<glyph unicode="&#xdd;" horiz-adv-x="1388" d="M29 1434h256l325 -441q14 -19 37 -49.5t34.5 -45.5t12.5 -15h2q2 0 82 110l326 441h256l-553 -754v-680h-225v680zM475 1628l457 244l80 -156l-467 -213z" />
<glyph unicode="&#xde;" horiz-adv-x="1271" d="M180 0v1434h228v-248h274q227 0 368.5 -131t141.5 -336t-141.5 -336t-368.5 -131h-274v-252h-228zM408 465h278q123 0 196.5 70t73.5 184q0 115 -73.5 185.5t-196.5 70.5h-278v-510z" />
<glyph unicode="&#xdf;" horiz-adv-x="1617" d="M180 0v1434h1215l-228 -422l-98 -181l2 -2h10q196 0 324.5 -118.5t128.5 -296.5q0 -190 -134 -316.5t-353 -126.5q-159 0 -291.5 76.5t-200.5 204.5l215 59q90 -145 268 -145q124 0 196.5 71t72.5 179q0 102 -72 172.5t-203 70.5h-180v170l129 246q13 25 33.5 62.5 t33.5 61t13 24.5l-2 2l-8 -1q-8 0 -22 -0.5t-31 -1t-40 -1t-45 -0.5h-505v-1221h-228z" />
<glyph unicode="&#xe0;" horiz-adv-x="1472" d="M25 0l606 1434h211l606 -1434h-244l-133 326h-670l-133 -326h-243zM379 1716l80 156l456 -244l-69 -125zM483 524h506l-184 449q-13 33 -30 80.5t-27 76.5t-11 29h-2q-1 0 -10.5 -29t-26.5 -76.5t-30 -80.5z" />
<glyph unicode="&#xe1;" horiz-adv-x="1472" d="M25 0l606 1434h211l606 -1434h-244l-133 326h-670l-133 -326h-243zM483 524h506l-184 449q-13 33 -30 80.5t-27 76.5t-11 29h-2q-1 0 -10.5 -29t-26.5 -76.5t-30 -80.5zM516 1628l457 244l80 -156l-467 -213z" />
<glyph unicode="&#xe2;" horiz-adv-x="1472" d="M25 0l606 1434h211l606 -1434h-244l-133 326h-670l-133 -326h-243zM367 1624l362 305l363 -305l-113 -115l-250 209l-250 -209zM483 524h506l-184 449q-13 33 -30 80.5t-27 76.5t-11 29h-2q-1 0 -10.5 -29t-26.5 -76.5t-30 -80.5z" />
<glyph unicode="&#xe3;" horiz-adv-x="1472" d="M25 0l606 1434h211l606 -1434h-244l-133 326h-670l-133 -326h-243zM322 1567q0 107 73 177.5t185 70.5q47 0 91 -19t72.5 -41.5t63 -41.5t63.5 -19q41 0 69 27t28 67h180q0 -107 -73 -177.5t-185 -70.5q-45 0 -88.5 18.5t-72.5 41t-64.5 41t-65.5 18.5q-43 0 -70.5 -26 t-27.5 -66h-178zM483 524h506l-184 449q-13 33 -30 80.5t-27 76.5t-11 29h-2q-1 0 -10.5 -29t-26.5 -76.5t-30 -80.5z" />
<glyph unicode="&#xe4;" horiz-adv-x="1472" d="M25 0l606 1434h211l606 -1434h-244l-133 326h-670l-133 -326h-243zM358 1686q0 48 34 81t85 33q47 0 81 -33.5t34 -80.5q0 -49 -33.5 -83t-81.5 -34q-51 0 -85 33.5t-34 83.5zM483 524h506l-184 449q-13 33 -30 80.5t-27 76.5t-11 29h-2q-1 0 -10.5 -29t-26.5 -76.5 t-30 -80.5zM864 1686q0 47 34 80.5t83 33.5t83 -33.5t34 -80.5q0 -50 -34 -83.5t-83 -33.5t-83 33.5t-34 83.5z" />
<glyph unicode="&#xe5;" horiz-adv-x="1472" d="M25 0l604 1427q-66 31 -106 92.5t-40 135.5q0 104 74 178t178 74q103 0 177.5 -74t74.5 -178q0 -72 -39.5 -133t-103.5 -92l604 -1430h-244l-133 326h-670l-133 -326h-243zM483 524h506l-184 449q-13 33 -30 80.5t-27 76.5t-11 29h-2q-1 0 -10.5 -29t-26.5 -76.5 t-30 -80.5zM618 1657q0 -46 35.5 -80.5t81.5 -34.5q49 0 84 34.5t35 80.5q0 49 -34.5 83t-84.5 34q-47 0 -82 -34t-35 -83z" />
<glyph unicode="&#xe6;" horiz-adv-x="2052" d="M25 0l618 1434h1262v-213h-758v-373h606v-201h-606v-434h770v-213h-991v326h-518l-138 -326h-245zM489 524h437v697h-154q-2 0 -113 -287z" />
<glyph unicode="&#xe7;" horiz-adv-x="1552" d="M84 717q0 159 58.5 298t158 237t236.5 154t290 56q208 0 381 -102t271 -275l-232 -61q-64 99 -177.5 157t-242.5 58q-224 0 -367 -145.5t-143 -376.5q0 -153 67 -272.5t183 -183.5t260 -64q143 0 264 69.5t183 184.5l227 -62q-87 -183 -254.5 -294.5t-376.5 -121.5 l-30 -79q92 2 154.5 -53t62.5 -146q0 -98 -64.5 -150.5t-163.5 -52.5h-184l49 125h135q45 0 71 21.5t26 54.5q0 35 -27 57.5t-70 22.5h-159l71 202q-138 15 -259 77t-209 158.5t-138.5 227.5t-50.5 279z" />
<glyph unicode="&#xe8;" horiz-adv-x="1310" d="M180 0v1434h985v-213h-757v-373h604v-201h-604v-434h770v-213h-998zM330 1716l80 156l456 -244l-69 -125z" />
<glyph unicode="&#xe9;" horiz-adv-x="1310" d="M180 0v1434h985v-213h-757v-373h604v-201h-604v-434h770v-213h-998zM467 1628l457 244l80 -156l-467 -213z" />
<glyph unicode="&#xea;" horiz-adv-x="1310" d="M180 0v1434h985v-213h-757v-373h604v-201h-604v-434h770v-213h-998zM317 1624l363 305l362 -305l-112 -115l-250 209l-250 -209z" />
<glyph unicode="&#xeb;" horiz-adv-x="1310" d="M180 0v1434h985v-213h-757v-373h604v-201h-604v-434h770v-213h-998zM309 1686q0 48 34 81t85 33q47 0 81 -33.5t34 -80.5q0 -49 -33.5 -83t-81.5 -34q-51 0 -85 33.5t-34 83.5zM815 1686q0 47 34 80.5t83 33.5t83 -33.5t34 -80.5q0 -50 -33.5 -83.5t-83.5 -33.5 t-83.5 33.5t-33.5 83.5z" />
<glyph unicode="&#xec;" horiz-adv-x="587" d="M-61 1716l79 156l457 -244l-69 -125zM180 0v1434h228v-1434h-228z" />
<glyph unicode="&#xed;" horiz-adv-x="587" d="M76 1628l456 244l80 -156l-467 -213zM180 0v1434h228v-1434h-228z" />
<glyph unicode="&#xee;" horiz-adv-x="587" d="M-74 1624l363 305l362 -305l-112 -115l-250 209l-250 -209zM180 0v1434h228v-1434h-228z" />
<glyph unicode="&#xef;" horiz-adv-x="587" d="M-82 1686q0 48 34 81t85 33q47 0 81 -33.5t34 -80.5q0 -49 -33.5 -83t-81.5 -34q-51 0 -85 33.5t-34 83.5zM180 0v1434h228v-1434h-228zM424 1686q0 47 34 80.5t83 33.5t82.5 -33t33.5 -81q0 -50 -33.5 -83.5t-82.5 -33.5t-83 33.5t-34 83.5z" />
<glyph unicode="&#xf0;" horiz-adv-x="1632" d="M84 625v204h113v605h610q153 0 289 -53t236.5 -146.5t159 -229.5t58.5 -294q0 -156 -58 -290t-157 -225.5t-233.5 -143.5t-284.5 -52h-620v625h-113zM424 213h393q134 0 246.5 58.5t182 173.5t69.5 266q0 114 -40.5 211t-110 162t-162 101t-195.5 36h-383v-392h315v-204 h-315v-412z" />
<glyph unicode="&#xf1;" horiz-adv-x="1572" d="M180 0v1434h213l527 -707q42 -57 106 -145.5t102 -141.5t39 -53h2q1 0 0 58t-2.5 170t-1.5 208v611h228v-1434h-213l-523 705q-55 75 -118.5 165t-97.5 138.5t-35 48.5h-3q-1 0 0.5 -54.5t3 -169.5t1.5 -225v-608h-228zM375 1567q0 107 73 177.5t185 70.5q47 0 91.5 -19 t72.5 -41.5t63 -41.5t64 -19q41 0 68.5 27t27.5 67h180q0 -107 -73 -177.5t-185 -70.5q-45 0 -88.5 18.5t-72.5 41t-64.5 41t-65.5 18.5q-43 0 -70.5 -26t-27.5 -66h-178z" />
<glyph unicode="&#xf2;" d="M84 717q0 159 58.5 298t158 237t236.5 154t290 56q204 0 374.5 -95t271 -266.5t100.5 -383.5q0 -159 -59 -298.5t-159.5 -237t-237.5 -154t-290 -56.5q-204 0 -374 95.5t-269.5 267t-99.5 383.5zM317 717q0 -231 144 -376.5t366 -145.5q221 0 365.5 146t144.5 376 q0 232 -144 377t-366 145q-223 0 -366.5 -144.5t-143.5 -377.5zM477 1716l80 156l457 -244l-70 -125z" />
<glyph unicode="&#xf3;" d="M84 717q0 159 58.5 298t158 237t236.5 154t290 56q204 0 374.5 -95t271 -266.5t100.5 -383.5q0 -159 -59 -298.5t-159.5 -237t-237.5 -154t-290 -56.5q-204 0 -374 95.5t-269.5 267t-99.5 383.5zM317 717q0 -231 144 -376.5t366 -145.5q221 0 365.5 146t144.5 376 q0 232 -144 377t-366 145q-223 0 -366.5 -144.5t-143.5 -377.5zM614 1628l457 244l80 -156l-467 -213z" />
<glyph unicode="&#xf4;" d="M84 717q0 159 58.5 298t158 237t236.5 154t290 56q204 0 374.5 -95t271 -266.5t100.5 -383.5q0 -159 -59 -298.5t-159.5 -237t-237.5 -154t-290 -56.5q-204 0 -374 95.5t-269.5 267t-99.5 383.5zM317 717q0 -231 144 -376.5t366 -145.5q221 0 365.5 146t144.5 376 q0 232 -144 377t-366 145q-223 0 -366.5 -144.5t-143.5 -377.5zM465 1624l362 305l363 -305l-113 -115l-250 209l-249 -209z" />
<glyph unicode="&#xf5;" d="M84 717q0 159 58.5 298t158 237t236.5 154t290 56q204 0 374.5 -95t271 -266.5t100.5 -383.5q0 -159 -59 -298.5t-159.5 -237t-237.5 -154t-290 -56.5q-204 0 -374 95.5t-269.5 267t-99.5 383.5zM317 717q0 -231 144 -376.5t366 -145.5q221 0 365.5 146t144.5 376 q0 232 -144 377t-366 145q-223 0 -366.5 -144.5t-143.5 -377.5zM420 1567q0 107 73 177.5t185 70.5q47 0 91.5 -19t72.5 -41.5t63 -41.5t64 -19q41 0 68.5 27t27.5 67h180q0 -107 -73 -177.5t-185 -70.5q-45 0 -88.5 18.5t-72.5 41t-64.5 41t-65.5 18.5q-43 0 -70.5 -26 t-27.5 -66h-178z" />
<glyph unicode="&#xf6;" d="M84 717q0 159 58.5 298t158 237t236.5 154t290 56q204 0 374.5 -95t271 -266.5t100.5 -383.5q0 -159 -59 -298.5t-159.5 -237t-237.5 -154t-290 -56.5q-204 0 -374 95.5t-269.5 267t-99.5 383.5zM317 717q0 -231 144 -376.5t366 -145.5q221 0 365.5 146t144.5 376 q0 232 -144 377t-366 145q-223 0 -366.5 -144.5t-143.5 -377.5zM457 1686q0 48 33.5 81t84.5 33q47 0 81 -33.5t34 -80.5q0 -49 -33.5 -83t-81.5 -34q-51 0 -84.5 33.5t-33.5 83.5zM963 1686q0 48 33.5 81t82.5 33t83 -33.5t34 -80.5q0 -50 -34 -83.5t-83 -33.5t-82.5 33.5 t-33.5 83.5z" />
<glyph unicode="&#xf7;" horiz-adv-x="1429" d="M242 633v188h940v-188h-940zM580 274q0 50 34.5 84.5t85.5 34.5t86 -34.5t35 -84.5q0 -52 -35 -87t-86 -35t-85.5 35.5t-34.5 86.5zM580 1186q0 50 34.5 84.5t85.5 34.5t86 -34.5t35 -84.5q0 -52 -35 -87.5t-86 -35.5t-85.5 36t-34.5 87z" />
<glyph unicode="&#xf8;" d="M84 717q0 159 58.5 298t158 237t236.5 154t290 56q200 0 375 -96l78 100l160 -118l-78 -103q101 -102 156 -237t55 -291q0 -159 -59 -298.5t-159.5 -237t-237.5 -154t-290 -56.5q-196 0 -366 92l-76 -100l-160 123l74 98q-102 100 -158.5 237.5t-56.5 295.5zM317 717 q0 -209 121 -352l627 821q-106 53 -238 53q-223 0 -366.5 -144.5t-143.5 -377.5zM598 244q101 -49 229 -49q221 0 365.5 146t144.5 376q0 204 -114 346z" />
<glyph unicode="&#xf9;" horiz-adv-x="1497" d="M145 608v826h228v-824q0 -428 375 -428q378 0 378 428v824h226v-826q0 -308 -159 -472.5t-445 -164.5t-444.5 164.5t-158.5 472.5zM397 1716l80 156l457 -244l-70 -125z" />
<glyph unicode="&#xfa;" horiz-adv-x="1497" d="M145 608v826h228v-824q0 -428 375 -428q378 0 378 428v824h226v-826q0 -308 -159 -472.5t-445 -164.5t-444.5 164.5t-158.5 472.5zM535 1628l456 244l80 -156l-467 -213z" />
<glyph unicode="&#xfb;" horiz-adv-x="1497" d="M145 608v826h228v-824q0 -428 375 -428q378 0 378 428v824h226v-826q0 -308 -159 -472.5t-445 -164.5t-444.5 164.5t-158.5 472.5zM385 1624l363 305l362 -305l-113 -115l-249 209l-250 -209z" />
<glyph unicode="&#xfc;" horiz-adv-x="1497" d="M145 608v826h228v-824q0 -428 375 -428q378 0 378 428v824h226v-826q0 -308 -159 -472.5t-445 -164.5t-444.5 164.5t-158.5 472.5zM377 1686q0 48 34 81t85 33q47 0 80.5 -33.5t33.5 -80.5q0 -49 -33.5 -83t-80.5 -34q-51 0 -85 33.5t-34 83.5zM883 1686q0 48 33.5 81 t82.5 33t83 -33.5t34 -80.5q0 -50 -34 -83.5t-83 -33.5t-82.5 33.5t-33.5 83.5z" />
<glyph unicode="&#xfd;" horiz-adv-x="1388" d="M29 1434h256l325 -441q14 -19 37 -49.5t34.5 -45.5t12.5 -15h2q2 0 82 110l326 441h256l-553 -754v-680h-225v680zM477 1628l457 244l80 -156l-467 -213z" />
<glyph unicode="&#xfe;" horiz-adv-x="1271" d="M180 0v1434h228v-248h274q227 0 368.5 -131t141.5 -336t-141.5 -336t-368.5 -131h-274v-252h-228zM408 465h278q123 0 196.5 70t73.5 184q0 115 -73.5 185.5t-196.5 70.5h-278v-510z" />
<glyph unicode="&#xff;" horiz-adv-x="1388" d="M29 1434h256l325 -441q14 -19 37 -49.5t34.5 -45.5t12.5 -15h2q2 0 82 110l326 441h256l-553 -754v-680h-225v680zM319 1686q0 48 34 81t85 33q47 0 81 -33.5t34 -80.5q0 -49 -33.5 -83t-81.5 -34q-51 0 -85 33.5t-34 83.5zM825 1686q0 47 34 80.5t83 33.5t83 -33.5 t34 -80.5q0 -50 -33.5 -83.5t-83.5 -33.5t-83.5 33.5t-33.5 83.5z" />
<glyph unicode="&#x152;" horiz-adv-x="2097" d="M84 717q0 210 95.5 376.5t260 257.5t367.5 91q112 0 166 -8h977v-213h-758v-373h604v-201h-604v-434h770v-213h-989q-71 -8 -166 -8q-203 0 -367.5 91t-260 257.5t-95.5 376.5zM317 717q0 -227 136 -364.5t354 -137.5q94 0 166 29v946q-65 29 -166 29q-219 0 -354.5 -137 t-135.5 -365z" />
<glyph unicode="&#x153;" horiz-adv-x="2097" d="M84 717q0 210 95.5 376.5t260 257.5t367.5 91q112 0 166 -8h977v-213h-758v-373h604v-201h-604v-434h770v-213h-989q-71 -8 -166 -8q-203 0 -367.5 91t-260 257.5t-95.5 376.5zM317 717q0 -227 136 -364.5t354 -137.5q94 0 166 29v946q-65 29 -166 29q-219 0 -354.5 -137 t-135.5 -365z" />
<glyph unicode="&#x178;" horiz-adv-x="1388" d="M29 1434h256l325 -441q14 -19 37 -49.5t34.5 -45.5t12.5 -15h2q2 0 82 110l326 441h256l-553 -754v-680h-225v680zM317 1686q0 48 34 81t85 33q47 0 81 -33.5t34 -80.5q0 -49 -33.5 -83t-81.5 -34q-51 0 -85 33.5t-34 83.5zM823 1686q0 47 34 80.5t83 33.5t83 -33.5 t34 -80.5q0 -50 -33.5 -83.5t-83.5 -33.5t-83.5 33.5t-33.5 83.5z" />
<glyph unicode="&#x2c6;" horiz-adv-x="776" d="M6 1624l363 305l360 -305l-111 -115l-249 209l-250 -209z" />
<glyph unicode="&#x2dc;" horiz-adv-x="927" d="M33 1567q0 108 72.5 178t185.5 70q47 0 91.5 -19t72.5 -41.5t62 -41.5t63 -19q42 0 69 27t29 67h178q2 -107 -71 -177.5t-187 -70.5q-44 0 -87.5 18.5t-72 41t-64.5 41t-67 18.5q-41 0 -68.5 -26t-27.5 -66h-178z" />
<glyph unicode="&#x2000;" horiz-adv-x="964" />
<glyph unicode="&#x2001;" horiz-adv-x="1929" />
<glyph unicode="&#x2002;" horiz-adv-x="964" />
<glyph unicode="&#x2003;" horiz-adv-x="1929" />
<glyph unicode="&#x2004;" horiz-adv-x="643" />
<glyph unicode="&#x2005;" horiz-adv-x="482" />
<glyph unicode="&#x2006;" horiz-adv-x="321" />
<glyph unicode="&#x2007;" horiz-adv-x="321" />
<glyph unicode="&#x2008;" horiz-adv-x="241" />
<glyph unicode="&#x2009;" horiz-adv-x="385" />
<glyph unicode="&#x200a;" horiz-adv-x="107" />
<glyph unicode="&#x2010;" horiz-adv-x="1302" d="M180 633v188h942v-188h-942z" />
<glyph unicode="&#x2011;" horiz-adv-x="1302" d="M180 633v188h942v-188h-942z" />
<glyph unicode="&#x2012;" horiz-adv-x="1302" d="M180 633v188h942v-188h-942z" />
<glyph unicode="&#x2013;" horiz-adv-x="1220" d="M180 621v210h860v-210h-860z" />
<glyph unicode="&#x2014;" horiz-adv-x="2099" d="M180 621v210h1739v-210h-1739z" />
<glyph unicode="&#x2018;" horiz-adv-x="636" d="M180 1112q0 90 53.5 184t131.5 164h90q-49 -40 -89 -113t-40 -130l-23 -11l23 -2q39 -2 69.5 -32.5t30.5 -79.5q0 -51 -36 -86t-89 -35q-51 0 -86 39.5t-35 101.5z" />
<glyph unicode="&#x2019;" horiz-adv-x="636" d="M180 971q49 41 89 114.5t40 128.5l25 11l-25 2q-37 2 -67.5 32.5t-30.5 79.5q0 52 35.5 86.5t87.5 34.5t86.5 -39.5t34.5 -101.5q0 -90 -53 -184.5t-132 -163.5h-90z" />
<glyph unicode="&#x201a;" horiz-adv-x="636" d="M180 -270q49 41 89 114.5t40 128.5l25 11l-25 2q-37 2 -67.5 32.5t-30.5 79.5q0 52 35.5 86.5t87.5 34.5t86.5 -39.5t34.5 -101.5q0 -90 -53 -184.5t-132 -163.5h-90z" />
<glyph unicode="&#x201c;" horiz-adv-x="1044" d="M180 1112q0 90 53.5 184t131.5 164h90q-49 -40 -89 -113t-40 -130l-23 -11l23 -2q39 -2 69.5 -32.5t30.5 -79.5q0 -51 -36 -86t-89 -35q-51 0 -86 39.5t-35 101.5zM588 1112q0 90 53 184t131 164h90q-49 -40 -89 -113t-40 -130l-22 -11l22 -2q39 -2 70 -32.5t31 -79.5 q0 -51 -36 -86t-89 -35q-51 0 -86 39.5t-35 101.5z" />
<glyph unicode="&#x201d;" horiz-adv-x="1044" d="M180 971q49 41 89 114.5t40 128.5l25 11l-25 2q-37 2 -67.5 32.5t-30.5 79.5q0 52 35.5 86.5t87.5 34.5t86.5 -39.5t34.5 -101.5q0 -90 -53 -184.5t-132 -163.5h-90zM588 971q49 41 89 114.5t40 128.5l24 11l-24 2q-37 2 -68 32.5t-31 79.5q0 52 35.5 86.5t87.5 34.5 t86.5 -39.5t34.5 -101.5q0 -91 -52.5 -185t-131.5 -163h-90z" />
<glyph unicode="&#x201e;" horiz-adv-x="1026" d="M180 -270q49 40 89 113t40 130l25 9l-25 4q-37 2 -67.5 32.5t-30.5 79.5q0 51 36 85t87 34q52 0 86.5 -38.5t34.5 -100.5q0 -91 -53.5 -186t-131.5 -162h-90zM569 -270q49 40 89 113t40 130l25 9l-25 4q-37 2 -67.5 32.5t-30.5 79.5q0 51 36 85t87 34q52 0 86.5 -38.5 t34.5 -100.5q0 -91 -53.5 -186t-131.5 -162h-90z" />
<glyph unicode="&#x2022;" horiz-adv-x="796" d="M180 727q0 91 63.5 154t155.5 63q91 0 154 -63t63 -154t-63 -155t-154 -64q-92 0 -155.5 64t-63.5 155z" />
<glyph unicode="&#x2026;" horiz-adv-x="1531" d="M123 72q0 41 29.5 70.5t70.5 29.5t71 -29.5t30 -70.5t-30 -71t-71 -30t-70.5 30t-29.5 71zM655 72q0 41 30 70.5t71 29.5t70.5 -29.5t29.5 -70.5t-29.5 -71t-70.5 -30t-71 30t-30 71zM1208 72q0 41 30 70.5t71 29.5t70.5 -29.5t29.5 -70.5t-29.5 -71t-70.5 -30t-71 30 t-30 71z" />
<glyph unicode="&#x202f;" horiz-adv-x="385" />
<glyph unicode="&#x2039;" horiz-adv-x="970" d="M180 721l482 -481l126 127l-364 354l364 354l-124 125z" />
<glyph unicode="&#x203a;" horiz-adv-x="970" d="M180 367l367 354l-365 354l125 125l481 -479l-481 -481z" />
<glyph unicode="&#x205f;" horiz-adv-x="482" />
<glyph unicode="&#x20ac;" horiz-adv-x="1640" d="M84 524v152h94v41v39h-94v151h117q62 246 260 398.5t457 152.5q208 0 380 -101.5t267 -273.5l-230 -57q-65 99 -174.5 156t-240.5 57q-167 0 -300 -90t-188 -242h510v-151h-541q-2 -12 -2 -39t2 -41h539v-152h-506q55 -149 187.5 -237t298.5 -88q144 0 262 67t180 183 l227 -58q-90 -192 -269 -304t-402 -112q-171 0 -320 68.5t-252.5 193.5t-144.5 287h-117z" />
<glyph unicode="&#x2122;" horiz-adv-x="1609" d="M37 1296v138h598v-138h-227v-528h-144v528h-227zM748 768v666h135l147 -242q20 -31 35.5 -61.5t21.5 -44t7 -13.5h2q1 0 6.5 13.5t21 43t35.5 60.5l150 244h133v-666h-139v244q0 46 2.5 97.5t4.5 78t1 26.5h-2q-1 0 -9.5 -14t-27.5 -44.5t-37 -57.5l-107 -174h-65 l-109 174q-17 27 -36 59t-26.5 44.5t-8.5 12.5h-2q-1 0 0.5 -26.5t3.5 -78t2 -97.5v-244h-139z" />
<glyph unicode="&#xe000;" horiz-adv-x="1433" d="M0 0v1434h1434v-1434h-1434z" />
</font>
</defs>
</svg>
