<?xml version="1.0" standalone="no"?>
<!DOCTYPE svg PUBLIC "-//W3C//DTD SVG 1.1//EN" "http://www.w3.org/Graphics/SVG/1.1/DTD/svg11.dtd" >
<svg xmlns="http://www.w3.org/2000/svg">
<metadata></metadata>
<defs>
<font id="webfontregular" horiz-adv-x="1188" >
<font-face units-per-em="2048" ascent="1638" descent="-410" />
<missing-glyph horiz-adv-x="500" />
<glyph horiz-adv-x="2048" />
<glyph horiz-adv-x="2048" />
<glyph unicode="&#xd;" />
<glyph unicode=" " />
<glyph unicode="!" d="M41 0v1536h82v-1536h-82zM328 0v1536h205v-1536h-205zM615 0v1536h82v-1536h-82zM778 0v1536h205v-1536h-205zM1065 0v1536h82v-1536h-82z" />
<glyph unicode="&#x22;" />
<glyph unicode="#" />
<glyph unicode="$" d="M41 0v1536h82v-1536h-82zM328 0v1536h82v-1536h-82zM615 0v1536h82v-1536h-82zM901 0v1536h82v-1536h-82zM1065 0v1536h82v-1536h-82z" />
<glyph unicode="%" d="M41 0v1536h82v-1536h-82zM205 0v1536h82v-1536h-82zM492 0v1536h82v-1536h-82zM778 0v1536h82v-1536h-82zM1065 0v1536h82v-1536h-82z" />
<glyph unicode="&#x26;" />
<glyph unicode="'" />
<glyph unicode="(" />
<glyph unicode=")" />
<glyph unicode="*" d="M41 0v1536h82v-1536h-82zM328 0v1536h82v-1536h-82zM492 0v1536h205v-1536h-205zM778 0v1536h205v-1536h-205zM1065 0v1536h82v-1536h-82z" />
<glyph unicode="+" d="M41 0v1536h82v-1536h-82zM328 0v1536h82v-1536h-82zM492 0v1536h82v-1536h-82zM778 0v1536h82v-1536h-82zM1065 0v1536h82v-1536h-82z" />
<glyph unicode="," />
<glyph unicode="-" d="M41 0v1536h82v-1536h-82zM328 0v1536h82v-1536h-82zM492 0v1536h82v-1536h-82zM656 0v1536h204v-1536h-204zM942 0v1536h205v-1536h-205z" />
<glyph unicode="." d="M41 0v1536h205v-1536h-205zM451 0v1536h82v-1536h-82zM615 0v1536h82v-1536h-82zM778 0v1536h205v-1536h-205zM1065 0v1536h82v-1536h-82z" />
<glyph unicode="/" d="M41 0v1536h82v-1536h-82zM328 0v1536h82v-1536h-82zM615 0v1536h82v-1536h-82zM778 0v1536h82v-1536h-82zM1065 0v1536h82v-1536h-82z" />
<glyph unicode="0" d="M41 0v1536h82v-1536h-82zM205 0v1536h82v-1536h-82zM492 0v1536h205v-1536h-205zM778 0v1536h205v-1536h-205zM1065 0v1536h82v-1536h-82z" />
<glyph unicode="1" d="M41 0v1536h205v-1536h-205zM328 0v1536h82v-1536h-82zM615 0v1536h82v-1536h-82zM778 0v1536h82v-1536h-82zM942 0v1536h205v-1536h-205z" />
<glyph unicode="2" d="M41 0v1536h82v-1536h-82zM205 0v1536h205v-1536h-205zM615 0v1536h82v-1536h-82zM778 0v1536h82v-1536h-82zM942 0v1536h205v-1536h-205z" />
<glyph unicode="3" d="M41 0v1536h205v-1536h-205zM328 0v1536h205v-1536h-205zM738 0v1536h81v-1536h-81zM901 0v1536h82v-1536h-82zM1065 0v1536h82v-1536h-82z" />
<glyph unicode="4" d="M41 0v1536h82v-1536h-82zM205 0v1536h82v-1536h-82zM492 0v1536h205v-1536h-205zM778 0v1536h82v-1536h-82zM942 0v1536h205v-1536h-205z" />
<glyph unicode="5" d="M41 0v1536h205v-1536h-205zM328 0v1536h82v-1536h-82zM615 0v1536h209v-1536h-209zM905 0v1536h82v-1536h-82zM1069 0v1536h78v-1536h-78z" />
<glyph unicode="6" d="M41 0v1536h82v-1536h-82zM205 0v1536h205v-1536h-205zM615 0v1536h204v-1536h-204zM901 0v1536h82v-1536h-82zM1065 0v1536h82v-1536h-82z" />
<glyph unicode="7" d="M41 0v1536h82v-1536h-82zM205 0v1536h82v-1536h-82zM492 0v1536h82v-1536h-82zM656 0v1536h204v-1536h-204zM942 0v1536h205v-1536h-205z" />
<glyph unicode="8" d="M41 0v1536h205v-1536h-205zM328 0v1536h82v-1536h-82zM615 0v1536h82v-1536h-82zM778 0v1536h205v-1536h-205zM1065 0v1536h82v-1536h-82z" />
<glyph unicode="9" d="M41 0v1536h82v-1536h-82zM205 0v1536h205v-1536h-205zM615 0v1536h82v-1536h-82zM778 0v1536h205v-1536h-205zM1065 0v1536h82v-1536h-82z" />
<glyph unicode=":" />
<glyph unicode=";" />
<glyph unicode="&#x3c;" />
<glyph unicode="=" />
<glyph unicode="&#x3e;" />
<glyph unicode="?" />
<glyph unicode="@" />
<glyph unicode="A" d="M41 0v1536h205v-1536h-205zM328 0v1536h82v-1536h-82zM492 0v1536h82v-1536h-82zM778 0v1536h82v-1536h-82zM942 0v1536h205v-1536h-205z" />
<glyph unicode="B" d="M41 0v1536h82v-1536h-82zM205 0v1536h205v-1536h-205zM492 0v1536h82v-1536h-82zM778 0v1536h82v-1536h-82zM942 0v1536h205v-1536h-205z" />
<glyph unicode="C" d="M41 0v1536h205v-1536h-205zM328 0v1536h205v-1536h-205zM615 0v1536h82v-1536h-82zM901 0v1536h82v-1536h-82zM1065 0v1536h82v-1536h-82z" />
<glyph unicode="D" d="M41 0v1536h82v-1536h-82zM205 0v1536h82v-1536h-82zM369 0v1536h205v-1536h-205zM778 0v1536h82v-1536h-82zM942 0v1536h205v-1536h-205z" />
<glyph unicode="E" d="M41 0v1536h205v-1536h-205zM328 0v1536h82v-1536h-82zM492 0v1536h209v-1536h-209zM905 0v1536h82v-1536h-82zM1069 0v1536h78v-1536h-78z" />
<glyph unicode="F" d="M41 0v1536h82v-1536h-82zM205 0v1536h205v-1536h-205zM492 0v1536h205v-1536h-205zM901 0v1536h82v-1536h-82zM1065 0v1536h82v-1536h-82z" />
<glyph unicode="G" d="M41 0v1536h82v-1536h-82zM205 0v1536h82v-1536h-82zM369 0v1536h82v-1536h-82zM656 0v1536h204v-1536h-204zM942 0v1536h205v-1536h-205z" />
<glyph unicode="H" d="M41 0v1536h205v-1536h-205zM328 0v1536h82v-1536h-82zM492 0v1536h82v-1536h-82zM778 0v1536h205v-1536h-205zM1065 0v1536h82v-1536h-82z" />
<glyph unicode="I" d="M41 0v1536h82v-1536h-82zM205 0v1536h205v-1536h-205zM492 0v1536h82v-1536h-82zM778 0v1536h205v-1536h-205zM1065 0v1536h82v-1536h-82z" />
<glyph unicode="J" d="M41 0v1536h82v-1536h-82zM205 0v1536h82v-1536h-82zM369 0v1536h205v-1536h-205zM778 0v1536h205v-1536h-205zM1065 0v1536h82v-1536h-82z" />
<glyph unicode="K" d="M41 0v1536h205v-1536h-205zM328 0v1536h82v-1536h-82zM492 0v1536h82v-1536h-82zM656 0v1536h82v-1536h-82zM942 0v1536h205v-1536h-205z" />
<glyph unicode="L" d="M41 0v1536h82v-1536h-82zM205 0v1536h205v-1536h-205zM492 0v1536h82v-1536h-82zM656 0v1536h82v-1536h-82zM942 0v1536h205v-1536h-205z" />
<glyph unicode="M" d="M41 0v1536h205v-1536h-205zM328 0v1536h205v-1536h-205zM615 0v1536h82v-1536h-82zM778 0v1536h82v-1536h-82zM1065 0v1536h82v-1536h-82z" />
<glyph unicode="N" d="M41 0v1536h82v-1536h-82zM205 0v1536h82v-1536h-82zM369 0v1536h205v-1536h-205zM656 0v1536h82v-1536h-82zM942 0v1536h205v-1536h-205z" />
<glyph unicode="O" d="M41 0v1536h205v-1536h-205zM328 0v1536h82v-1536h-82zM492 0v1536h209v-1536h-209zM783 0v1536h82v-1536h-82zM1069 0v1536h78v-1536h-78z" />
<glyph unicode="P" d="M41 0v1536h82v-1536h-82zM205 0v1536h205v-1536h-205zM492 0v1536h205v-1536h-205zM778 0v1536h82v-1536h-82zM1065 0v1536h82v-1536h-82z" />
<glyph unicode="Q" d="M41 0v1536h82v-1536h-82zM205 0v1536h82v-1536h-82zM369 0v1536h82v-1536h-82zM533 0v1536h205v-1536h-205zM942 0v1536h205v-1536h-205z" />
<glyph unicode="R" d="M41 0v1536h205v-1536h-205zM328 0v1536h82v-1536h-82zM492 0v1536h82v-1536h-82zM656 0v1536h204v-1536h-204zM1065 0v1536h82v-1536h-82z" />
<glyph unicode="S" d="M41 0v1536h82v-1536h-82zM205 0v1536h205v-1536h-205zM492 0v1536h82v-1536h-82zM656 0v1536h204v-1536h-204zM1065 0v1536h82v-1536h-82z" />
<glyph unicode="T" d="M41 0v1536h82v-1536h-82zM205 0v1536h82v-1536h-82zM369 0v1536h205v-1536h-205zM656 0v1536h204v-1536h-204zM1065 0v1536h82v-1536h-82z" />
<glyph unicode="U" d="M41 0v1536h205v-1536h-205zM451 0v1536h82v-1536h-82zM615 0v1536h82v-1536h-82zM778 0v1536h82v-1536h-82zM942 0v1536h205v-1536h-205z" />
<glyph unicode="V" d="M41 0v1536h82v-1536h-82zM328 0v1536h205v-1536h-205zM615 0v1536h82v-1536h-82zM778 0v1536h82v-1536h-82zM942 0v1536h205v-1536h-205z" />
<glyph unicode="W" d="M41 0v1536h205v-1536h-205zM451 0v1536h205v-1536h-205zM738 0v1536h81v-1536h-81zM901 0v1536h82v-1536h-82zM1065 0v1536h82v-1536h-82z" />
<glyph unicode="X" d="M41 0v1536h82v-1536h-82zM328 0v1536h82v-1536h-82zM492 0v1536h205v-1536h-205zM778 0v1536h82v-1536h-82zM942 0v1536h205v-1536h-205z" />
<glyph unicode="Y" d="M41 0v1536h205v-1536h-205zM451 0v1536h82v-1536h-82zM615 0v1536h209v-1536h-209zM905 0v1536h82v-1536h-82zM1069 0v1536h78v-1536h-78z" />
<glyph unicode="Z" d="M41 0v1536h82v-1536h-82zM328 0v1536h205v-1536h-205zM615 0v1536h204v-1536h-204zM901 0v1536h82v-1536h-82zM1065 0v1536h82v-1536h-82z" />
<glyph unicode="[" />
<glyph unicode="\" />
<glyph unicode="]" />
<glyph unicode="^" />
<glyph unicode="_" />
<glyph unicode="`" />
<glyph unicode="a" d="M41 0v1536h205v-1536h-205zM328 0v1536h82v-1536h-82zM492 0v1536h82v-1536h-82zM778 0v1536h82v-1536h-82zM942 0v1536h205v-1536h-205z" />
<glyph unicode="b" d="M41 0v1536h82v-1536h-82zM205 0v1536h205v-1536h-205zM492 0v1536h82v-1536h-82zM778 0v1536h82v-1536h-82zM942 0v1536h205v-1536h-205z" />
<glyph unicode="c" d="M41 0v1536h205v-1536h-205zM328 0v1536h205v-1536h-205zM615 0v1536h82v-1536h-82zM901 0v1536h82v-1536h-82zM1065 0v1536h82v-1536h-82z" />
<glyph unicode="d" d="M41 0v1536h82v-1536h-82zM205 0v1536h82v-1536h-82zM369 0v1536h205v-1536h-205zM778 0v1536h82v-1536h-82zM942 0v1536h205v-1536h-205z" />
<glyph unicode="e" d="M41 0v1536h205v-1536h-205zM328 0v1536h82v-1536h-82zM492 0v1536h209v-1536h-209zM905 0v1536h82v-1536h-82zM1069 0v1536h78v-1536h-78z" />
<glyph unicode="f" d="M41 0v1536h82v-1536h-82zM205 0v1536h205v-1536h-205zM492 0v1536h205v-1536h-205zM901 0v1536h82v-1536h-82zM1065 0v1536h82v-1536h-82z" />
<glyph unicode="g" d="M41 0v1536h82v-1536h-82zM205 0v1536h82v-1536h-82zM369 0v1536h82v-1536h-82zM656 0v1536h204v-1536h-204zM942 0v1536h205v-1536h-205z" />
<glyph unicode="h" d="M41 0v1536h205v-1536h-205zM328 0v1536h82v-1536h-82zM492 0v1536h82v-1536h-82zM778 0v1536h205v-1536h-205zM1065 0v1536h82v-1536h-82z" />
<glyph unicode="i" d="M41 0v1536h82v-1536h-82zM205 0v1536h205v-1536h-205zM492 0v1536h82v-1536h-82zM778 0v1536h205v-1536h-205zM1065 0v1536h82v-1536h-82z" />
<glyph unicode="j" d="M41 0v1536h82v-1536h-82zM205 0v1536h82v-1536h-82zM369 0v1536h205v-1536h-205zM778 0v1536h205v-1536h-205zM1065 0v1536h82v-1536h-82z" />
<glyph unicode="k" d="M41 0v1536h205v-1536h-205zM328 0v1536h82v-1536h-82zM492 0v1536h82v-1536h-82zM656 0v1536h82v-1536h-82zM942 0v1536h205v-1536h-205z" />
<glyph unicode="l" d="M41 0v1536h82v-1536h-82zM205 0v1536h205v-1536h-205zM492 0v1536h82v-1536h-82zM656 0v1536h82v-1536h-82zM942 0v1536h205v-1536h-205z" />
<glyph unicode="m" d="M41 0v1536h205v-1536h-205zM328 0v1536h205v-1536h-205zM615 0v1536h82v-1536h-82zM778 0v1536h82v-1536h-82zM1065 0v1536h82v-1536h-82z" />
<glyph unicode="n" d="M41 0v1536h82v-1536h-82zM205 0v1536h82v-1536h-82zM369 0v1536h205v-1536h-205zM656 0v1536h82v-1536h-82zM942 0v1536h205v-1536h-205z" />
<glyph unicode="o" d="M41 0v1536h205v-1536h-205zM328 0v1536h82v-1536h-82zM492 0v1536h209v-1536h-209zM783 0v1536h82v-1536h-82zM1069 0v1536h78v-1536h-78z" />
<glyph unicode="p" d="M41 0v1536h82v-1536h-82zM205 0v1536h205v-1536h-205zM492 0v1536h205v-1536h-205zM778 0v1536h82v-1536h-82zM1065 0v1536h82v-1536h-82z" />
<glyph unicode="q" d="M41 0v1536h82v-1536h-82zM205 0v1536h82v-1536h-82zM369 0v1536h82v-1536h-82zM533 0v1536h205v-1536h-205zM942 0v1536h205v-1536h-205z" />
<glyph unicode="r" d="M41 0v1536h205v-1536h-205zM328 0v1536h82v-1536h-82zM492 0v1536h82v-1536h-82zM656 0v1536h204v-1536h-204zM1065 0v1536h82v-1536h-82z" />
<glyph unicode="s" d="M41 0v1536h82v-1536h-82zM205 0v1536h205v-1536h-205zM492 0v1536h82v-1536h-82zM656 0v1536h204v-1536h-204zM1065 0v1536h82v-1536h-82z" />
<glyph unicode="t" d="M41 0v1536h82v-1536h-82zM205 0v1536h82v-1536h-82zM369 0v1536h205v-1536h-205zM656 0v1536h204v-1536h-204zM1065 0v1536h82v-1536h-82z" />
<glyph unicode="u" d="M41 0v1536h205v-1536h-205zM451 0v1536h82v-1536h-82zM615 0v1536h82v-1536h-82zM778 0v1536h82v-1536h-82zM942 0v1536h205v-1536h-205z" />
<glyph unicode="v" d="M41 0v1536h82v-1536h-82zM328 0v1536h205v-1536h-205zM615 0v1536h82v-1536h-82zM778 0v1536h82v-1536h-82zM942 0v1536h205v-1536h-205z" />
<glyph unicode="w" d="M41 0v1536h205v-1536h-205zM451 0v1536h205v-1536h-205zM738 0v1536h81v-1536h-81zM901 0v1536h82v-1536h-82zM1065 0v1536h82v-1536h-82z" />
<glyph unicode="x" d="M41 0v1536h82v-1536h-82zM328 0v1536h82v-1536h-82zM492 0v1536h205v-1536h-205zM778 0v1536h82v-1536h-82zM942 0v1536h205v-1536h-205z" />
<glyph unicode="y" d="M41 0v1536h205v-1536h-205zM451 0v1536h82v-1536h-82zM615 0v1536h209v-1536h-209zM905 0v1536h82v-1536h-82zM1069 0v1536h78v-1536h-78z" />
<glyph unicode="z" d="M41 0v1536h82v-1536h-82zM328 0v1536h205v-1536h-205zM615 0v1536h204v-1536h-204zM901 0v1536h82v-1536h-82zM1065 0v1536h82v-1536h-82z" />
<glyph unicode="{" />
<glyph unicode="|" />
<glyph unicode="}" />
<glyph unicode="~" />
<glyph unicode="&#xa0;" />
<glyph unicode="&#xa1;" />
<glyph unicode="&#xa2;" />
<glyph unicode="&#xa3;" />
<glyph unicode="&#xa4;" />
<glyph unicode="&#xa5;" />
<glyph unicode="&#xa6;" />
<glyph unicode="&#xa7;" />
<glyph unicode="&#xa8;" />
<glyph unicode="&#xa9;" />
<glyph unicode="&#xaa;" />
<glyph unicode="&#xab;" />
<glyph unicode="&#xac;" />
<glyph unicode="&#xad;" />
<glyph unicode="&#xae;" />
<glyph unicode="&#xaf;" />
<glyph unicode="&#xb0;" />
<glyph unicode="&#xb1;" />
<glyph unicode="&#xb2;" />
<glyph unicode="&#xb3;" />
<glyph unicode="&#xb4;" />
<glyph unicode="&#xb5;" />
<glyph unicode="&#xb6;" />
<glyph unicode="&#xb8;" />
<glyph unicode="&#xb9;" />
<glyph unicode="&#xba;" />
<glyph unicode="&#xbb;" />
<glyph unicode="&#xbc;" />
<glyph unicode="&#xbd;" />
<glyph unicode="&#xbe;" />
<glyph unicode="&#xbf;" />
<glyph unicode="&#xc0;" />
<glyph unicode="&#xc1;" />
<glyph unicode="&#xc2;" />
<glyph unicode="&#xc3;" />
<glyph unicode="&#xc4;" />
<glyph unicode="&#xc5;" />
<glyph unicode="&#xc6;" />
<glyph unicode="&#xc7;" />
<glyph unicode="&#xc8;" />
<glyph unicode="&#xc9;" />
<glyph unicode="&#xca;" />
<glyph unicode="&#xcb;" />
<glyph unicode="&#xcc;" />
<glyph unicode="&#xcd;" />
<glyph unicode="&#xce;" />
<glyph unicode="&#xcf;" />
<glyph unicode="&#xd0;" />
<glyph unicode="&#xd1;" />
<glyph unicode="&#xd2;" />
<glyph unicode="&#xd3;" />
<glyph unicode="&#xd4;" />
<glyph unicode="&#xd5;" />
<glyph unicode="&#xd6;" />
<glyph unicode="&#xd7;" />
<glyph unicode="&#xd8;" />
<glyph unicode="&#xd9;" />
<glyph unicode="&#xda;" />
<glyph unicode="&#xdb;" />
<glyph unicode="&#xdc;" />
<glyph unicode="&#xdd;" />
<glyph unicode="&#xde;" />
<glyph unicode="&#xdf;" />
<glyph unicode="&#xe0;" />
<glyph unicode="&#xe1;" />
<glyph unicode="&#xe2;" />
<glyph unicode="&#xe3;" />
<glyph unicode="&#xe4;" />
<glyph unicode="&#xe5;" />
<glyph unicode="&#xe6;" />
<glyph unicode="&#xe7;" />
<glyph unicode="&#xe8;" />
<glyph unicode="&#xe9;" />
<glyph unicode="&#xea;" />
<glyph unicode="&#xeb;" />
<glyph unicode="&#xec;" />
<glyph unicode="&#xed;" />
<glyph unicode="&#xee;" />
<glyph unicode="&#xef;" />
<glyph unicode="&#xf0;" />
<glyph unicode="&#xf1;" />
<glyph unicode="&#xf2;" />
<glyph unicode="&#xf3;" />
<glyph unicode="&#xf4;" />
<glyph unicode="&#xf5;" />
<glyph unicode="&#xf6;" />
<glyph unicode="&#xf7;" />
<glyph unicode="&#xf8;" />
<glyph unicode="&#xf9;" />
<glyph unicode="&#xfa;" />
<glyph unicode="&#xfb;" />
<glyph unicode="&#xfc;" />
<glyph unicode="&#xfd;" />
<glyph unicode="&#xfe;" />
<glyph unicode="&#xff;" horiz-adv-x="4588" d="M41 719h398q0 -110 34.5 -211.5t93 -167.5t127 -101.5t162.5 -35.5q194 0 361 111l-15 -301q-177 -28 -327 -28q-171 0 -325.5 46t-270 145t-177 244t-61.5 299zM41 719q0 149 62 295.5t175 246.5t273 145.5t324 45.5q160 0 327 -28l15 -301q-166 112 -361 112 q-94 0 -160 -34.5t-131 -102.5q-60 -64 -93 -166t-33 -213h-398zM1262 0q57 56 88 111q28 50 61 143l297 860l35 101q12 45 12 71q0 41 -22 72q-30 39 -60 57h529l403 -1099l4 -9q44 -116 66 -163q19 -44 119 -138v-6h-652q22 17 38 33t28 29q23 29 23 75q0 28 -4 43 t-7 22.5t-8 16.5l-70 209h-426l-51 -145q-12 -36 -24 -82q-15 -47 -15 -74q0 -33 13 -53q12 -33 65 -74h-442zM1778 629h293l-148 422zM2831 1415h579q-54 -39 -69 -96q-21 -63 -21 -139v-70v-805v-71q0 -93 25 -137q39 -81 65 -97h-577q52 39 73 97q17 60 17 137v71v805v70 q0 90 -25 139q-39 77 -67 96zM3480 0q47 33 69 97q21 75 21 137v71v805v70q0 96 -21 143q-40 72 -69 92h579q-61 -46 -73 -92q-19 -60 -19 -145v-70v-864q48 -23 105.5 -30t122.5 -7q94 0 163 21q34 9 69.5 27.5t72.5 45.5l-82 -301h-938zM4199 1274q0 59 42.5 102.5 t104.5 43.5q59 0 103 -43q40 -43 40 -105q0 -61 -42.5 -105t-102.5 -44q-58 0 -101.5 43.5t-43.5 107.5zM4219 1274q0 -56 37 -90q35 -39 88 -39q50 0 90 35q37 38 37 94q0 52 -37.5 89.5t-89.5 37.5q-50 0 -87.5 -38t-37.5 -89zM4285 1186v176h77q31 0 50 -10 q14 -11 14 -37q0 -23 -15 -37t-38 -14l51 -78h-31l-47 78h-37v-78h-24zM4309 1284h45q23 0 35 5.5t12 25.5q0 12 -9 19.5t-36 7.5h-47v-58z" />
<glyph unicode="&#x152;" />
<glyph unicode="&#x153;" />
<glyph unicode="&#x178;" />
<glyph unicode="&#x2c6;" />
<glyph unicode="&#x2dc;" />
<glyph unicode="&#x2000;" horiz-adv-x="768" />
<glyph unicode="&#x2001;" horiz-adv-x="1536" />
<glyph unicode="&#x2002;" horiz-adv-x="768" />
<glyph unicode="&#x2003;" horiz-adv-x="1536" />
<glyph unicode="&#x2004;" horiz-adv-x="512" />
<glyph unicode="&#x2005;" horiz-adv-x="384" />
<glyph unicode="&#x2006;" horiz-adv-x="256" />
<glyph unicode="&#x2007;" horiz-adv-x="256" />
<glyph unicode="&#x2008;" horiz-adv-x="192" />
<glyph unicode="&#x2009;" horiz-adv-x="307" />
<glyph unicode="&#x200a;" horiz-adv-x="85" />
<glyph unicode="&#x2010;" d="M41 0v1536h82v-1536h-82zM328 0v1536h82v-1536h-82zM492 0v1536h82v-1536h-82zM656 0v1536h204v-1536h-204zM942 0v1536h205v-1536h-205z" />
<glyph unicode="&#x2011;" d="M41 0v1536h82v-1536h-82zM328 0v1536h82v-1536h-82zM492 0v1536h82v-1536h-82zM656 0v1536h204v-1536h-204zM942 0v1536h205v-1536h-205z" />
<glyph unicode="&#x2012;" d="M41 0v1536h82v-1536h-82zM328 0v1536h82v-1536h-82zM492 0v1536h82v-1536h-82zM656 0v1536h204v-1536h-204zM942 0v1536h205v-1536h-205z" />
<glyph unicode="&#x2013;" />
<glyph unicode="&#x2014;" />
<glyph unicode="&#x2018;" />
<glyph unicode="&#x2019;" />
<glyph unicode="&#x201a;" />
<glyph unicode="&#x201c;" />
<glyph unicode="&#x201d;" />
<glyph unicode="&#x201e;" />
<glyph unicode="&#x2022;" />
<glyph unicode="&#x2026;" />
<glyph unicode="&#x202f;" horiz-adv-x="307" />
<glyph unicode="&#x2039;" />
<glyph unicode="&#x203a;" />
<glyph unicode="&#x205f;" horiz-adv-x="384" />
<glyph unicode="&#x2122;" />
<glyph unicode="&#xe000;" horiz-adv-x="1535" d="M0 0v1535h1535v-1535h-1535z" />
</font>
</defs>
</svg>
